#TITLE:Heart of Witch;
#SUBTITLE:DJMAX Portable Black Square O.S.T;
#ARTIST:ReX;
#TITLETRANSLIT:;
#SUBTITLETRANSLIT:;
#ARTISTTRANSLIT:;
#CREDIT:;
#BANNER:Heart of Witch.png;
#BACKGROUND:Heart of Witch.jpg;
#LYRICSPATH:;
#CDTITLE:cdtitle.png;
#MUSIC:Heart of Witch.MP3;
#OFFSET:0.800;
#SAMPLESTART:57.046;
#SAMPLELENGTH:27.620;
#SELECTABLE:YES;
#BPMS:0.000=170.040;
#STOPS:;
#BGCHANGES:;
// cache tags:
#FIRSTBEAT:3.000;
#LASTBEAT:256.000;
#SONGFILENAME:Songs/alice 4th complete step/Heart of Witch/Heart of Witch.sm;
#HASMUSIC:1;
#HASBANNER:1;
#MUSICLENGTH:95.026;
// end cache tags

//---------------pump-single - ----------------
#NOTES:
     pump-single:
     :
     Hard:
     1:
     1.000,1.000,0.768,0.347,1.000,678.000,73.000,33.000,0.000,0.000:
00000
00000
00000
00000
00000
00000
00000
00000
00000
00000
00000
00000
00100
00010
01000
00100
,
20000
00000
00000
30000
10010
00000
00101
00000
,
00001
00000
00010
00000
00001
00000
00100
00000
00001
01000
00010
00100
00010
01000
00010
00100
,
00002
00000
00000
00003
01001
00000
10100
00000
,
00001
00000
01000
00000
00010
00000
10000
00000
00001
00010
00100
01000
00010
00000
10000
00100
,
10000
00000
00010
00100
00001
00000
01000
00000
00010
00100
00001
00000
10000
00000
00010
00100
,
00001
00000
01000
00000
00010
00100
00001
00000
10000
01000
00100
00010
01000
00100
01000
00000
,
00001
00000
01000
00100
10000
00000
00010
00000
01000
00100
10000
00000
00001
00000
01000
00100
,
10000
00000
00010
00000
01000
00100
10000
00000
00001
00010
00100
01000
00010
00100
00010
00000
,
10000
00100
10000
00100
10000
00000
10100
00000
10001
00000
01001
00000
00101
00000
00000
00000
,
00001
00100
00001
00100
00001
00000
00101
00000
10001
00000
10010
00000
10100
00000
00000
00000
,
01000
00100
01000
00100
01000
00000
01100
00000
01010
00000
01010
00000
10010
00000
00000
00000
,
00001
00000
00100
00000
01000
00000
10000
00100
10000
00000
01000
00000
00100
00000
00010
00000
,
10000
00100
01000
00001
00100
00000
00101
00000
01001
00000
10010
00000
01001
00000
00000
00000
,
00001
00100
00010
10000
00100
00000
10100
00000
10010
00000
01001
00000
10010
00000
00000
00000
,
10000
00100
01000
00001
00100
00000
00101
00000
01001
00000
10010
00000
01001
00000
00000
00000
,
10000
00100
01000
00010
00100
00001
01000
00010
10000
00001
00100
00010
01000
00100
10000
00010
,
20000
00000
00000
30000
00001
00100
00001
00100
00010
00100
00010
00100
00010
01000
00010
01000
,
00100
01000
00100
01000
00100
10000
00100
10000
00001
10000
00001
10000
00001
00100
00001
00100
,
00020
00000
00000
00030
10000
00100
10000
00100
01000
00100
01000
00100
01000
00010
01000
00010
,
00100
00010
00100
00010
00100
00001
00100
00001
10000
00001
10000
00001
10000
00100
10000
00100
,
02000
00000
00000
03000
00010
00100
00010
00100
00001
00100
00001
00100
00001
10000
00001
10000
,
00100
10000
00100
10000
00100
01000
00100
01000
00010
01000
00010
01000
00010
00100
00010
00100
,
00002
00000
00000
00003
01000
00100
01000
00100
10000
00100
10000
00100
10000
00001
10000
00001
,
00100
00001
00100
00001
00100
00010
00100
00010
01000
00010
01000
00010
01000
00100
01000
00100
,
20000
00000
30002
00000
02003
03000
00010
00100
00010
01000
00100
10000
00010
00100
00001
00100
,
10001
00000
01001
00000
10010
00000
00100
00000
01000
00000
00001
00010
00001
00100
00010
01000
,
00200
00000
20000
00000
30300
00000
10000
00100
10000
01000
00100
01000
10000
00100
00010
00100
,
02000
00000
00100
03000
00001
00010
00001
00100
00010
00001
00010
00100
00001
01000
00100
00010
,
00002
00000
20003
00000
30020
00030
01000
00100
01000
00010
00100
00001
01000
00100
10000
00100
,
10001
00000
10010
00000
01001
00000
00100
00000
00010
00000
10000
01000
10000
00100
01000
00010
,
00200
00000
00002
00000
00303
00000
00001
00100
00001
00010
00100
00010
00001
00100
01000
00100
,
00020
00000
00100
00030
10000
01000
10000
00100
01000
10000
01000
00100
10000
00010
00100
01000
,
20000
00000
30002
00000
00103
00000
00001
10000
00100
10000
00001
00100
00001
10000
00100
00001
,
00020
00000
02030
00000
03100
10000
00100
10000
00001
10000
00001
10000
00001
00100
00001
00100
,
01010
10100
00011
01100
,
00011
00011
10001
10001
11000
11000
01010
01010
,
10000
00100
10000
00010
00100
00000
01010
00000
01010
00000
10001
00000
01010
00000
00000
00000
,
00001
00100
00001
01000
00100
00000
01010
00000
01010
00000
10001
00000
01010
00000
00000
00000
,
01000
00100
01000
00001
00100
00000
10001
00000
10001
00000
01010
00000
10001
00000
00000
00000
,
01000
00100
00001
00100
00010
00100
10000
01000
,
00001
00010
00001
00010
00001
00000
11000
00000
11000
00000
00011
00000
11000
00000
00000
00000
,
10000
01000
10000
01000
10000
00000
00011
00000
00011
00000
11000
00000
00011
00000
00000
00000
,
10000
00100
00001
00100
10000
00000
11000
00000
11000
00000
00011
00000
11000
00000
00000
00000
,
00100
00010
01000
00010
01000
00100
01000
00100
10000
00010
01000
00001
00100
00010
01000
00100
,
10000
01000
00100
00010
00001
00010
00100
01000
10000
00000
00100
00000
02000
00000
03000
00000
,
00001
00010
00100
01000
10000
01000
00100
00010
00001
00000
00100
00000
00020
00000
00030
00000
,
10000
01000
00100
00010
00001
00010
00100
01000
10000
00000
00020
00000
02030
00000
03000
00000
,
00001
00010
00100
01000
10000
01000
00100
00010
00001
00000
02000
00000
03020
00000
01030
00000
,
10000
00100
00001
00100
10000
01000
00100
00010
00001
00000
00100
00000
01000
00000
00010
00000
,
00001
00100
10000
00100
00001
00010
00100
01000
10000
00000
00100
00000
00001
00000
10000
00000
,
00001
00010
00001
00010
00001
00100
00001
00100
00001
10000
00001
10000
00100
10000
00100
10000
,
01000
10000
01000
10000
01000
00100
01000
00100
00010
00100
00010
00100
00010
01000
00010
01000
,
00200
00000
00300
00000
10000
01000
10000
01000
00001
01000
00001
01000
00001
00010
00001
00010
,
01000
00010
01000
00010
01000
10000
01000
10000
00010
10000
00010
10000
00010
00001
00010
00001
,
00200
00000
00300
00000
00001
00010
00001
00010
10000
00010
10000
00010
10000
01000
10000
01000
,
00010
01000
00010
01000
00010
00001
00010
00001
01000
00001
01000
00001
01000
10000
01000
20000
,
02000
33000
00100
00011
00100
10010
00100
01001
,
01000
00010
10000
00001
01000
00010
10000
00001
10000
01000
00001
00010
01000
10000
00010
00001
,
00100
00000
00000
00000
00000
00000
00000
00000
00100
00000
00000
00000
00000
00000
00100
00100
,
00200
00000
00000
00000
,
00000
00000
00000
00000
,
00000
00000
00000
00000
,
00000
00000
00000
00000
,
00300
00000
00000
00000
;

//---------------dance-single - ----------------
#NOTES:
     dance-single:
     :
     Hard:
     14:
     1.000,1.000,1.000,0.894,1.000,601.000,102.000,85.000,0.000,7.000:
0000
0000
0000
0000
0000
0000
0000
0000
0000
0000
0000
0000
0010
0001
0100
0010
,
2002
0000
0000
3003
,
1001
0000
0010
0000
1100
0000
0010
0000
1000
0010
0100
0001
1000
0100
0010
0001
,
1001
0000
0010
0100
1001
0000
0100
0010
,
1001
0000
1010
1100
0000
0101
0011
0000
,
1001
0000
0100
0010
0100
0000
1001
0000
0010
0100
0010
0000
1001
0000
0100
0010
,
0100
0000
1001
0000
0010
0100
0010
0000
1000
0100
0010
0001
0200
0000
0000
0300
,
1001
0000
0010
0100
0010
0000
1001
0000
0100
0010
0100
0000
1001
0000
0010
0100
,
0010
0000
1001
0000
0100
0010
0100
0000
0001
0010
0100
1000
0020
0000
0030
0000
,
1001
0100
0100
1001
0100
0100
1011
0000
,
1001
0100
0100
1001
0100
0100
1011
0000
,
1001
0000
0100
0010
0100
0000
1001
0000
0100
0000
0100
0000
1011
0000
0000
0000
,
0110
0000
0000
0000
2001
0000
3010
0100
0001
0010
0100
1000
0010
0100
0010
0001
,
1001
0110
0110
1001
0110
0110
1101
0000
,
1001
0110
0110
1001
0110
0110
1101
0000
,
1000
0100
0010
0001
0100
0000
1001
0000
0110
0000
0110
0000
1001
0000
0000
0000
,
0202
0000
0000
0303
0022
0000
0000
0033
1000
0010
0100
0001
1000
0001
0100
0010
,
2000
0000
0000
3000
0001
0000
0000
0000
0010
0000
0000
0000
0100
0000
0000
0000
,
0001
0010
0100
1000
,
0220
0000
0000
0330
0001
0000
0000
0000
0010
0000
0000
0000
0100
0000
0000
0000
,
0010
0100
1000
0100
,
2002
0000
3003
0000
1000
0010
0001
0010
1000
0100
0010
0100
1000
0010
0100
0001
,
1000
0010
0001
0100
1000
0010
0100
0001
1000
0010
0100
0001
0010
0001
0100
0010
,
2002
0000
3003
0000
0010
0100
1000
0100
0001
0010
0100
0010
0001
0100
0010
1000
,
0001
0100
1000
0010
0001
0100
0010
1000
0001
0100
0010
1000
0100
0010
0001
1000
,
0200
0000
0002
0000
0303
0000
0010
1000
0001
0010
0100
1000
0010
1000
0100
0010
,
1001
0000
0110
0000
0011
0000
1100
0000
0010
0000
0001
0010
0100
1000
0100
0010
,
0200
0000
0002
0000
0303
0000
1000
0010
1000
0100
0010
0001
1000
0100
0010
0001
,
0200
0000
0000
0300
0001
0010
0001
0010
0100
0010
0100
0010
1000
0100
1000
0100
,
2000
0000
0002
0000
3003
0000
0100
0010
1000
0100
0010
0001
0010
0100
1000
0001
,
0110
0000
1100
0000
0011
0000
1001
0000
0010
0000
0001
0100
0010
1000
0100
0010
,
0002
0000
0200
0000
0303
0000
0010
0100
0001
0100
0010
1000
0001
0100
0010
1000
,
0020
0000
0000
0030
1000
0100
1000
0100
0010
0100
0010
0100
0001
0010
0001
0010
,
0200
0000
0020
0000
0330
0000
0100
0010
1000
0100
1000
0100
0010
0100
0010
0100
,
0002
0000
0003
0000
1000
0001
1000
0001
0100
0010
0100
0010
1000
0100
1000
0100
,
1001
0110
1100
0011
,
0010
0100
0001
0100
0010
0100
0001
0100
0010
1000
0010
1000
0100
1000
0100
0010
,
1001
0100
1001
0100
1001
0000
0100
0000
0010
0000
0010
0000
2002
0000
3003
0000
,
1001
0100
1001
0100
1001
0000
0100
0000
0010
0000
0010
0000
2002
0000
3003
0000
,
1001
0100
1001
0100
1001
0000
0100
0000
0010
0000
0010
0000
2002
0000
3003
0000
,
2020
0000
3030
0000
2001
0000
3010
0100
0012
0000
0003
0000
0220
0000
0330
0000
,
1001
0010
1001
0010
1001
0000
0011
0000
0100
0000
0100
0000
2002
0000
3003
0000
,
1001
0010
1001
0010
1001
0000
0011
0000
0100
0000
0100
0000
2002
0000
3003
0000
,
1001
0010
1100
0010
1001
0000
0011
0000
0100
0000
0100
0000
2002
0000
3003
0000
,
2010
0000
0000
0000
3102
0000
0013
0100
1000
0001
0100
0010
1000
0100
0010
0001
,
2000
0000
3001
0100
0010
1000
0100
0010
0002
0000
0000
0003
0020
0000
0000
0030
,
2000
0000
3001
0100
0010
1000
0100
0010
0002
0000
0000
0003
0200
0000
0300
0000
,
0002
0000
1003
0100
0010
0001
0100
0010
2000
0000
3000
0000
0020
0000
0030
0000
,
0002
0000
1003
0100
0010
0001
0100
0010
2000
0000
3200
0000
0302
0000
0023
0000
,
2030
0000
3100
0010
1000
0100
0001
0100
0020
0000
0030
0000
0200
0000
0300
0000
,
0002
0000
0013
0100
0001
0010
1000
0010
0200
0000
0302
0000
2003
0000
3020
0000
,
1030
0100
1000
0001
0100
0010
0100
0001
1000
0010
1000
0001
0100
1000
0100
0010
,
1000
0001
1000
0001
1000
0001
1000
0001
0100
0010
1000
0001
0100
0010
0100
0010
,
2002
0000
3003
0000
0001
0100
0001
0100
0010
0100
0010
0100
0010
1000
0010
1000
,
0001
1000
0001
1000
0001
0100
0001
0100
0010
0100
0010
0100
0010
1000
0010
1000
,
2002
0000
3003
0000
0001
0100
0001
0100
0010
0100
0010
0100
0010
1000
0010
1000
,
0001
1000
0001
1000
0001
0100
0001
0100
0010
0100
0010
0100
0010
1000
0010
1000
,
0200
0302
2003
3002
0023
2030
3020
0230
,
0301
1000
0001
1000
0001
1000
0001
1000
0001
1000
0001
1000
0001
1000
0001
1000
,
0011
0000
0000
0000
0000
0000
0000
0000
1110
0000
0000
0000
0000
0000
0100
0010
,
2002
0000
0000
0000
,
0000
0000
0000
0000
,
3003
0000
0000
0000
;

//---------------dance-single - Copied from----------------
#NOTES:
     dance-single:
     Copied from:
     Challenge:
     16:
     1.000,1.000,1.000,0.884,1.000,713.000,197.000,84.000,0.000,12.000:
0000
0000
0000
0000
0000
0000
0000
0000
0000
0000
0000
0000
0010
0001
0100
0010
,
2002
0000
0000
3003
,
1001
0000
0010
0000
1100
0000
0010
0000
1000
0010
0100
0001
1000
0100
0010
0001
,
2100
0000
3001
0010
1000
0100
0010
0001
0200
0000
0310
1000
0100
0010
0001
0010
,
1000
0100
0001
0100
1000
0010
0001
0100
0001
0010
0100
0010
0200
0000
0300
0000
,
1001
0000
0001
0010
0100
0000
1001
0000
1000
0100
0010
0000
1001
0000
0001
0010
,
0100
0000
1001
0000
1000
0100
0010
0100
0001
1000
0010
0100
0020
0000
0000
0030
,
1001
0000
0001
0100
0010
0000
1001
0000
1000
0010
0100
0000
1001
0000
0001
0100
,
0010
0000
1001
0000
1000
0010
0100
0010
0001
0100
0010
1000
0200
0000
0300
0000
,
1001
0110
0110
1001
0110
0110
1011
0000
,
1001
0110
0110
1001
0110
0110
1011
0000
,
1001
0000
0100
0010
0100
0000
1001
0000
0110
0000
0110
0000
1011
0000
0000
0000
,
0110
0000
0000
0000
2001
0000
3010
0100
0001
0010
0100
1000
0010
0100
0010
0001
,
1001
0110
0110
1001
0110
0110
1101
0000
,
1001
0110
0110
1001
0110
0110
1101
0000
,
1001
0100
0010
0001
0110
0000
1001
0000
0110
0000
0110
0000
1001
0000
0000
0000
,
0012
0000
0103
1000
0120
0000
0130
0001
2010
0100
3010
0001
0100
0010
1000
0100
,
2020
0000
0000
3030
0001
0100
0010
0100
0001
0010
0100
0010
0001
0100
0010
0100
,
0001
0010
0100
1000
0100
0010
0100
1000
0010
0100
0001
1000
0100
0010
1000
0100
,
0022
0000
0033
0000
1000
0010
0100
0010
1000
0100
0010
0100
1000
0010
0100
0010
,
1000
0100
0010
0001
0010
0100
0010
0001
0100
0010
1000
0001
0010
0100
0001
0010
,
2200
0000
3300
0000
1100
0010
0001
0010
1001
0100
0010
0100
1010
0001
0100
0010
,
1001
0100
0010
1000
0101
0010
1000
0100
0011
1000
0001
0100
1010
0001
0100
0010
,
2002
0000
3003
0000
0011
0100
1000
0100
1001
0010
0100
0010
0101
1000
0010
0100
,
1001
0010
0100
0001
1010
0100
0001
0010
1100
0001
1000
0010
0101
1000
0010
0100
,
2002
0000
0223
0000
3330
0000
0010
1000
0001
0010
0100
1000
0010
1000
0100
0010
,
1001
0000
0110
0000
0011
0000
2200
0000
0000
3300
0001
0010
0100
1000
0100
0010
,
0200
0000
2002
0000
3303
0000
1000
0010
1001
0100
0010
0001
1000
0100
0010
0001
,
0220
0000
0000
0330
0001
0010
0100
0010
1000
0010
0100
0010
1000
0100
0010
0100
,
2000
0000
0022
0000
3033
0000
0100
0010
1000
0100
0010
0001
0010
0100
1000
0001
,
0110
0000
1100
0000
0011
0000
2002
0000
0000
3003
0001
0100
0010
1000
0100
0010
,
0002
0000
2200
0000
3303
0000
0010
0100
1001
0100
0010
1000
0001
0100
0010
1000
,
0220
0000
0000
0330
1000
0001
1000
0100
0010
1000
0010
0100
0001
1000
0001
0010
,
0200
0000
2022
0000
3333
0000
0100
0010
1001
0100
1000
0100
1010
0100
0010
0100
,
2002
0000
3003
0000
1000
0001
1000
0001
0100
0010
0100
0010
0001
0100
0001
0100
,
1001
0010
0100
1000
0001
0010
0100
1000
0001
0010
0100
1000
0100
0010
1000
0001
,
1010
0100
0001
0100
1010
0100
0001
0100
0011
1000
0010
1000
0101
1000
0100
0010
,
1001
0110
1001
0110
1001
0000
1100
0000
0110
0000
0110
0000
2002
0000
3003
0000
,
1001
0110
1001
0110
1001
0000
1100
0000
1010
0000
1010
0000
2002
0000
3003
0000
,
1001
0110
1001
0110
1001
0000
1100
0000
0110
0000
0110
0000
2002
0000
3003
0000
,
2020
0000
3030
0000
2001
0000
3010
0100
0012
0100
1003
0100
0020
1000
0031
0100
,
1001
0110
1001
0110
1001
0000
0011
0000
0110
0000
0110
0000
2002
0000
3003
0000
,
1001
0110
1001
0110
1001
0000
0011
0000
0110
0000
0110
0000
2002
0000
3003
0000
,
1001
0010
1100
0010
1001
0000
0011
0000
0110
0000
0110
0000
2002
0000
3003
0000
,
2010
0000
0000
0000
3102
0000
0013
0100
1000
0001
0100
0010
1000
0100
0010
0001
,
2000
0000
3001
0100
0010
1000
0100
0010
0001
0100
1000
0100
0001
0010
0100
1000
,
0020
0030
0001
0100
0010
1000
0100
0010
0001
0100
1001
0100
0010
1000
0010
0100
,
0002
0000
1003
0010
0100
0001
0010
0100
1000
0010
0101
0010
1000
0100
0010
0001
,
0200
0000
1300
0010
0100
0001
0010
0100
1000
0010
1000
0010
0100
0001
0100
0010
,
2001
0000
3100
0010
1000
0100
0001
0100
0010
1000
0010
0100
0001
0010
0100
1000
,
0002
0000
0013
0100
0001
0010
1000
0010
0100
0001
0100
0010
1000
0001
0100
0001
,
1010
0100
1000
0001
1100
0010
0100
0001
1010
0100
1000
0001
0110
1000
0100
0010
,
1100
0001
1010
0001
1100
0001
1010
0001
0100
0010
1000
0001
0100
0010
1000
0100
,
2002
0000
3003
0000
0001
0100
0001
0100
0010
0100
0010
0100
0010
1000
0010
1000
,
0001
1000
0001
1000
0001
0100
0001
0100
0010
0100
0010
0100
0010
1000
0010
1000
,
2002
0000
3003
0000
0001
0100
0001
0100
0010
0100
0010
0100
0010
1000
0010
1000
,
0001
1000
0001
1000
0001
0100
0001
0100
0010
0100
0010
0100
0010
1000
0010
1000
,
0101
0011
1100
1001
0110
1010
0101
0110
,
1100
0011
1100
0011
1100
0011
1100
0011
1100
0011
1100
0011
1100
0011
1100
0011
,
2002
3003
0000
0000
0000
0000
0000
0000
0000
0000
0000
0000
0000
0000
0000
0000
0000
0000
0000
0000
0000
0000
0000
0000
0000
0000
0000
0000
0000
0000
0000
0000
2220
3330
0000
0000
0000
0000
0000
0000
0000
0000
0000
0000
0000
0000
0000
0000
0000
0000
0000
0000
0000
0000
0000
0000
0200
0300
0000
0000
0020
0030
0000
0000
,
2002
0000
0000
0000
,
0000
0000
0000
0000
,
3003
0000
0000
0000
;
