#TITLE:Chocolate Discore;
#SUBTITLE:;
#ARTIST:odaxelagnia;
#TITLETRANSLIT:;
#SUBTITLETRANSLIT:;
#ARTISTTRANSLIT:;
#CREDIT:Rynker;
#BANNER:chocolate discore bn.png;
#BACKGROUND:chocolate discore bg.png;
#LYRICSPATH:;
#CDTITLE:;
#MUSIC:03 odaxelagnia - Chocolate Discore.ogg;
#OFFSET:-0.034;
#SAMPLESTART:52.614;
#SAMPLELENGTH:12.000;
#SELECTABLE:YES;
#BPMS:0.000=162.838;
#STOPS:;
#BGCHANGES:;
// cache tags:
#FIRSTBEAT:8.000;
#LASTBEAT:402.000;
#SONGFILENAME:Songs/SPEEEDCOOOORE 2/Chocolate Discore - [Rynker]/chocolate discore.sm;
#HASMUSIC:1;
#HASBANNER:1;
#MUSICLENGTH:148.717;
// end cache tags

//---------------dance-single - Rynker----------------
#NOTES:
     dance-single:
     Rynker:
     Challenge:
     17:
     1.000,1.000,0.074,0.061,1.000,1462.000,11.000,9.000,0.000,0.000:
0000
0000
0000
0000
,
0000
0000
0000
0000
,
0000
0000
0000
0000
,
0000
0000
0000
0000
,
1000
0000
0100
0000
0010
0000
0100
0000
1000
0000
0001
0000
0001
0000
0100
0010
,
1000
0000
0001
0000
0100
0000
0010
0000
0100
0000
0001
0000
0001
0000
1000
0001
,
0010
0000
0100
0000
1000
0000
0001
0000
0010
0000
0001
0000
0001
0000
1000
0001
,
0100
0000
0010
0000
0100
0000
0001
0000
1000
0000
0010
0000
0010
0000
1000
0001
,
0010
0000
0100
0000
1000
0000
0001
0000
0010
0000
0100
0000
0100
0000
1000
0001
,
0100
0000
0001
0000
1000
0000
0010
0000
0100
0000
0001
0000
0001
0000
0100
0010
,
1000
0000
0001
0000
0010
0000
0100
0000
0010
0000
0001
0000
0001
0000
1000
0100
,
0010
0001
1000
0010
2000
3000
1001
0001
,
0100
0001
1000
0001
1000
0000
0100
0000
0010
0001
0000
0010
0100
0000
1000
0000
,
0010
0000
0000
0100
0000
0000
0001
0000
0000
0100
0000
0000
0001
0000
0000
0000
0000
0000
0100
0000
0000
0000
0000
0000
0010
0000
0000
1000
0000
0000
0000
0000
0000
0010
0000
0000
1000
0000
0000
0000
0000
0000
0001
0000
1000
0000
0001
0000
,
1000
0000
0001
0000
0010
0000
0100
0000
1000
0001
0000
0010
0100
0000
1000
0000
,
0001
0000
0000
0100
0000
0000
0010
0000
0000
0100
0000
0000
0001
0000
0000
0100
0000
0000
0010
0000
0000
0100
0000
0000
0001
0000
1000
0000
0010
0000
1000
0000
0001
0000
0100
0000
0010
0000
0100
0000
0001
0000
1000
0000
0001
0000
1000
0000
,
0010
1000
0010
1000
0010
1000
0001
0010
0001
0010
0001
1000
0100
0010
0001
1000
,
0100
1000
0100
1000
0100
1000
0010
1000
0010
1000
0010
1000
0001
1000
0010
0100
,
0001
1000
0001
1000
0001
1000
0010
1000
0010
1000
0010
1000
0001
0100
0010
1000
,
0001
0010
0001
0010
0001
0010
0100
1000
0100
1000
0100
1000
0001
0010
0100
1000
,
0010
1000
0010
1000
0010
1000
0001
0010
0001
0010
0001
1000
0100
0010
0001
1000
,
0100
0000
0000
1000
0000
0000
0100
0000
0000
1000
0000
0000
0100
0000
0000
1000
0000
0000
0010
0000
0000
1000
0000
0000
0010
0000
0000
1000
0000
0000
0010
0000
0000
1000
0000
0000
0001
0000
0000
1000
0000
0000
0010
0000
1000
0000
0010
0000
,
1000
0001
1000
0001
1000
0001
0100
0001
0100
0001
0100
0001
1000
0010
0100
0001
,
1000
0000
0000
0100
0000
0000
1000
0000
0000
0100
0000
0000
1000
0000
0000
0100
0000
0000
0010
0000
0000
0001
0000
0000
0010
0000
0100
0000
1000
0000
0001
0000
1000
0000
0100
0000
0010
0000
0001
0000
0010
0000
0100
0000
1000
0000
0001
0000
,
1000
0000
0000
0001
0000
0000
0100
0000
0000
0010
0000
0000
0100
0000
0000
0001
0000
0000
1000
0000
0000
0010
0000
0000
0100
0000
0000
0001
0000
0000
1000
0000
0000
0100
0000
0000
0010
0000
0100
0000
1000
0000
0001
0000
1000
0000
0001
0000
,
0010
0000
0000
0100
0000
0000
1000
0000
0000
0100
0000
0000
0010
0000
0000
0001
0000
0000
0100
0000
0000
0010
0000
0000
0100
0000
0000
0001
0000
0000
0010
0000
0000
0100
0000
0000
1000
0000
0001
0000
1000
0000
0010
0000
0100
0000
0001
0000
,
2000
3020
0230
0302
,
0013
0000
0000
0100
0000
0000
1000
0000
0000
0010
0000
0000
0100
0000
0000
0001
0000
0000
1000
0000
0000
0001
0000
0000
0010
0000
0000
0100
0000
0000
1000
0000
0000
0001
0000
0000
0100
0000
0001
0000
0100
0000
0001
0000
1000
0000
0010
0000
,
0100
0000
0000
0001
0000
0000
1000
0000
0000
0100
0000
0000
0010
0000
0000
0001
0000
0000
0100
0000
0000
0001
0000
0000
0010
0000
0000
0100
0000
0000
1000
0000
0000
0001
0000
0000
1000
0000
0100
0000
0010
0000
0100
0000
1000
0000
0001
0000
,
1000
0000
0000
0001
0000
0000
0100
0000
0000
0010
0000
0000
0100
0000
0000
0001
0000
0000
0010
0000
0000
0100
0000
0000
1000
0000
0000
0001
0000
0000
0100
0000
0000
0010
0000
0000
0100
0000
0001
0000
1000
0000
0010
0000
0100
0000
0001
0000
,
0100
0000
0000
0010
0000
0000
1000
0000
0000
0100
0000
0000
0010
0000
0000
0100
0000
0000
1000
0000
0000
0010
0000
0000
0100
0000
0000
0001
0000
0000
1000
0000
0000
0001
0000
0000
0010
0000
0100
0000
1000
0000
0001
0000
0010
0000
0100
0000
,
0010
0000
0000
0100
0000
0000
1000
0000
0000
0001
0000
0000
0100
0000
0000
0010
0000
0000
0100
0000
0000
0001
0000
0000
1000
0000
0000
0100
0000
0000
1000
0000
0000
0001
0000
0000
1000
0000
0001
0000
0100
0000
0010
0000
0100
0000
0001
0000
,
1000
0000
0000
0001
0000
0000
0010
0000
0000
0100
0000
0000
1000
0000
0000
0001
0000
0000
0100
0000
0000
0001
0000
0000
1000
0000
0000
0100
0000
0000
0010
0000
0000
0100
0000
0000
1000
0000
0001
0000
0010
0000
0001
0000
1000
0000
0100
0000
,
1000
0000
0000
0001
0000
0000
0100
0000
0000
0010
0000
0000
0100
0000
0000
0001
0000
0000
1000
0000
0000
0010
0000
0000
0100
0000
0000
0001
0000
0000
0010
0000
0000
0100
0000
0000
1000
0000
0001
0000
1000
0000
0001
0000
0100
0000
0010
0000
,
1000
0000
0000
0001
0000
0000
0010
0000
0000
0100
0000
0000
1000
0000
0000
0001
0000
0000
0100
0000
0000
0010
0000
0000
1000
0000
0000
0100
0000
0000
0010
0000
0000
0001
0000
0000
1000
0000
0100
0000
0010
0000
0100
0000
1000
0000
0001
0000
,
1000
0000
0001
0000
0100
0000
0010
0000
1000
0000
0000
0100
0010
0000
0001
0100
,
0010
0000
0000
0000
0000
0000
0100
0000
0000
0000
0000
0000
0001
0000
0000
0000
0000
0000
0001
0000
0000
0000
0000
0000
1000
0000
0000
0000
0000
0000
0000
0000
0000
0001
0000
0000
0010
0000
0000
0000
0000
0000
0100
0000
1000
0000
0001
0000
,
1000
0000
0010
0000
0100
0000
0001
0000
0010
0000
0000
0100
1000
0000
0010
0100
,
0001
0000
0000
1000
0000
0000
0001
0000
0000
0001
0000
0000
0100
0010
1000
0001
1000
0010
0100
0001
1000
0001
0100
0001
,
1000
0000
0100
0000
0010
0000
0001
0000
1000
0000
0000
0010
1000
0000
0001
0010
,
0100
0000
0000
0000
0000
0000
1000
0000
0000
0000
0000
0000
0001
0000
0000
0000
0000
0000
0100
0000
0000
0000
0000
0000
0010
0000
0000
0000
0000
0000
0000
0000
0000
1000
0000
0000
0010
0000
0000
0000
0000
0000
0100
0000
0001
0000
0100
0000
,
0010
0000
1000
0000
0100
0000
0010
0000
0001
0000
0000
1000
0001
0000
1000
0010
,
0100
0000
0000
0000
0000
0000
1001
0000
0000
0000
0000
0000
0001
0010
0001
1000
0100
1000
0001
0010
0100
1000
0001
1000
,
0100
1000
0001
1000
0001
1000
0100
0010
0100
0010
0100
1000
0001
0010
0001
1000
,
0100
1000
0100
1000
0100
1000
0010
1000
0010
1000
0010
1000
0001
1000
0010
0100
,
0001
1000
0001
1000
0001
1000
0010
1000
0010
1000
0010
1000
0001
0100
0010
1000
,
0001
0010
0001
0010
0001
0010
0100
1000
0100
1000
0100
1000
0001
0010
0100
1000
,
0010
1000
0010
1000
0010
1000
0001
0010
0001
0010
0001
1000
0100
0010
0001
0100
,
0010
0000
0000
0100
0000
0000
0010
0000
0000
0100
0000
0000
0010
0000
0000
0100
0000
0000
0001
0000
0000
0100
0000
0000
0001
0000
0000
0100
0000
0000
0010
0000
0000
1000
0000
0000
0001
0000
0000
1000
0000
0000
0010
0000
1000
0000
0010
0000
,
1000
0001
1000
0001
1000
0001
0100
0001
0100
0001
0100
0001
1000
0010
0100
0001
,
1000
0000
0000
0100
0000
0000
1000
0000
0000
0100
0000
0000
1000
0000
0000
0100
0000
0000
0010
0000
0000
0001
0000
0000
0010
0000
0100
0000
1000
0000
0001
0000
1000
0000
0100
0000
0010
0000
0001
0000
0010
0000
0100
0000
1000
0000
0001
0000
,
1000
0000
0000
0001
0000
0000
0100
0000
0000
0010
0000
0000
0100
0000
0000
0001
0000
0000
1000
0000
0000
0010
0000
0000
0100
0000
0000
0001
0000
0000
1000
0000
0000
0100
0000
0000
0010
0000
0100
0000
1000
0000
0001
0000
1000
0000
0001
0000
,
0010
0000
0000
0100
0000
0000
1000
0000
0000
0100
0000
0000
0010
0000
0000
0001
0000
0000
0100
0000
0000
0010
0000
0000
0100
0000
0000
0001
0000
0000
0010
0000
0000
0100
0000
0000
1000
0000
0001
0000
1000
0000
0010
0000
0100
0000
0001
0000
,
0100
0000
0000
0001
0000
0000
0100
0000
0000
0010
0000
0000
1000
0000
0000
0100
0000
0000
0010
0000
0000
0001
0000
0000
1000
0000
0000
0100
0000
0000
0010
0000
0000
0001
0000
0000
1000
0000
0001
0000
1000
0000
0001
0000
0010
0000
0100
0000
,
0010
0000
0000
0100
0000
0000
1000
0000
0000
0010
0000
0000
0100
0000
0000
0001
0000
0000
1000
0000
0000
0001
0000
0000
0010
0000
0000
0100
0000
0000
1000
0000
0000
0001
0000
0000
0100
0000
0001
0000
0100
0000
0001
0000
1000
0000
0010
0000
,
0100
0000
0000
0001
0000
0000
1000
0000
0000
0100
0000
0000
0010
0000
0000
0001
0000
0000
0100
0000
0000
0001
0000
0000
0010
0000
0000
0100
0000
0000
1000
0000
0000
0001
0000
0000
1000
0000
0100
0000
0010
0000
0100
0000
1000
0000
0001
0000
,
1000
0000
0000
0001
0000
0000
0100
0000
0000
0010
0000
0000
0100
0000
0000
0001
0000
0000
0010
0000
0000
0100
0000
0000
1000
0000
0000
0001
0000
0000
0100
0000
0000
0010
0000
0000
0100
0000
0001
0000
1000
0000
0010
0000
0100
0000
0001
0000
,
0100
0000
0000
0010
0000
0000
1000
0000
0000
0100
0000
0000
0010
0000
0000
0100
0000
0000
1000
0000
0000
0010
0000
0000
0100
0000
0000
0001
0000
0000
1000
0000
0000
0001
0000
0000
0010
0000
0100
0000
1000
0000
0001
0000
0010
0000
0100
0000
,
0020
0230
2300
3002
,
1003
0000
0000
0001
0000
0000
0010
0000
0000
0100
0000
0000
1000
0000
0000
0001
0000
0000
0100
0000
0000
0001
0000
0000
1000
0000
0000
0100
0000
0000
0010
0000
0000
0100
0000
0000
1000
0000
0001
0000
0010
0000
0001
0000
1000
0000
0100
0000
,
1000
0000
0000
0001
0000
0000
0100
0000
0000
0010
0000
0000
0100
0000
0000
0001
0000
0000
1000
0000
0000
0010
0000
0000
0100
0000
0000
0001
0000
0000
0010
0000
0000
0100
0000
0000
1000
0000
0001
0000
1000
0000
0001
0000
0100
0000
0010
0000
,
1000
0000
0000
0001
0000
0000
0010
0000
0000
0100
0000
0000
1000
0000
0000
0001
0000
0000
0100
0000
0000
0010
0000
0000
1000
0000
0000
0100
0000
0000
0010
0000
0000
0001
0000
0000
1000
0000
0100
0000
0010
0000
0100
0000
1000
0000
0001
0000
,
1000
0000
0000
0001
0000
0000
0100
0000
0000
0010
0000
0000
0100
0000
0000
0001
0000
0000
1000
0000
0000
0010
0000
0000
0100
0000
0000
0001
0000
0000
1000
0000
0000
0100
0000
0000
0010
0000
0100
0000
1000
0000
0001
0000
1000
0000
0001
0000
,
0010
0000
0000
0100
0000
0000
1000
0000
0000
0100
0000
0000
0010
0000
0000
0001
0000
0000
0100
0000
0000
0010
0000
0000
0100
0000
0000
0001
0000
0000
0010
0000
0000
0100
0000
0000
1000
0000
0001
0000
1000
0000
0010
0000
0100
0000
0001
0000
,
0100
0000
0000
0001
0000
0000
0100
0000
0000
0010
0000
0000
1000
0000
0000
0100
0000
0000
0010
0000
0000
0001
0000
0000
1000
0000
0000
0100
0000
0000
0010
0000
0000
0001
0000
0000
1000
0000
0001
0000
1000
0000
0001
0000
0010
0000
0100
0000
,
0010
0000
0000
0100
0000
0000
1000
0000
0000
0010
0000
0000
0100
0000
0000
0001
0000
0000
1000
0000
0000
0001
0000
0000
0010
0000
0000
0100
0000
0000
1000
0000
0000
0001
0000
0000
0100
0000
0001
0000
0100
0000
0001
0000
1000
0000
0010
0000
,
0100
0000
0000
0001
0000
0000
1000
0000
0000
0100
0000
0000
0010
0000
0000
0001
0000
0000
0100
0000
0000
0001
0000
0000
0010
0000
0000
0100
0000
0000
1000
0000
0000
0001
0000
0000
1000
0000
0100
0000
0010
0000
0100
0000
1000
0000
0001
0000
,
1000
0000
0001
0000
1000
0000
0001
0000
1000
0100
1000
0100
1000
0100
1000
0100
,
0010
0000
0001
0000
0001
0000
1000
0000
1010
0000
0000
0110
0000
0000
0001
0100
,
0010
0000
0000
1000
0000
0000
0100
0000
0000
0010
0001
0010
0001
0000
0000
1000
0000
0000
1010
0000
0000
0010
0000
0000
,
0001
0000
0000
1000
0000
0000
1100
0000
0000
0100
1000
0100
1000
0000
0000
0100
0000
0000
0110
0000
0000
0010
0001
1000
,
0001
0000
0100
0000
0010
0000
1000
0000
0001
0100
0001
0100
0001
0100
0001
0100
,
0010
0000
1000
0000
0001
0000
0010
0000
0110
0000
0000
1100
0000
0000
1000
0001
,
0010
0000
0000
0001
0000
0000
0100
0000
0000
0001
1000
0001
1000
0000
0000
0010
0000
0000
0110
0000
0000
0100
0000
0000
,
1000
0000
0000
0001
0000
0000
0010
0000
0000
0100
1000
0100
1000
0000
0000
0001
0000
0000
0010
0000
0000
0001
1000
0001
,
0100
0000
0000
0000
0001
0000
1000
0010
0100
0001
0010
0100
1000
0010
0100
0001
,
1000
0100
0010
0001
1000
0001
1000
0001
0100
0010
1000
0100
0010
0001
1000
0001
,
0100
0000
0000
0010
0000
0000
0100
0000
0000
0001
0000
0000
0010
0000
0000
0001
0000
0000
0100
0000
0001
0000
0100
0000
0001
0000
0000
1000
0000
0000
0100
0000
0000
1000
0000
0000
0010
0000
0000
0100
0000
0000
0001
0000
0000
1000
0000
0000
,
0100
0010
0001
1000
0001
0100
0010
0100
0001
1000
0100
0010
0001
0010
0001
0010
,
0001
0000
0000
0100
0000
0000
0010
0000
0000
0100
0000
0000
0001
0000
0000
1000
0000
0000
0001
0000
1000
0000
0010
0000
1000
0000
0000
0010
0000
0000
0100
0000
0000
0001
0000
0000
1000
0000
0000
0001
0000
0000
1000
0000
0000
0001
0000
0000
,
1000
0100
0010
0001
0100
0010
0100
0001
1000
0100
0010
0001
0010
0001
0010
0001
,
0100
0000
0000
0010
0000
0000
0100
0000
0000
0001
0000
0000
1000
0000
0000
0100
0000
0000
1000
0000
0001
0000
0010
0000
0001
0000
0000
0010
0000
0000
0100
0000
0000
1000
0000
0000
0100
0000
0000
0010
0000
0000
0001
0000
0000
1000
0000
0000
,
0001
0100
0010
0100
0001
1000
0100
0010
0001
1000
0100
1000
0100
1000
0100
0010
,
0001
0000
0000
0100
0000
0000
0010
0000
0000
0100
0000
0000
0001
0000
0000
1000
0000
0000
0001
0000
1000
0000
0001
0000
0010
0000
0000
0100
0000
0000
1000
0000
0000
0001
0000
0000
0100
0000
0001
0000
0100
0000
0001
0000
0000
1000
0000
0000
,
0100
0000
0000
0010
0000
0000
0001
0000
1000
0000
0001
0000
1000
0000
0000
0100
0000
0000
0010
0000
0000
0001
0000
0000
1000
0000
0000
0001
0000
0000
0100
0000
0000
0010
0000
0000
1000
0000
0000
0010
0000
0000
0100
0000
0000
0001
0000
0000
,
1000
0000
0000
0100
0000
0000
0010
0000
0000
0001
0000
0000
1000
0000
0000
0001
0000
0000
1000
0000
0100
0000
1000
0000
0100
0000
0000
0010
0000
0000
0001
0000
0000
0100
0000
0000
0010
0000
0000
1000
0000
0000
0010
0000
0000
0100
0000
0000
,
0001
1000
0001
1000
0100
0010
0001
1000
0001
1000
0010
0100
0001
0010
0100
1000
,
0001
0000
0000
1000
0000
0000
0001
0000
0000
1000
0000
0000
0010
0000
0000
0100
0000
0000
0001
0000
1000
0000
0001
0000
1000
0000
0000
0010
0000
0000
0100
0000
0000
0001
0000
0000
1000
0000
0000
0100
0000
0000
0010
0000
0000
0001
0000
0000
,
0100
0000
0000
0001
0000
0000
0100
0000
0000
0001
0000
0000
1000
0000
0001
0000
1000
0000
0001
0000
1000
0000
0001
0000
1000
0000
0000
0001
0000
0000
0010
0000
0000
0001
0000
0000
1000
0000
0000
0001
0000
0000
0100
0000
0001
0000
0100
0000
,
0001
0000
0000
1000
0000
0000
0010
0000
0000
0100
0000
0000
0001
0000
0100
0000
0001
0000
0100
0000
0001
0000
0100
0000
0001
0000
0000
0100
0000
0000
0010
0000
0000
1000
0000
0000
0001
0000
0000
0010
0000
0000
0100
0000
1000
0000
0100
0000
,
1000
0001
0010
0001
0100
0001
1000
0010
0100
0010
1000
0001
0010
0100
1000
0001
,
0100
0000
0000
0001
0000
0000
1000
0000
0000
0001
0000
0000
0100
0000
0000
0001
0000
0000
1000
0000
0001
0000
1000
0000
0100
0000
0000
1000
0000
0000
0001
0000
0000
1000
0000
0000
0010
0000
0000
0100
0000
0000
0001
0000
0000
1000
0000
0000
,
0001
0000
1000
0000
0001
0000
0010
0000
0100
0000
1000
0000
0001
0000
0010
0000
0100
0000
1000
0000
0001
0000
1000
0000
0001
0000
0010
0000
0100
0000
1000
0000
0001
0000
0010
0000
0100
0000
0000
1000
0000
0000
0001
0000
0000
1000
0000
0000
,
0001
0100
0001
1000
0010
0100
0010
1000
0001
0100
0010
0100
0010
1000
0001
0100
0001
1000
0010
1000
0001
0100
0010
1000
,
0001
0000
1000
0000
0100
0000
0010
0000
0001
0000
1000
0000
0001
0000
0010
0000
0100
0000
1000
0000
0001
0000
0010
0000
0100
0000
1000
0000
0100
0000
0010
0000
0001
0000
1000
0000
0001
0000
0000
1000
0000
0000
0001
0000
0000
1000
0000
0000
,
0001
0000
0100
0000
0010
0000
0100
0000
0001
0000
1000
0000
0001
0000
0000
0100
0000
0000
0001
0000
0000
1000
0000
0000
0100
0000
0000
0000
0000
0000
0010
0000
0000
0000
0000
0000
0001
0000
0000
0000
0000
0000
0000
0000
0000
0000
0000
0000
,
1000
0000
0100
0000
0010
0000
0001
0000
1000
0000
0001
0000
0010
0000
0100
0000
1000
0000
0001
0000
0010
0000
0100
0000
0010
0000
0001
0000
1000
0000
0001
0000
1000
0000
0100
0000
0010
0000
0000
0001
0000
0000
1000
0000
0000
0001
0000
0000
,
1000
0001
0100
0001
0100
0010
1000
0010
0100
0001
1000
0001
0100
0010
1000
0001
0100
0010
0100
0001
1000
0010
0100
0001
,
1000
0000
0100
0000
0010
0000
0100
0000
1000
0000
0001
0000
0010
0000
0001
0000
1000
0000
0100
0000
1000
0000
0001
0000
1000
0000
0001
0000
0010
0000
0100
0000
0010
0000
0001
0000
1000
0000
0000
0001
0000
0000
1000
0000
0000
0001
0000
0000
,
1000
0000
0001
0000
0100
0000
0001
0000
1000
0000
0010
0000
0100
0000
0000
0001
0000
0000
1000
0000
0000
0001
0000
0000
1000
0000
0000
0000
0000
0000
0100
0000
0000
0000
0000
0000
0040
0000
0000
0000
0000
0000
0000
0000
0000
0030
0000
0000
,
1001
0000
0000
0000
;

//---------------dance-single - J. Nero----------------
#NOTES:
     dance-single:
     J. Nero:
     Hard:
     13:
     1.000,1.000,0.061,0.155,1.000,1172.000,9.000,23.000,2.000,0.000:
0000
0000
0000
0000
,
0000
0000
0000
0000
,
1000
0100
1000
0100
1000
0000
0100
0000
0010
0001
0000
0001
0010
0000
0100
0000
,
1000
0001
1000
0001
1000
0000
0001
0000
0010
0100
0000
0100
1000
0000
0001
0000
,
1000
0000
0001
0000
0100
0000
0010
0000
0100
0000
0001
0000
1000
0000
0100
1000
,
0100
0000
1000
0000
0001
0000
0010
0000
0100
0000
1000
0000
0001
0000
1000
0001
,
1000
0000
0001
0000
0100
0000
0010
0000
0100
0000
0001
0000
1000
0000
0100
0010
,
0100
0000
0010
0000
0001
0000
1000
0000
0100
0000
1000
0000
0001
0000
0100
0001
,
0100
0000
0010
0000
1000
0000
0001
0000
0010
0000
0100
0000
0010
0000
0001
1000
,
0001
0000
1000
0000
0010
0000
0100
0000
0010
0000
1000
0000
0001
0000
0010
0100
,
0010
0000
0100
0000
1000
0000
0001
0000
1000
0000
0100
0000
1000
0000
0100
0010
,
0100
0010
0001
1000
0001
0000
1000
0010
,
0100
0001
0000
0001
0010
0000
0001
0000
0010
0100
0000
0100
1000
0000
0010
0100
,
0001
0000
0000
0100
0000
0000
0000
0000
0000
0100
0000
0000
0010
0000
0000
0000
0000
0000
1000
0000
0000
0000
0000
0000
0100
0000
0000
0010
0000
0000
0000
0000
0000
0010
0000
0000
0001
0000
0000
0000
0000
0000
1000
0000
0001
0000
1000
0000
,
0001
0000
1000
0000
0100
0000
1000
0000
0010
0100
0000
0100
0001
0000
0010
0100
,
2000
3000
0000
0000
0000
0000
0000
0000
0002
0003
0000
0000
0000
0000
0000
0000
0040
0000
0030
0000
0400
0000
0300
0000
4000
0000
3000
0000
0004
0000
0003
0000
,
1000
0010
1000
0010
0100
0001
0100
0001
1000
0100
1000
0100
0010
0001
0010
0100
,
1000
0001
1000
0001
0100
0001
0100
0010
1000
0010
1000
0100
1000
0001
0010
0100
,
1000
0001
1000
0001
0100
0010
0100
0010
1000
0010
1000
0001
0010
0100
0010
0001
,
1000
0100
1000
0100
0010
0001
0010
0001
1000
0010
1000
0010
0100
0001
0010
0100
,
1000
0000
0001
0000
0100
0000
0010
0000
0100
0000
0001
0000
1000
0000
0100
0010
,
0001
0000
0000
0010
0000
0000
0100
0000
0000
0010
0000
0000
0001
0000
0000
1000
0000
0000
0010
0000
0000
0100
0001
0100
,
0001
0000
1000
0000
0010
0000
0100
0000
0001
0000
1000
0000
0100
0000
1000
0001
,
1000
0000
0001
0000
0010
0000
0100
0000
4000
3000
0004
0003
0040
0030
0400
0300
,
1000
0001
0100
0001
0100
0010
1000
0001
1000
0100
1000
0100
0010
0001
0100
0010
,
1000
0100
0010
0001
1000
0001
0100
0001
1000
0001
0010
0100
1000
0010
0100
0001
,
2000
3000
0002
0003
0020
0030
0200
0300
,
1000
0100
1000
0001
0100
0001
1000
0100
0010
0001
1000
0001
0010
0100
1000
0010
,
0100
0001
0100
0010
1000
0001
1000
0100
1000
0001
0010
0100
1000
0010
0100
0001
,
0100
0010
0100
0001
1000
0001
1000
0100
0010
0100
0010
0001
1000
0100
1000
0010
,
0100
0001
1000
0001
0010
0100
0010
0100
1000
0001
1000
0100
0010
0001
0100
0010
,
1000
0100
0010
0001
1000
0001
1000
0100
1000
0001
0100
0001
0010
0100
1000
0010
,
1000
0001
0100
0010
0100
0001
1000
0001
0010
0100
1000
0001
1000
0100
1000
0010
,
0100
0001
1000
0001
0010
0100
1000
0001
1000
0010
0100
0001
0010
0100
1000
0010
,
0100
0001
1000
0001
1000
0100
1000
0001
0100
0001
1000
0010
0100
0001
0010
0100
,
1000
0001
1000
0001
1000
0000
0001
0000
0010
0100
0000
0100
1000
0000
0001
1000
,
0001
0000
0000
0100
0000
0000
0001
0000
0000
0100
0000
0000
0010
0000
0000
0000
0000
0000
1000
0000
0000
0000
0000
0000
0100
0000
0000
1000
0000
0000
0000
0000
0000
1000
0000
0000
0100
0000
0000
0000
0000
0000
1000
0000
0001
0000
1000
0000
,
0001
0000
1000
0000
0100
0000
0010
0000
0001
0010
0000
0010
0100
0000
1000
0010
,
0100
0001
0100
0001
0100
0000
0001
0000
4000
3000
0400
0300
0040
0030
0400
0300
,
1000
0001
1000
0001
0100
0000
0010
0000
0100
0001
0000
0001
0010
0000
0100
1000
,
0001
0000
0000
1000
0000
0000
0001
0000
0000
1000
0000
0000
0010
0000
0000
0000
0000
0000
1000
0000
0000
0000
0000
0000
0001
0000
0000
0010
0000
0000
0000
0000
0000
0010
0000
0000
0100
0000
0000
0000
0000
0000
1000
0000
0001
0000
1000
0000
,
0001
0000
1000
0000
0010
0000
0100
0000
0001
1000
0000
1000
0100
0000
0010
0001
,
2000
3000
0002
0003
0040
0430
4300
3004
,
1003
0010
1000
0010
0100
0001
0100
0001
1000
0100
1000
0100
0010
0001
0010
0100
,
1000
0001
1000
0001
0100
0001
0100
0010
1000
0010
1000
0100
1000
0001
0010
0100
,
1000
0001
1000
0001
0100
0010
0100
0010
1000
0010
1000
0001
0010
0100
0010
0001
,
1000
0100
1000
0100
0010
0001
0010
0001
1000
0010
1000
0010
0100
0001
0010
0100
,
1000
0000
0001
0000
0010
0000
0100
0000
0010
0000
0001
0000
1000
0000
0001
1000
,
0001
0000
0000
1000
0000
0000
0010
0000
0000
0100
0000
0000
0010
0000
0000
1000
0000
0000
0001
0000
0000
1000
0100
1000
,
0001
0000
0010
0000
0100
0000
1000
0000
0001
0000
0100
0000
0010
0000
0100
0001
,
0100
0001
0010
0100
4000
3004
4003
3400
,
0310
0001
1000
0001
0010
0100
1000
0001
1000
0010
0100
0001
1000
0100
1000
0010
,
0100
0001
0100
0001
1000
0100
0010
0001
1000
0001
0100
0001
0010
0100
1000
0010
,
0100
0001
0100
0001
1000
0100
0010
0001
1000
0001
0010
0100
1000
0010
0100
0001
,
0010
0001
1000
0100
0010
0100
1000
0001
0010
0100
1000
0010
0100
0001
0010
0100
,
1000
0001
1000
0100
0010
0100
1000
0001
0100
0010
0100
0001
1000
0100
1000
0010
,
0100
0001
0010
0100
1000
0001
1000
0001
0100
0010
0100
0001
0010
0100
1000
0010
,
0100
0001
0100
0010
1000
0001
1000
0100
1000
0001
0100
0001
0010
0100
1000
0001
,
2000
3000
0002
0003
0020
0030
0200
0300
,
1000
0001
1000
0001
0100
0001
0100
0010
1000
0001
1000
0100
1000
0010
0100
0001
,
0010
0100
1000
0001
1000
0001
0010
0100
0010
0100
1000
0001
0010
0100
1000
0010
,
0100
0001
0100
0010
1000
0001
1000
0100
0010
0100
1000
0001
0100
0010
1000
0100
,
1000
0001
0010
0100
1000
0001
1000
0100
1000
0001
0100
0010
1000
0100
1000
0010
,
0100
0001
0010
0100
1000
0001
1000
0001
0100
0010
0100
0001
1000
0100
1000
0010
,
0100
0001
0100
0010
1000
0001
0010
0100
1000
0001
1000
0100
0010
0100
1000
0010
,
0100
0001
1000
0001
0010
0100
1000
0001
1000
0100
0010
0100
1000
0010
0100
0001
,
0100
0010
1000
0001
1000
0100
0010
0100
1000
0001
0100
0010
1000
0100
1000
0010
,
0100
0000
0001
0000
1000
0000
0001
0000
0100
0001
1000
0100
0010
0001
1000
0001
,
1000
0000
0001
0000
0010
0000
0001
0000
0010
0000
0000
0110
0000
0000
0100
1000
,
0001
0000
0000
0100
0000
0000
0001
0000
0000
0100
0001
0100
0001
0000
0000
1000
0000
0000
0010
0000
0000
0100
0000
0000
,
1M00
0000
0000
0001
0000
0000
1000
0000
0000
0100
0010
0100
0010
0000
0000
0001
0000
0000
1000
0000
0000
0004
0000
0000
,
0103
0000
0010
0000
1000
0000
0001
0000
1000
0100
0010
0100
0010
0001
1000
0001
,
1000
0000
0010
0000
0100
0000
0001
0000
0010
0000
0000
0110
0000
0000
0100
1000
,
0100
0000
0000
1000
0000
0000
0001
0000
0000
0100
0001
0100
0001
0000
0000
0100
0000
0000
0001
0000
0000
0100
0000
0000
,
1M00
0000
0000
0000
0000
0000
0010
0000
0000
0000
0000
0000
0100
0000
0000
0000
0000
0000
0001
0000
1000
0000
0001
0000
1000
0000
0000
0000
0000
0000
0001
0000
0000
0000
0000
0000
0010
0000
0000
0100
0000
0000
4000
0000
0000
3000
0000
0000
,
1001
0000
0000
0000
0001
0000
1000
0010
1000
0001
0010
0100
0000
0100
1000
0001
,
1000
0000
0001
0000
0100
0001
0010
0100
1000
0000
0001
0000
0100
0000
0010
0000
,
1000
0000
0001
0100
0001
0000
1000
0100
0000
0100
0010
0000
0001
0000
1000
0001
,
1000
0000
0010
0000
0200
0300
0001
0000
0010
0000
0100
0000
1000
0000
0001
0000
,
1000
0000
0000
0100
0000
0000
1000
0000
0000
0001
0100
0001
0100
0000
0000
0001
0000
0000
0001
0000
0000
1000
0000
0000
,
0100
0000
0010
0000
0100
0000
1000
0000
0001
0000
0100
0000
0010
0100
0000
0000
,
0001
0000
0000
0000
0000
0000
0010
0000
0000
0000
0000
0000
0100
0000
0000
0000
0000
0000
1000
0000
0001
0000
1000
0000
0001
0000
0000
0000
0000
0000
1000
0000
0000
0000
0000
0000
0100
0000
0000
0000
0000
0000
0000
0000
0000
1000
0000
0000
,
0001
0000
0010
0000
0100
0000
0010
0000
0001
0000
0000
1000
0001
0010
0100
0000
,
0010
0100
0010
0100
1000
0000
0001
0001
,
1000
0010
1000
0010
0100
0001
0100
0010
1000
0001
1000
0001
0010
0100
1000
0001
,
1000
0100
0010
0001
1000
0001
1000
0100
0000
0100
1000
0000
0001
0100
0001
0000
,
1000
0000
0000
0000
2020
3030
0000
0000
0010
0000
0000
0000
0100
0001
0100
0001
,
1000
0100
0010
0001
1000
0001
0010
0100
1000
0001
1000
0010
0100
0001
0100
0001
,
0100
0000
0000
0000
0000
0000
0000
0000
0000
0000
0000
0000
0001
0000
1000
0000
0001
0000
1000
0000
0000
0001
0000
0000
1000
0000
0000
0100
0000
0000
1000
0000
0000
0001
0000
0000
0010
0000
0000
0100
0000
0000
1000
0000
0000
0001
0000
0000
,
1000
0000
0000
0000
0000
0000
0000
0000
0000
0000
0000
0000
0001
0000
0100
0000
0001
0000
0100
0000
0000
0001
0000
0000
1000
0000
0000
0010
0000
0000
0100
0000
0000
0010
0000
0000
1000
0000
0000
0001
0000
0000
0010
0000
0000
0100
0000
0000
,
1000
0000
0000
0000
2002
3003
0000
0000
0001
0000
0000
0000
0100
0001
0100
0000
,
0002
0000
0003
0000
0000
0000
0000
0000
0002
0000
0003
0000
0000
0000
0000
0000
0002
0000
0003
0000
0000
0000
0000
0000
0002
0003
0000
0000
0000
0000
0000
0000
,
1000
0100
0010
0100
1000
0001
0010
0100
1000
0001
1000
0010
0100
0001
0100
0010
,
1000
0001
1000
0001
0010
0001
0010
0001
1000
0100
1000
0100
0010
0001
0010
0001
,
0010
0100
1000
0001
0010
0001
1000
0100
0010
0001
0100
0010
1000
0001
1000
0000
,
0001
0100
0004
0003
1000
0100
0010
0001
1000
0000
0010
0000
0400
0000
0000
0300
,
0001
0010
0100
0010
0001
1000
0100
0010
0001
1000
0001
0010
0001
0100
0001
0100
,
0010
1000
0100
0010
0001
1000
0001
1000
0100
0010
0100
0010
0001
0010
0001
0010
,
0100
1000
0001
1000
0010
0100
0001
1000
0100
0010
0001
0100
0001
1000
0001
1000
,
0010
0100
0004
0003
1000
0100
0010
0001
1000
0000
0001
0000
1000
0000
1000
0000
,
2002
0000
3003
0000
;
