#TITLE:DRAGOSTEA DIN TEI;
#SUBTITLE:(EUROBEAT REMIX);
#ARTIST:O-ZONE;
#TITLETRANSLIT:;
#SUBTITLETRANSLIT:;
#ARTISTTRANSLIT:;
#CREDIT:;
#BANNER:dragostea-bn.png;
#BACKGROUND:dragostea-bg.png;
#LYRICSPATH:;
#CDTITLE:!evilpeerTitle.png;
#MUSIC:O-Zone - Dragostea Din Tei (Eurobeat Remix).mp3;
#OFFSET:-0.280;
#SAMPLESTART:53.240;
#SAMPLELENGTH:21.980;
#SELECTABLE:YES;
#BPMS:0.000=150.000,230.000=112.500,233.000=150.000;
#STOPS:;
#BGCHANGES:;
// cache tags:
#FIRSTBEAT:16.500;
#LASTBEAT:233.000;
#SONGFILENAME:Songs/Keyboard Collaboration II/eVILPeeR - Dragostea Din Tei (Eurobeat Remix)/O-Zone - Dragostea Din Tei (Eurobeat Remix).sm;
#HASMUSIC:1;
#HASBANNER:1;
#MUSICLENGTH:95.059;
// end cache tags

//---------------dance-single - ----------------
#NOTES:
     dance-single:
     :
     Hard:
     11:
     0.956,1.000,1.000,0.242,0.331,429.000,184.000,23.000,0.000,9.000:  // measure 1
0000
0000
0000
0000
,  // measure 2
0000
0000
0000
0000
,  // measure 3
0000
0000
0000
0000
,  // measure 4
0000
0000
0000
0000
,  // measure 5
0000
0000
1000
0100
2002
0000
0000
0000
3203
0000
0000
0000
0000
0000
0300
0000
,  // measure 6
0000
0000
0000
0000
,  // measure 7
0000
0000
0000
0110
1100
0000
0000
0000
,  // measure 8
0000
0000
0000
1001
0000
1001
0000
0000
,  // measure 9
0110
0000
0100
0020
1000
0030
0010
0110
,  // measure 10
1100
0000
0110
0000
1010
0000
0011
0000
0101
0000
1000
0100
1000
0100
0010
0001
,  // measure 11
0110
0000
0011
0000
0110
0000
0101
0000
1100
0000
0001
0010
0001
0010
0100
1000
,  // measure 12
0101
1010
0110
1001
0110
1100
0220
0000
,  // measure 13
1331
0000
1000
0002
0100
0003
1000
1100
,  // measure 14
0110
0000
0101
0000
0011
0000
0101
0000
1001
0000
0100
0010
1000
0001
1000
0100
,  // measure 15
0011
0000
1010
0000
0011
0000
0101
0000
0011
0000
1000
0010
0100
0001
1000
0010
,  // measure 16
0101
1010
1100
0101
0011
0101
2002
0000
,  // measure 17
0100
0000
0000
0000
3113
0000
0000
0000
1000
0100
1000
0000
0010
0000
0100
0001
,  // measure 18
0100
0010
0100
0010
0101
0000
1000
0100
0000
0000
0100
0000
0110
0000
0010
0001
,  // measure 19
0010
0100
1000
0100
1010
0000
1010
0000
0100
0001
0100
0010
0100
0010
0100
0001
,  // measure 20
0100
0010
1000
0010
1001
0000
1001
0000
1000
0100
1000
0010
0100
0001
0010
0100
,  // measure 21
2002
0000
0000
0000
3113
0000
0110
0000
0010
0000
0100
0000
0010
0100
0001
1000
,  // measure 22
0000
0110
1000
0002
0000
0000
0003
0000
,  // measure 23
0000
0011
0000
0110
0000
1100
0000
0101
,  // measure 24
0000
0000
0110
1100
0000
0101
0000
0000
,  // measure 25
0000
1100
0110
0101
0010
0100
0110
1100
,  // measure 26
0010
1000
0110
0001
0010
0100
0110
1001
,  // measure 27
1000
0011
0110
1100
0010
0011
1010
0101
,  // measure 28
0100
1000
1100
0011
0010
0110
0010
0001
,  // measure 29
0100
0110
1100
0110
0010
0011
0100
1001
,  // measure 30
1000
0000
0110
0000
0001
0000
1100
0000
0100
0000
0100
0001
1000
0000
0100
0001
,  // measure 31
1000
0011
0110
1100
0101
0100
0010
1100
,  // measure 32
1100
0100
0010
0110
0100
1000
0101
1000
,  // measure 33
0110
0000
1000
0000
0110
0000
1010
0000
0100
0001
0010
0100
1000
0001
0010
0100
,  // measure 34
1010
0000
0110
0000
0001
0000
2000
0000
3001
0010
0100
0000
0100
0000
1000
0100
,  // measure 35
1000
0000
0011
0000
0110
0000
0100
0000
1100
0000
0001
0010
0100
1000
0001
0010
,  // measure 36
1001
0000
0100
0000
1001
0000
0110
0000
1001
0000
0010
0001
1000
0000
0100
0010
,  // measure 37
1100
0011
0110
0100
0011
0110
0202
0000
,  // measure 38
0313
0000
0110
0000
1100
0000
1001
0000
1001
0000
0010
0000
1100
0000
0100
0010
,  // measure 39
0100
0000
0011
0100
1000
0000
1001
0000
0100
0000
0010
0100
0010
1000
0001
0010
,  // measure 40
1100
0100
1001
0100
0110
1001
0001
1001
,  // measure 41
0110
1001
0010
1001
0000
1001
0100
0000
,  // measure 42
0100
1000
0100
1000
0011
0001
0010
0001
,  // measure 43
0010
0001
0010
0001
1010
1000
0010
1000
,  // measure 44
0110
1000
0110
1000
0101
0100
0001
0100
,  // measure 45
0001
0100
0001
0011
0010
0110
0100
1000
,  // measure 46
0101
0100
0101
1010
1001
1000
0001
1000
,  // measure 47
0001
1000
0001
1000
1100
1000
0100
1000
,  // measure 48
0110
1000
0110
1000
1010
1000
0010
1000
,  // measure 49
0010
1000
0010
1000
1001
0000
1001
0000
,  // measure 50
0110
0000
0100
0020
1000
0030
0010
0110
,  // measure 51
1100
0000
0110
0000
1010
0000
0011
0000
0101
0000
1000
0100
1000
0100
0010
0001
,  // measure 52
0110
0000
0011
0000
0110
0000
0101
0000
1100
0000
0001
0010
0001
0010
0100
1000
,  // measure 53
0101
1010
0110
1001
0110
1100
0220
0000
,  // measure 54
1331
0000
1000
0002
0100
0003
1000
1100
,  // measure 55
0110
0000
0101
0000
0011
0000
0101
0000
1001
0000
0100
0010
1000
0001
0010
0001
,  // measure 56
0110
0000
1010
0000
0101
0000
1100
0000
0101
0000
1000
0010
0100
0001
1000
0010
,  // measure 57
0101
1010
1100
0101
0011
0101
2002
0000
,  // measure 58
0100
3113
2200
0000
,  // measure 59
0000
3300
0000
0000
;
