#TITLE:The Fire Still Burns (main solo);
#SUBTITLE:Ultra Beatdown;
#ARTIST:Dragonforce;
#TITLETRANSLIT:;
#SUBTITLETRANSLIT:;
#ARTISTTRANSLIT:;
#CREDIT:Shirogitsune;
#BANNER:TFSB - BN.png;
#BACKGROUND:TFSB - BG.png;
#LYRICSPATH:;
#CDTITLE:CDtitle.png;
#MUSIC:The Fire Still Burns cut.mp3;
#OFFSET:1.391;
#SAMPLESTART:64.603;
#SAMPLELENGTH:14.000;
#SELECTABLE:YES;
#BPMS:0.000=100.000,68.000=200.000;
#STOPS:;
#BGCHANGES:;
// cache tags:
#FIRSTBEAT:4.000;
#LASTBEAT:344.000;
#SONGFILENAME:Songs/Guitar Minipack/The Fire Still Burns (main solo)/The Fire Still Burns.sm;
#HASMUSIC:1;
#HASBANNER:1;
#MUSICLENGTH:126.955;
// end cache tags

//---------------dance-single - Maniac----------------
#NOTES:
     dance-single:
     Maniac:
     Hard:
     14:
     1.000,1.000,0.402,0.843,1.000,788.000,51.000,107.000,0.000,0.000:
0000
0000
0000
0000
,
0002
0000
0000
0000
0000
0000
0000
0000
0000
0000
0000
0003
0100
0000
1000
0000
0100
0000
0020
0000
0000
0000
0000
0030
0200
0000
0000
0000
0000
0000
0000
0300
,
2000
0000
0000
0000
0000
0000
0000
3000
0002
0000
0000
0000
0000
0000
0000
0000
0000
0000
0000
0000
0000
0000
0000
0000
0000
0000
0000
0000
0000
0000
0000
0003
,
0020
0000
0000
0000
0000
0000
0000
0000
0000
0000
0000
0030
0001
0000
0010
0000
0100
0000
2000
0000
0000
0000
0000
0000
0000
0000
0000
0000
0000
0000
0000
3000
,
0002
0000
0000
0000
0000
0000
0000
0003
0020
0000
0000
0030
0200
0000
0000
0000
0000
0000
0000
0300
2000
0000
0000
0000
0000
0000
0000
0000
0000
0000
0000
3000
,
0200
0000
0000
0000
0000
0000
0000
0300
2000
0000
0000
3000
0100
0000
0010
0000
0001
0000
0020
0000
0000
0000
0000
0000
0000
0000
0000
0000
0000
0000
0000
0030
,
0002
0000
0000
0000
0000
0000
0000
0003
0200
0000
0000
0300
0020
0000
0000
0000
0000
0000
0000
0030
0200
0000
0000
0000
0000
0000
0000
0000
0000
0000
0000
0300
,
2000
0000
0000
0000
0000
0000
0000
0000
0000
0000
0000
3000
0010
0000
0001
0000
0010
0000
0200
0000
0000
0000
0000
0000
0000
0000
0000
0000
0000
0000
0000
0300
,
0020
0000
0000
0000
0000
0000
0000
0000
0000
0000
0000
0000
0000
0000
0000
0000
0000
0000
0000
0000
0000
0000
0000
0000
0000
0000
0000
0000
0000
0000
0000
0030
,
0101
0101
0000
0101
0102
0000
0000
0000
0000
0000
0000
0000
0000
0000
0000
0000
,
0020
0000
0000
0000
0000
0000
0000
0000
0000
0000
0000
0000
0000
0000
0000
0030
0200
0000
0000
0000
0000
0000
0000
0000
0000
0000
0000
0000
0000
0000
0000
0303
,
1010
1010
0000
1010
1020
0000
0000
0000
0000
0000
0000
0000
0000
0000
0000
0000
,
0000
0000
0000
0000
0000
0000
0000
0000
0000
0000
0000
0000
0000
0000
0000
0000
0000
0000
0000
0000
0000
0000
0000
0000
0000
0000
0000
0000
0000
0000
0000
0030
,
0101
0101
0000
0101
0102
0000
0000
0000
0000
0000
0000
0000
0000
0000
0000
0000
,
0000
0000
0000
0000
0000
0000
0000
0000
0000
0000
0000
0000
0000
0000
0000
0000
0020
0000
0000
0000
0000
0000
0000
0030
0200
0000
0000
0000
0000
0000
0000
0303
,
1010
1010
0000
1010
1020
0000
0000
0000
0000
0000
0000
0000
0000
0000
0000
0000
,
0000
0000
0000
0000
0000
0000
0000
0000
0000
0000
0000
0000
0000
0000
0000
0000
0200
0000
0000
0000
0000
0000
0000
0300
2000
0000
0000
0000
0000
0000
0000
3030
,
0101
0101
0101
0101
0101
0101
0101
0101
,
0101
0101
0101
0101
0101
0101
0101
0101
,
1001
0010
0000
0001
0100
0000
0001
1000
,
0000
0001
1000
0001
0010
0100
1001
0100
,
1010
0000
1010
0000
1010
0000
0001
0000
0020
0030
0200
0300
1010
0000
0010
0000
,
0010
0000
0100
0000
0100
0000
0100
0000
1000
0000
1000
0000
2100
3000
0200
0300
,
1010
1010
1010
0001
0100
0000
0001
1000
,
0000
0000
0010
0000
0100
0000
1000
0000
0010
0100
1000
0100
0020
0000
0000
0030
,
1100
0010
0001
0100
0010
0001
0100
1000
,
0100
0010
0001
0100
0010
0001
0100
1000
,
0101
0010
0100
1000
0100
1000
0001
0010
0100
1000
0100
1000
0001
0010
0100
1000
,
0101
0000
0101
0000
0101
0000
0101
0000
0000
0001
1000
0001
,
2100
0000
0000
0000
0000
0000
0000
0000
0000
0000
0000
0000
0000
0000
0000
3000
,
0001
0010
0100
0010
0100
1000
0100
0010
0001
1000
0100
0010
0100
0010
0001
1000
0100
0010
1000
0100
0010
1000
0100
0010
,
0001
0010
0100
0010
0100
1000
0100
0010
0001
1000
0100
0010
0100
0010
0001
1000
0100
0010
1000
0100
0010
1000
0100
0010
,
0001
0001
1000
1000
0100
0100
1000
1000
0010
0010
0100
0100
1000
1000
0100
0100
,
0010
0010
0100
0100
1000
1000
0100
0100
2000
3000
2000
3000
2000
3000
2000
3000
,
0010
0001
0010
0100
1000
0100
0010
0001
0100
1000
0100
1000
0100
0010
0001
0010
,
0100
1000
0100
1000
0001
0010
0100
1000
0100
0010
0100
0010
0001
0010
0100
1000
,
0010
0000
0000
0100
0000
0000
1000
0000
0000
0100
0000
0000
0001
0000
0000
0100
0000
0000
1000
0000
0000
0100
0000
0000
0001
0000
0010
0000
0100
0000
1000
0000
0100
0000
0010
0000
0001
0000
0010
0000
0100
0000
0010
0000
0100
0000
1000
0000
,
0001
0010
0001
0010
0001
0100
0001
0100
0001
0000
1000
0000
0001
0000
1000
0000
,
0020
0000
0000
0000
0000
0030
0200
0000
0000
0000
0000
0300
2000
0000
0000
3000
,
0001
0010
0001
0010
0100
1000
0100
0010
,
0200
0000
0000
0000
0000
0300
0020
0000
0000
0000
0000
0030
2000
0000
0000
3000
,
0100
0000
0010
0000
0100
0000
2000
0000
0000
3000
2000
3000
2000
3000
2000
3000
,
0001
0010
0100
0010
0100
1000
0100
0010
0001
1000
0010
1000
0100
1000
0100
1000
,
0001
0010
0100
0010
0100
1000
0001
0010
0100
1000
0010
1000
0001
0100
0010
0100
,
1000
0100
0010
0001
0010
0100
0010
0001
1000
0100
0010
0001
0100
0010
0001
0010
,
1000
0100
0010
0100
0010
0001
0010
0100
1000
0100
0010
0001
0010
0100
0010
0100
,
1000
0000
1000
0000
0100
0000
0010
0000
0100
0000
0000
0010
0000
0000
0100
0000
,
2000
0000
0000
0000
0000
3000
0010
0000
0100
0000
0010
0000
0100
0000
1000
0000
,
0200
0000
0000
0300
0010
0001
0010
0100
,
1000
0000
0000
0000
0000
0000
0000
0000
0100
1000
0000
0000
0000
0000
0000
0000
0010
0100
0000
0000
0000
0000
0000
0000
0001
0010
0000
0000
0000
0000
0000
0000
,
2000
0000
0000
3000
2000
3000
2000
3000
2000
0000
0000
3000
0001
0000
0010
0000
,
0200
0300
2000
3000
0200
0300
0010
0000
0100
0000
0001
0000
0001
0000
0000
0010
,
0001
0000
0000
0010
0000
0000
0001
0000
0010
0000
0001
0000
0010
0000
0100
0000
1000
0000
0100
0000
0010
0000
0001
0000
1000
0000
0100
0000
0010
0000
0100
0000
0010
0000
0001
0000
1000
0000
0100
0000
0010
0000
0100
0000
0010
0000
0001
0000
,
0200
0000
0000
0000
0000
0000
0000
0300
,
1000
0100
1000
0100
0010
0001
0010
0001
0100
0010
0001
0010
0100
1000
0100
1000
,
0100
0010
0100
0010
1000
0100
1000
0100
0010
0001
0010
0100
1000
0100
0010
0001
,
0020
0000
0000
0030
0100
0000
0200
0000
0300
0000
0002
0000
0003
0000
0020
0000
,
0030
0000
0200
0000
0300
0000
2000
0000
0000
0000
0000
0000
0000
0000
0000
3000
,
0001
0010
0100
1000
0001
0010
0100
0010
0100
1000
0001
0010
0001
0010
0100
1000
,
0010
0001
0010
0001
0100
0010
0100
0010
1000
0100
1000
0100
0010
0100
0000
0010
,
0002
0003
0100
0000
0010
0000
0100
0000
0002
0003
0100
0000
0002
0003
0100
0000
0010
0000
0100
0000
0002
0003
0100
0000
0002
0003
0100
0000
0010
0000
0100
0000
,
0002
0000
0000
0000
0000
0000
0003
0000
0000
0000
0000
0000
0100
0000
0000
0000
0000
0000
0000
0000
0000
0000
0000
0000
0010
0000
0000
0000
0000
0000
0000
0000
0000
0000
0000
0000
0100
0000
0000
0000
0000
0000
0000
0000
0000
0000
0000
0000
0001
0000
0000
0000
0000
0000
0000
0000
0000
0000
0000
0000
0010
0000
0000
0000
0000
0000
0000
0000
0000
0000
0000
0000
0100
0000
0000
0000
0000
0000
0000
0000
1000
0000
0000
0000
0000
0000
0000
0000
0100
0000
0000
0000
0000
0000
0000
0000
2000
0000
0000
0000
0000
0000
0000
0000
0000
0000
0000
0000
0000
0000
0000
0000
0000
0000
0000
0000
0000
0000
0000
0000
0000
0000
0000
0000
0000
0000
0000
0000
0000
0000
0000
0000
0000
0000
0000
0000
0000
0000
0000
0000
0000
0000
0000
0000
0000
0000
0000
0000
0000
0000
0000
0000
0000
0000
0000
0000
0000
0000
0000
0000
0000
0000
0000
0000
0000
0000
0000
0000
0000
0000
0000
0000
0000
0000
0000
0000
0000
0000
0000
0000
3000
0000
0000
0000
0000
0000
0000
0000
0000
0000
0000
0000
,
0100
0000
1000
0000
0100
0000
0020
0000
0000
0030
0200
0000
0000
0300
2000
0000
,
0000
3000
0001
0000
0010
0000
0100
0000
0010
0000
0100
0000
1000
0000
0100
0000
,
0010
0000
0001
0010
0001
0000
0010
0000
0100
0000
1000
0000
1000
0000
0100
0000
,
0010
0000
0010
0000
0100
0000
0020
0000
0030
0000
0200
0000
0000
0000
0000
0300
,
1000
0000
0100
0000
1000
0000
0100
0000
0000
0010
0000
0000
0001
0000
0000
0001
0000
0000
1000
0000
0000
0100
0000
0000
0010
0000
0000
0100
0000
0000
0010
0000
0000
0001
0000
0000
0010
0000
0000
0100
0000
0000
1000
0000
0000
0100
0000
0000
,
0011
0000
0010
0000
0002
0000
0000
0003
0110
0000
0100
0000
0020
0000
0000
0030
,
0001
0000
0010
0000
0100
0000
1000
0000
0000
0100
0000
0000
0001
0000
0010
0000
0100
0000
1000
0000
0000
0100
0000
0000
0001
0000
0010
0000
0100
0000
1000
0000
0000
0100
0000
0000
0001
0000
0010
0000
0100
0000
1000
0000
0000
0100
0000
0000
,
0001
0000
0010
0000
0100
0000
1000
0000
0000
0100
0000
0000
0001
0000
0010
0000
0100
0000
1000
0000
0000
0100
0000
0000
0010
0000
0001
0000
0010
0000
0001
0000
0100
0000
0010
0000
0100
0000
0010
0000
1000
0000
0010
0000
1000
0000
0010
0000
,
0001
0000
0000
0000
0100
0000
0100
0000
0200
0000
0000
0300
0020
0000
0000
0030
,
0100
1000
0000
0000
0100
0000
2000
0000
0000
0000
0000
0000
0000
0000
0000
3000
,
0001
0010
0100
1000
0100
1000
0100
0010
,
0200
0000
0000
0000
0000
0000
0000
0300
2000
0000
0000
0000
0000
0000
0000
0000
,
0000
0000
0000
3000
0100
0000
0100
0000
0200
0000
0000
0300
0020
0000
0000
0030
,
0200
0000
0000
0300
0100
0000
0200
0000
0000
0300
0020
0000
0000
0000
0000
0030
,
0001
0010
0001
0010
0001
0000
0010
0100
0010
0100
0010
0000
0100
1000
0100
1000
,
0020
0000
0000
0030
0100
0000
1000
0000
0200
0000
0000
0300
2000
0000
0000
3000
,
0100
0000
0000
0010
0000
0000
0100
0000
0000
1000
0000
0000
0100
0000
0000
0010
0000
0000
0001
0000
0000
0010
0000
0000
0100
0000
0000
1000
0000
0000
0100
0000
0000
0010
0000
0000
0001
0000
0100
0000
0010
0000
0001
0000
0100
0000
0010
0000
,
0001
0100
0010
0001
0100
0010
1000
0001
1000
0001
1000
0001
1000
0010
1000
0010
1000
0010
1000
0100
1000
0100
1000
0100
,
0020
0000
0030
0200
0000
0300
0010
0000
0200
0000
0300
2000
0000
3000
0010
0000
,
0200
0000
0000
0300
0020
0000
0000
0030
0002
0000
0000
0000
0000
0000
0000
0003
,
0020
0000
0030
0200
0000
0300
2000
0000
0000
3000
0100
0000
0010
0000
0001
0000
,
0020
0000
0000
0030
0200
0300
2000
0000
0000
3000
0100
0000
0010
0000
0001
0000
,
0100
0000
0010
0000
0100
0000
1000
0000
0100
0000
0010
0000
0001
0000
0010
0000
0100
0000
0010
0000
0100
0000
1000
0000
0001
0000
0010
0000
0100
0000
1000
0000
0100
0000
0010
0000
0001
0000
0000
0010
0000
0000
1000
0000
0100
0000
0010
0000
,
0001
0010
0100
0001
0010
0100
1000
0100
0010
0100
0010
0001
1000
0100
0010
0001
0010
0100
1000
0100
0010
0100
0010
0001
,
0010
0000
0000
0000
;

//---------------dance-single - Copied from Maniac----------------
#NOTES:
     dance-single:
     Copied from Maniac:
     Challenge:
     14:
     1.000,1.000,0.465,0.843,1.000,788.000,59.000,107.000,0.000,0.000:
0000
0000
0000
0000
,
0002
0000
0000
0000
0000
0000
0000
0000
0000
0000
0000
0003
0100
0000
1000
0000
0100
0000
0020
0000
0000
0000
0000
0030
0200
0000
0000
0000
0000
0000
0000
0300
,
2000
0000
0000
0000
0000
0000
0000
3000
0002
0000
0000
0000
0000
0000
0000
0000
0000
0000
0000
0000
0000
0000
0000
0000
0000
0000
0000
0000
0000
0000
0000
0003
,
0020
0000
0000
0000
0000
0000
0000
0000
0000
0000
0000
0030
0001
0000
0010
0000
0100
0000
2000
0000
0000
0000
0000
0000
0000
0000
0000
0000
0000
0000
0000
3000
,
0002
0000
0000
0000
0000
0000
0000
0003
0020
0000
0000
0030
0200
0000
0000
0000
0000
0000
0000
0300
2000
0000
0000
0000
0000
0000
0000
0000
0000
0000
0000
3000
,
0200
0000
0000
0000
0000
0000
0000
0300
2000
0000
0000
3000
0100
0000
0010
0000
0001
0000
0020
0000
0000
0000
0000
0000
0000
0000
0000
0000
0000
0000
0000
0030
,
0002
0000
0000
0000
0000
0000
0000
0003
0200
0000
0000
0300
0020
0000
0000
0000
0000
0000
0000
0030
0200
0000
0000
0000
0000
0000
0000
0000
0000
0000
0000
0300
,
2000
0000
0000
0000
0000
0000
0000
0000
0000
0000
0000
3000
0010
0000
0001
0000
0010
0000
0200
0000
0000
0000
0000
0000
0000
0000
0000
0000
0000
0000
0000
0300
,
0020
0000
0000
0000
0000
0000
0000
0000
0000
0000
0000
0000
0000
0000
0000
0000
0000
0000
0000
0000
0000
0000
0000
0000
0000
0000
0000
0000
0000
0000
0000
0030
,
0101
0101
0000
0101
0102
0000
0000
0000
0000
0000
0000
0000
0000
0000
0000
0000
,
0020
0000
0000
0000
0000
0000
0000
0000
0000
0000
0000
0000
0000
0000
0000
0030
0200
0000
0000
0000
0000
0000
0000
0000
0000
0000
0000
0000
0000
0000
0000
0303
,
1010
1010
0000
1010
1020
0000
0000
0000
0000
0000
0000
0000
0000
0000
0000
0000
,
0000
0000
0000
0000
0000
0000
0000
0000
0000
0000
0000
0000
0000
0000
0000
0000
0000
0000
0000
0000
0000
0000
0000
0000
0000
0000
0000
0000
0000
0000
0000
0030
,
0101
0101
0000
0101
0102
0000
0000
0000
0000
0000
0000
0000
0000
0000
0000
0000
,
0000
0000
0000
0000
0000
0000
0000
0000
0000
0000
0000
0000
0000
0000
0000
0000
0020
0000
0000
0000
0000
0000
0000
0030
0200
0000
0000
0000
0000
0000
0000
0303
,
1010
1010
0000
1010
1020
0000
0000
0000
0000
0000
0000
0000
0000
0000
0000
0000
,
0000
0000
0000
0000
0000
0000
0000
0000
0000
0000
0000
0000
0000
0000
0000
0000
0200
0000
0000
0000
0000
0000
0000
0300
2000
0000
0000
0000
0000
0000
0000
3030
,
0101
0101
0101
0101
0101
0101
0101
0101
,
0101
0101
0101
0101
0101
0101
0101
0101
,
1001
0010
0000
0001
0100
0000
0001
1000
,
0000
0001
1000
0001
0010
0100
1001
0100
,
1010
0000
1010
0000
1010
0000
0001
0000
0020
0030
0200
0300
1010
0000
0010
0000
,
0010
0000
0100
0000
0100
0000
0100
0000
1000
0000
1000
0000
2100
3000
0200
0300
,
1010
1010
1010
0001
0100
0000
0001
1000
,
0000
0000
0010
0000
0100
0000
1000
0000
0010
0100
1000
0100
0020
0000
0000
0030
,
1100
0010
0001
0100
0010
0001
0100
1000
,
0100
0010
0001
0100
0010
0001
0100
1000
,
0101
0010
0100
1000
0100
1000
0001
0010
0100
1000
0100
1000
0001
0010
0100
1000
,
0101
0000
0101
0000
0101
0000
0101
0000
0000
0001
1000
0001
,
2100
0000
0000
0000
0000
0000
0000
0000
0000
0000
0000
0000
0000
0000
0000
3000
,
0001
0010
0100
0010
0100
1000
0100
0010
0001
1000
0100
0010
0100
0010
0001
1000
0100
0010
1000
0100
0010
1000
0100
0010
,
0001
0010
0100
0010
0100
1000
0100
0010
0001
1000
0100
0010
0100
0010
0001
1000
0100
0010
1000
0100
0010
1000
0100
0010
,
0001
0001
1000
1000
0100
0100
1000
1000
0010
0010
0100
0100
1000
1000
0100
0100
,
0010
0010
0100
0100
1000
1000
0100
0100
2000
3000
2000
3000
2000
3000
2000
3000
,
0010
0001
0010
0100
1000
0100
0010
0001
0100
1000
0100
1000
0100
0010
0001
0010
,
0100
1000
0100
1000
0001
0010
0100
1000
0100
0010
0100
0010
0001
0010
0100
1000
,
0010
0000
0000
0100
0000
0000
1000
0000
0000
0100
0000
0000
0001
0000
0000
0100
0000
0000
1000
0000
0000
0100
0000
0000
0001
0000
0010
0000
0100
0000
1000
0000
0100
0000
0010
0000
0001
0000
0010
0000
0100
0000
0010
0000
0100
0000
1000
0000
,
0001
0010
0001
0010
0001
0100
0001
0100
0001
0000
1000
0000
0001
0000
1000
0000
,
0020
0000
0000
0000
0000
0030
0200
0000
0000
0000
0000
0300
2000
0000
0000
3000
,
0001
0010
0001
0010
0100
1000
0100
0010
,
0200
0000
0000
0000
0000
0300
0020
0000
0000
0000
0000
0030
2000
0000
0000
3000
,
0100
0000
0010
0000
0100
0000
2000
0000
0000
3000
2000
3000
2000
3000
2000
3000
,
0001
0010
0100
0010
0100
1000
0100
0010
0001
1000
0010
1000
0100
1000
0100
1000
,
0001
0010
0100
0010
0100
1000
0001
0010
0100
1000
0010
1000
0001
0100
0010
0100
,
1000
0100
0010
0001
0010
0100
0010
0001
1000
0100
0010
0001
0100
0010
0001
0010
,
1000
0100
0010
0100
0010
0001
0010
0100
1000
0100
0010
0001
0010
0100
0010
0100
,
1000
0000
1000
0000
0100
0000
0010
0000
0100
0000
0000
0010
0000
0000
0100
0000
,
2000
0000
0000
0000
0000
3000
0010
0000
0100
0000
0010
0000
0100
0000
1000
0000
,
0200
0000
0000
0300
0010
0001
0010
0100
,
1000
0000
0000
0000
0000
0000
0000
0000
0100
1000
0000
0000
0000
0000
0000
0000
0010
0100
0000
0000
0000
0000
0000
0000
0001
0010
0000
0000
0000
0000
0000
0000
,
2000
0000
0000
3000
2000
3000
2000
3000
2000
0000
0000
3000
0001
0000
0010
0000
,
0200
0300
2000
3000
0200
0300
0010
0000
0100
0000
0001
0000
0001
0000
0000
0010
,
0001
0000
0000
0010
0000
0000
0001
0000
0010
0000
0001
0000
0010
0000
0100
0000
1000
0000
0100
0000
0010
0000
0001
0000
1000
0000
0100
0000
0010
0000
0100
0000
0010
0000
0001
0000
1000
0000
0100
0000
0010
0000
0100
0000
0010
0000
0001
0000
,
0200
0000
0000
0000
0000
0000
0000
0300
,
1000
0100
1000
0100
0010
0001
0010
0001
0100
0010
0001
0010
0100
1000
0100
1000
,
0100
0010
0100
0010
1000
0100
1000
0100
0010
0001
0010
0100
1000
0100
0010
0001
,
0020
0000
0000
0030
0100
0000
0200
0000
0300
0000
0002
0000
0003
0000
0020
0000
,
0030
0000
0200
0000
0300
0000
2000
0000
0000
0000
0000
0000
0000
0000
0000
3000
,
0001
0010
0100
1000
0001
0010
0100
0010
0100
1000
0001
0010
0001
0010
0100
1000
,
0010
0001
0010
0001
0100
0010
0100
0010
1000
0100
1000
0100
0010
0100
0000
0010
,
0002
0003
0100
0000
0010
0000
0100
0000
0002
0003
0100
0000
0002
0003
0100
0000
0010
0000
0100
0000
0002
0003
0100
0000
0002
0003
0100
0000
0010
0000
0100
0000
,
0002
0000
0000
0000
0000
0000
0003
0000
0000
0000
0000
0000
0100
0000
0000
0000
0000
0000
0000
0000
0000
0000
0000
0000
0010
0000
0000
0000
0000
0000
0000
0000
0000
0000
0000
0000
0100
0000
0000
0000
0000
0000
0000
0000
0000
0000
0000
0000
0001
0000
0000
0000
0000
0000
0000
0000
0000
0000
0000
0000
0010
0000
0000
0000
0000
0000
0000
0000
0000
0000
0000
0000
0100
0000
0000
0000
0000
0000
0000
0000
1000
0000
0000
0000
0000
0000
0000
0000
0100
0000
0000
0000
0000
0000
0000
0000
2000
0000
0000
0000
0000
0000
0000
0000
0000
0000
0000
0000
0000
0000
0000
0000
0000
0000
0000
0000
0000
0000
0000
0000
0000
0000
0000
0000
0000
0000
0000
0000
0000
0000
0000
0000
0000
0000
0000
0000
0000
0000
0000
0000
0000
0000
0000
0000
0000
0000
0000
0000
0000
0000
0000
0000
0000
0000
0000
0000
0000
0000
0000
0000
0000
0000
0000
0000
0000
0000
0000
0000
0000
0000
0000
0000
0000
0000
0000
0000
0000
0000
0000
0000
3000
0000
0000
0000
0000
0000
0000
0000
0000
0000
0000
0000
,
0100
0000
1000
0000
0100
0000
0020
0000
0000
0030
0200
0000
0000
0300
2000
0000
,
0000
3000
0001
0000
0010
0000
0100
0000
0010
0000
0100
0000
1000
0000
0100
0000
,
0010
0000
0001
0010
0001
0000
0010
0000
0100
0000
1000
0000
1000
0000
0100
0000
,
0010
0000
0010
0000
0100
0000
0020
0000
0030
0000
0200
0000
0000
0000
0000
0300
,
1000
0000
0100
0000
1000
0000
0100
0000
0000
0010
0000
0000
0001
0000
0000
0001
0000
0000
1000
0000
0000
0100
0000
0000
0010
0000
0000
0100
0000
0000
0010
0000
0000
0001
0000
0000
0010
0000
0000
0100
0000
0000
1000
0000
0000
0100
0000
0000
,
0011
0000
0010
0000
0002
0000
0000
0003
0110
0000
0100
0000
0020
0000
0000
0030
,
1001
0000
0010
0000
0100
0000
1000
0000
0000
0100
0000
0000
1001
0000
0010
0000
0100
0000
1000
0000
0000
0100
0000
0000
1001
0000
0010
0000
0100
0000
1000
0000
0000
0100
0000
0000
1001
0000
0010
0000
0100
0000
1000
0000
0000
0100
0000
0000
,
1001
0000
0010
0000
0100
0000
1000
0000
0000
0100
0000
0000
1001
0000
0010
0000
0100
0000
1000
0000
0000
0100
0000
0000
1010
0000
0001
0000
0010
0000
0001
0000
0100
0000
0010
0000
1100
0000
0010
0000
1000
0000
0010
0000
1000
0000
0010
0000
,
0001
0000
0000
0000
0100
0000
0100
0000
0200
0000
0000
0300
0020
0000
0000
0030
,
0100
1000
0000
0000
0100
0000
2000
0000
0000
0000
0000
0000
0000
0000
0000
3000
,
0001
0010
0100
1000
0100
1000
0100
0010
,
0200
0000
0000
0000
0000
0000
0000
0300
2000
0000
0000
0000
0000
0000
0000
0000
,
0000
0000
0000
3000
0100
0000
0100
0000
0200
0000
0000
0300
0020
0000
0000
0030
,
0200
0000
0000
0300
0100
0000
0200
0000
0000
0300
0020
0000
0000
0000
0000
0030
,
0001
0010
0001
0010
0001
0000
0010
0100
0010
0100
0010
0000
0100
1000
0100
1000
,
0020
0000
0000
0030
0100
0000
1000
0000
0200
0000
0000
0300
2000
0000
0000
3000
,
0100
0000
0000
0010
0000
0000
0100
0000
0000
1000
0000
0000
0100
0000
0000
0010
0000
0000
0001
0000
0000
0010
0000
0000
0100
0000
0000
1000
0000
0000
0100
0000
0000
0010
0000
0000
0001
0000
0100
0000
0010
0000
0001
0000
0100
0000
0010
0000
,
0001
0100
0010
0001
0100
0010
1000
0001
1000
0001
1000
0001
1000
0010
1000
0010
1000
0010
1000
0100
1000
0100
1000
0100
,
0020
0000
0030
0200
0000
0300
0010
0000
0200
0000
0300
2000
0000
3000
0010
0000
,
0200
0000
0000
0300
0020
0000
0000
0030
0002
0000
0000
0000
0000
0000
0000
0003
,
0020
0000
0030
0200
0000
0300
2000
0000
0000
3000
0100
0000
0010
0000
0001
0000
,
0020
0000
0000
0030
0200
0300
2000
0000
0000
3000
0100
0000
0010
0000
0001
0000
,
0100
0000
0010
0000
0100
0000
1000
0000
0100
0000
0010
0000
0001
0000
0010
0000
0100
0000
0010
0000
0100
0000
1000
0000
0001
0000
0010
0000
0100
0000
1000
0000
0100
0000
0010
0000
0001
0000
0000
0010
0000
0000
1000
0000
0100
0000
0010
0000
,
0001
0010
0100
0001
0010
0100
1000
0100
0010
0100
0010
0001
1000
0100
0010
0001
0010
0100
1000
0100
0010
0100
0010
0001
,
0010
0000
0000
0000
;
