#TITLE:Cruel Whole;
#SUBTITLE:[Abelcain Remix];
#ARTIST:Venetian Snares;
#TITLETRANSLIT:;
#SUBTITLETRANSLIT:;
#ARTISTTRANSLIT:;
#CREDIT:;
#BANNER:cruelwhole-bn.jpg;
#BACKGROUND:cruelwhole-bg.jpg;
#LYRICSPATH:;
#CDTITLE:cdtitle.png;
#MUSIC:venetian snares - [13] cruel whole (abelcain remix).mp3;
#OFFSET:1.250;
#SAMPLESTART:39.980;
#SAMPLELENGTH:12.000;
#SELECTABLE:YES;
#BPMS:0.000=165.050,133.000=82.525,140.500=165.050,471.500=82.525,472.250=165.050;
#STOPS:524.750=0.030
;
#BGCHANGES:;
// cache tags:
#FIRSTBEAT:4.000;
#LASTBEAT:525.250;
#SONGFILENAME:Songs/hard shit/Cruel Whole [Abelcain Remix] (Zaghurim)/creuwl whoar.sm;
#HASMUSIC:1;
#HASBANNER:1;
#MUSICLENGTH:233.142;
// end cache tags

//---------------dance-single - ----------------
#NOTES:
     dance-single:
     :
     Hard:
     14:
     1.000,1.000,1.000,0.081,1.000,1329.000,518.000,19.000,0.000,3.000:
0000
0000
0000
0000
,
0001
0000
1000
0100
0000
0000
0020
0000
0000
0000
0000
0000
0000
0000
0030
0000
,
0001
0000
1000
0100
0000
0000
0001
0000
1000
0100
0000
0000
0010
0010
0010
0010
,
0001
0000
1000
0010
0000
0000
0200
0000
0000
0000
0000
0000
0000
0000
0300
0000
,
0001
0000
1000
0010
0000
0000
0001
0000
1000
0010
0000
0000
0100
0100
0100
0100
,
0001
0000
1000
0010
0000
0000
0200
0000
0000
0000
0000
0000
0000
0000
0300
0000
,
0001
0000
1000
0010
0000
0000
0001
0000
1000
0010
0000
0000
0100
0100
0100
0100
,
0001
0000
1000
0100
0000
0000
0020
0000
0000
0000
0000
0000
0000
0000
0030
0000
,
0001
0000
1000
0100
0000
0000
0001
0000
1000
0100
0000
0000
0010
0010
0010
0010
,
0001
0000
1000
0100
0000
0000
0020
0000
0000
0000
0000
0000
0000
0000
0030
0000
,
0001
0000
1000
0100
0000
0000
0001
0000
1000
0100
0000
0000
0010
0010
0010
0010
,
0001
0000
1000
0010
0000
0000
0200
0000
0000
0000
0000
0000
0000
0000
0300
0000
,
0001
0000
1000
0010
0000
0000
0001
0000
1000
0010
0000
0000
0100
0100
0100
0100
,
0001
0000
1000
0010
0000
0000
0200
0000
0000
0000
0000
0000
0000
0000
0300
0000
,
0001
0000
1000
0010
0000
0000
0001
0000
1000
0010
0000
0000
0100
0100
0100
0100
,
0001
0000
1000
0100
0000
0000
0020
0000
0000
0000
0000
0000
0000
0000
0030
0000
,
1000
0000
1000
1000
1010
0000
0000
0101
0000
0000
0000
0000
0000
0000
0000
0000
,
0110
0000
0000
0000
0000
0000
0001
0000
1000
0010
0000
0000
0000
0000
0100
0100
,
0100
0000
0000
0000
0000
0000
0000
0000
1001
0000
0000
1001
0100
0010
0100
0100
,
0011
0000
1000
0010
0000
0000
0001
0000
1000
0010
0000
0000
0000
0000
0000
0000
,
0011
0000
0000
0000
0000
0000
0011
0000
0000
0000
0000
0000
0000
0000
0010
0010
,
1001
0000
0000
0000
0000
0000
0001
0000
1000
0010
0000
0000
0100
0000
0000
0010
,
0010
0000
0000
0000
0000
0000
0000
0000
1100
0010
0010
0010
0010
0000
0000
0000
,
0001
0000
1000
0011
0000
0010
0011
0000
1001
0000
0000
1001
0000
0000
1001
0000
,
1100
0000
0000
0000
1100
1100
1100
0000
0000
0000
0000
0000
,
1100
0000
0000
0000
0000
0000
0001
0000
1000
0010
0000
0002
0000
0003
1000
1000
,
1000
0000
0000
0000
0000
0000
0000
0000
0011
0000
0000
1001
0100
0010
0100
0100
,
1001
0000
1000
0010
0000
0000
0001
0000
1000
0010
0000
0000
0000
0000
0000
0000
,
1001
0000
0000
0001
0000
0000
0001
0000
0000
0000
0000
0000
0110
0000
1000
1000
,
1010
0000
0000
0000
0000
0000
0001
0000
1000
0010
0000
0000
0010
0000
0000
0010
,
0010
0000
0000
0000
0000
0000
0000
0000
0100
0001
0001
0001
0001
0000
0000
0000
,
1000
1000
1100
0011
0000
0000
0001
0000
1000
0010
0000
0000
0001
0001
0001
0001
,
0001
0001
0011
1100
0000
0000
0001
0001
0011
1100
0000
0000
0000
0000
0000
0000
,
1001
0000
0010
0100
0000
0000
0000
0000
0000
0000
0000
0000
0000
0000
0000
0000
,
0000
0000
0000
0000
,
0000
0000
0001
0001
0101
1010
0000
0000
0010
0000
1000
0100
0020
0000
0000
0000
,
0030
0000
0001
0001
0101
1010
0000
0000
1000
1000
1010
0101
0000
0000
0000
0000
,
0000
0000
0100
0100
0110
1001
0000
0000
0010
0000
1000
0001
0000
0000
0001
0001
,
0001
0001
0010
0010
0110
1001
0000
0000
0010
0010
0110
1001
0000
0000
0000
0000
,
0000
0000
0001
0001
0101
1010
0000
0000
0010
0000
1000
0100
0020
0000
0000
0000
,
0030
0000
0010
0010
1010
0101
0000
0000
0100
0100
0101
1010
0000
0000
0000
0000
,
0000
0000
1000
1000
1010
0101
0000
0000
0001
0000
1000
0010
0000
0000
0001
0001
,
0001
0001
0011
0011
0011
0011
0000
0000
0100
0100
0110
1001
0000
0000
0000
0000
,
0000
0000
1000
1000
1010
0101
0000
0000
0001
0000
1000
0100
0020
0000
0000
0000
,
0030
0000
0001
0001
0101
1010
0000
0000
1000
1000
1010
0101
0000
0000
0000
0000
,
0000
0000
0101
0001
0011
1100
0000
0000
0101
0000
1000
0100
0010
0000
0101
0001
,
0101
0101
1000
1000
1010
0101
0000
0000
1000
1000
1010
0101
0000
0000
0000
0000
,
0000
0000
1000
1000
1001
0110
0000
0000
0001
0000
1000
0100
0020
0000
0000
0000
,
0030
0000
1000
1000
1001
0110
0000
0000
1000
1000
1001
0110
0000
0000
0000
0000
,
0000
0000
1000
1000
1010
0101
0000
0000
0001
0000
1000
0010
0000
0000
0001
0001
,
0001
0001
0101
0001
1001
0110
0000
0110
0001
0001
1001
0110
0000
1000
0010
1000
,
0010
0000
1001
1000
1100
0011
0000
0000
0001
0000
1000
0100
0000
0000
0020
0000
,
0000
0000
1031
1000
1001
0110
1000
0010
1001
1000
1001
0110
1000
0010
0100
0010
,
1000
0100
1010
1010
1010
0101
0000
0000
0001
0000
1000
0010
0000
0000
0001
0001
,
0001
0001
1001
0001
0101
1010
0100
0010
1001
0001
0101
1010
0100
0010
1001
0010
,
0100
0010
1001
1000
1010
0101
0000
0000
0011
0000
1001
0110
0002
0000
0000
0000
,
0003
0000
1000
1000
1010
0101
0000
0000
1001
1000
1010
0101
0010
1000
0001
0001
,
0001
0001
1001
0001
1001
0110
0000
0000
0001
0000
1000
0001
0100
0000
1001
1000
,
1001
1001
1001
1000
1100
0011
0100
0010
1001
1000
1010
0101
0010
1000
0011
0100
,
0010
1000
0101
0001
0101
1010
0000
0000
1000
0000
0010
0100
0010
0100
2001
0000
,
3110
0110
1001
0000
0100
1001
0010
0100
0011
0000
1001
1001
0100
0010
0101
0000
,
0010
0100
1001
1000
1010
0101
0000
0000
0010
0000
0010
1000
0001
0000
0011
0001
,
0011
0011
0011
0001
0011
1100
0010
0100
0011
0001
0011
1100
0010
0100
0011
0100
,
0010
1000
0110
0100
0110
1001
0000
0000
0010
0000
1000
0100
0011
0011
0011
0000
,
0010
0100
1001
0010
0100
0011
0100
0010
1100
0000
1100
0011
1100
0000
1100
0011
,
1000
1000
1001
1000
1001
0110
0000
0000
0001
0000
1000
0100
0010
0000
0011
0001
,
0011
0011
0011
0001
0001
0001
0011
0011
0011
0001
0001
0001
0001
0001
0011
0011
,
0011
0011
1100
1000
1010
0101
0000
0000
0001
0000
1000
0010
0000
0000
0120
0000
,
0000
0000
1031
1000
1010
0101
0010
0100
1001
1000
1010
0101
0010
0100
0011
0100
,
0010
0100
1001
1001
1001
0110
0000
0000
0010
0000
0100
0010
0000
0000
1000
1000
,
1000
1000
1100
1000
1010
0101
0010
0100
0011
0001
0101
1010
0100
0010
0101
0010
,
0100
0010
1001
1000
1010
0101
0000
0000
0101
0000
1001
1001
0020
0000
0000
0000
,
0000
0000
1030
1000
1010
0101
0000
0000
1001
0001
0101
1010
0100
0010
1001
0001
,
0001
0001
1001
1000
1001
0110
0000
0000
0010
0000
1000
0010
0100
0000
1010
0010
,
1010
1010
1010
1000
1100
0011
0100
0010
1001
0001
0011
1100
0010
0100
0011
0100
,
0010
1000
0101
0001
0101
1010
0000
0000
0001
0000
1000
0010
0100
0010
0101
0000
,
0101
0101
1001
0100
0010
0101
0010
0100
0011
0000
1100
1100
0010
0100
1001
0000
,
0000
0000
1001
0001
0101
1010
0000
0000
0001
0000
1000
0010
0100
0000
1001
0001
,
1001
1001
1001
1000
1010
0101
0010
1000
0101
0001
0101
1010
0100
0010
0101
0010
,
0100
0010
1001
1000
1100
0011
0000
0000
0001
0000
1000
0100
0011
0011
0011
0000
,
0100
0010
1001
0000
0000
0101
0010
0100
1001
0000
1001
0110
1000
0010
1001
0110
,
0001
0001
1001
0001
1001
0110
0000
0000
1001
0000
0000
0000
0000
0000
0000
0000
,
0000
0000
0000
0000
,
0000
0000
0000
0000
,
0000
1001
0000
0000
0000
0000
0000
0000
,
0000
0000
0000
0000
,
0000
0000
0001
0000
1000
0100
0000
0000
0020
0000
0000
0000
0000
0000
0000
0000
,
0030
0000
0000
0000
,
0000
0000
1001
0000
1000
0010
0000
0000
1001
0000
1000
0010
0000
0000
0000
0000
,
0000
0000
0000
0000
,
0000
0000
1100
0010
0100
0010
1000
0000
1100
0010
0100
0010
1000
0000
0000
0000
,
1100
0010
0100
0010
1000
0000
1100
0010
0100
0010
1000
0000
0000
0000
1100
0010
,
0100
0010
1000
0000
1100
0010
0100
0010
1000
0000
0000
0000
1100
0010
0100
0010
,
1000
0000
1100
0010
0100
0010
1000
1000
0000
0000
1100
0010
0100
0010
1000
0000
,
1100
0010
0100
0010
1000
0000
0000
0000
1100
0010
0100
0010
1000
0000
1100
0010
,
0100
0010
1000
0000
0000
0000
1100
0010
0100
0010
1000
0000
1100
0010
0100
0010
,
1000
0000
0000
0000
1100
0010
0100
0000
0000
0000
0000
0000
0000
0000
0000
0000
,
0000
0000
1100
0010
0100
0011
1000
0000
1100
0010
0100
0010
1000
0000
0000
0000
,
1100
0010
0100
0010
1000
0000
1100
0010
0100
0010
1000
0000
0000
0000
1100
0010
,
0100
0010
1000
0000
1100
0010
0100
0010
1000
0000
0000
0000
1100
0010
0100
0010
,
1000
0000
1100
0010
0100
0010
1000
1000
0000
0000
1100
0010
0100
0011
1000
0000
,
1100
0010
0100
0010
1000
0000
0000
0000
1100
0010
0100
0010
1000
0000
1100
0010
,
0100
0010
1000
0000
0000
0000
1100
0010
0100
0010
1000
0000
1100
0010
0000
0000
,
0000
0000
0000
0000
1100
0010
0100
0010
0001
0001
1100
0000
0000
0000
1100
0000
,
0000
0000
1001
0010
0100
0010
0101
0101
1010
0100
0010
0100
0011
0011
1100
0010
,
1100
0010
0100
0010
1001
1001
0110
1000
0001
0100
0011
0011
1100
0010
1100
0010
,
0100
0010
0101
0101
1010
0100
0010
0100
0011
0011
1100
0001
1100
0010
0100
0010
,
1001
1001
0110
1000
0010
0100
0011
0011
1100
0010
1100
0010
0100
0001
1010
1010
,
0101
0010
0100
0010
0101
0101
1010
0100
1010
0100
0010
0100
0011
0011
1100
0001
,
0100
0001
0110
0110
1001
0010
1001
0100
0010
0100
1001
1001
0110
1000
0010
0100
,
0011
0011
1100
0010
1100
0010
0100
0010
1100
1100
0011
0011
0011
0011
1100
0011
,
0011
0011
0011
0011
0100
0010
0100
0010
0101
0101
1010
0100
0010
0100
0011
0011
,
1100
0010
1100
0010
0100
0010
0101
0101
1010
0100
0010
1000
0011
0011
1100
0010
,
1100
0010
0100
0010
1100
1100
0011
0100
0010
0100
0011
0011
1100
0010
1100
0010
,
0100
0010
1001
1001
0110
1000
0001
0100
0011
0011
1100
0010
1100
0010
0100
0010
,
0101
0101
1010
0100
0010
0100
0011
0011
1100
0001
1100
0010
0100
0010
1001
1001
,
0110
1000
0010
0100
0011
0011
1100
0010
1100
0010
0100
0001
1010
1010
0101
0010
,
0100
0010
0101
0101
1010
0100
1010
0100
0010
0100
0011
0011
1100
0010
0000
0000
,
0000
1100
1100
1100
0001
0000
0010
1100
1100
1100
0001
0000
0010
0001
0001
1001
,
1001
1001
0010
0000
0100
1001
1001
1001
0010
0000
0100
0001
0001
1100
1100
1100
,
0001
0000
0010
1100
1100
1100
0001
0000
0010
0001
0001
1001
1001
1001
0010
0000
,
0100
1001
1001
1001
0010
0000
0100
0001
0001
1001
0100
0010
0101
0010
0100
1001
,
0010
0100
0011
0100
0010
1100
1100
1100
0010
0100
1010
0100
0010
1001
0100
0010
,
1100
0010
0100
0011
0011
0011
0100
0010
0101
0010
0100
1010
0100
0010
1100
0010
,
0100
1010
1010
1010
0100
0010
0101
0010
0100
1010
0100
0010
1001
0010
0100
0011
,
0011
0011
0011
0011
0100
0000
0100
0011
0011
0011
0100
0000
0100
0010
0010
0101
,
0101
0101
0010
0000
0010
0101
0101
0101
0010
0000
0010
0100
0100
1010
1010
1010
,
0001
0000
0001
1010
1010
1010
0001
0000
0001
0010
0010
1100
1100
1100
0010
0000
,
0010
1100
1100
1100
0010
0000
0100
0010
0010
1001
0001
0001
1010
0010
0010
1001
,
0001
0001
1010
0010
0010
1001
1001
1001
0001
0001
0110
0010
0010
1001
1000
1000
,
0110
0010
0010
1001
1001
1001
1000
1000
0101
0100
0100
1001
1000
1000
0101
0100
,
0100
1001
1001
0010
0001
1001
0000
0000
0000
0000
0000
0000
0000
0000
0000
0000
;
