#TITLE:AA;
#SUBTITLE:;
#ARTIST:DJ Amuro;
#TITLETRANSLIT:;
#SUBTITLETRANSLIT:;
#ARTISTTRANSLIT:;
#CREDIT:;
#BANNER:aa.jpg;
#BACKGROUND:aa-bg.jpg;
#LYRICSPATH:;
#CDTITLE:kcd.jpg;
#MUSIC:AA.ogg;
#OFFSET:-6.277;
#SAMPLESTART:12.480;
#SAMPLELENGTH:12.447;
#SELECTABLE:YES;
#BPMS:0.000=154.000,112.000=77.000,129.000=154.000;
#STOPS:112.000=0.779
;
#BGCHANGES:;
// cache tags:
#FIRSTBEAT:0.000;
#LASTBEAT:260.000;
#SONGFILENAME:Songs/in the groove2/AA-DJ Amuro/aa.sm;
#HASMUSIC:1;
#HASBANNER:1;
#MUSICLENGTH:116.479;
// end cache tags

//---------------dance-single - ----------------
#NOTES:
     dance-single:
     :
     Hard:
     7:
     0.541,0.469,0.438,0.034,0.000,386.000,51.000,4.000,0.000,0.000:  // measure 1
0001
0000
0011
0000
1000
0010
0100
0000
,  // measure 2
0001
0000
0110
0000
1000
0001
0100
0000
,  // measure 3
0010
0000
1100
0000
0001
0010
0100
0000
,  // measure 4
1000
0001
1000
0001
1000
0010
0100
0001
,  // measure 5
1000
0000
0110
0000
0001
1000
0100
0000
,  // measure 6
0010
0000
0011
0000
1000
0100
0010
0000
,  // measure 7
0001
0000
1100
0000
0010
0100
0001
0000
,  // measure 8
1000
0010
0100
0001
0010
0100
1000
0000
,  // measure 9
0010
0000
0101
0000
1000
0010
0100
0000
,  // measure 10
0001
0000
0110
0000
1000
0001
0010
0000
,  // measure 11
0100
1000
0010
0000
0100
0000
0011
0000
,  // measure 12
1100
0010
0101
1000
,  // measure 13
0010
0100
0001
0010
0100
0001
0010
0000
,  // measure 14
0100
1000
0010
0100
1000
0010
0100
0000
,  // measure 15
0001
1000
0100
0001
1000
0100
0001
0000
,  // measure 16
0010
0100
1000
0010
0100
1000
0010
0000
,  // measure 17
0101
0000
1000
0010
1000
0010
1000
0000
,  // measure 18
0100
0010
0001
1000
0100
0010
0001
0000
,  // measure 19
0100
0010
1000
0100
0010
0001
0100
0000
,  // measure 20
0010
1000
0100
0010
1000
0100
0010
0001
,  // measure 21
0100
0000
1010
0000
0001
0100
0010
1000
,  // measure 22
0100
0000
0010
0001
0100
0001
0010
0000
,  // measure 23
0100
0000
1010
0000
0001
0100
0010
1000
,  // measure 24
0100
0010
0001
0000
0101
0000
1000
0000
,  // measure 25
1100
0000
0110
0000
0001
1000
0100
0000
,  // measure 26
0011
0000
1100
0000
0010
0100
0001
0000
,  // measure 27
1100
0000
0011
0000
1000
0010
0100
0000
,  // measure 28
0001
0010
0100
1000
0010
0100
1000
0000
,  // measure 29
0101
2000
0100
0001
,  // measure 30
3100
0002
0010
1000
,  // measure 31
0013
2100
3010
0002
,  // measure 32
0103
0000
1000
0010
0100
0001
1000
0010
,  // measure 33
0100
0001
1010
0000
0001
0100
0001
0000
,  // measure 34
1010
0000
0100
0010
0001
1000
0010
0000
,  // measure 35
0100
0000
0001
0010
0100
1000
0010
0000
,  // measure 36
0101
0000
1000
0010
0100
0001
0010
0000
,  // measure 37
0100
0000
1000
0001
0100
0000
0010
1000
,  // measure 38
0100
0000
1000
0001
0100
0000
0010
0001
,  // measure 39
0100
0000
1000
0001
0100
0000
1000
0001
,  // measure 40
0100
0000
0010
1000
0100
0010
0001
0100
,  // measure 41
0010
1000
0100
0000
0011
0000
1000
0010
,  // measure 42
0100
0001
0010
0000
1100
0000
0001
0010
,  // measure 43
0100
1000
0010
0000
0101
0000
1000
0010
,  // measure 44
0100
0001
0010
0000
0110
0000
1001
0000
,  // measure 45
0110
0000
0001
1000
0100
0010
0001
0100
,  // measure 46
0001
0100
0010
1000
0001
0100
0010
1000
,  // measure 47
0010
1000
0100
0010
0001
0100
0010
1000
,  // measure 48
0010
1000
0001
0010
0100
1000
0010
0100
,  // measure 49
0010
0000
1001
0000
0001
0010
0011
0000
,  // measure 50
1000
0000
0010
0000
0100
0001
0101
0000
,  // measure 51
0010
1000
1010
0000
0001
0000
0100
0000
,  // measure 52
1010
0000
0001
0010
0100
1000
0010
0100
,  // measure 53
0001
0010
0011
0000
1000
0010
0100
1000
,  // measure 54
0010
0100
1000
0000
0010
0100
0001
0010
,  // measure 55
0100
0001
0010
0000
0100
1000
0010
0100
,  // measure 56
1000
0010
0100
0000
0001
1000
0010
0100
,  // measure 57
0001
1000
1001
0000
0110
0000
0001
0010
,  // measure 58
0100
0000
1010
0000
0101
0000
1000
0100
,  // measure 59
0010
0000
0011
0000
0110
0000
1000
0001
,  // measure 60
0010
0000
0100
1000
0010
0100
0001
0010
,  // measure 61
0001
0010
0100
1000
0010
0000
0101
0000
,  // measure 62
0110
0000
1000
0001
0010
0000
1100
0000
,  // measure 63
0110
0000
0001
0010
0100
0000
1010
0000
,  // measure 64
0101
0000
1000
0010
0100
0001
0010
0100
,  // measure 65
1000
0001
1001
0000
0000
0000
0000
0000
;

//---------------dance-single - ----------------
#NOTES:
     dance-single:
     :
     Easy:
     4:
     0.367,0.386,0.335,0.163,0.000,241.000,39.000,19.000,0.000,0.000:  // measure 1
1000
0100
0000
0100
,  // measure 2
0010
0001
0000
0001
,  // measure 3
1000
0100
0000
0100
,  // measure 4
0010
0001
1000
0010
,  // measure 5
0100
1001
0001
0100
,  // measure 6
0010
1000
0010
0100
,  // measure 7
1001
0000
0001
0010
,  // measure 8
0100
1000
0010
0100
,  // measure 9
1001
0000
0001
0010
,  // measure 10
0100
0010
0001
0000
,  // measure 11
0100
0010
1000
0100
,  // measure 12
0020
0000
0031
1000
,  // measure 13
1100
1100
0001
0010
,  // measure 14
0011
0011
1000
0010
,  // measure 15
1010
1010
0001
0100
,  // measure 16
0101
0101
1000
0100
,  // measure 17
0010
1001
0001
1000
,  // measure 18
0100
1100
0001
0010
,  // measure 19
0100
0110
1000
0001
,  // measure 20
0010
0011
0011
0011
,  // measure 21
2000
0100
0000
3001
,  // measure 22
0002
0010
0000
0103
,  // measure 23
0200
0010
0000
0301
,  // measure 24
0002
0010
0000
1003
,  // measure 25
0100
1100
0000
0001
,  // measure 26
0010
0011
0000
1000
,  // measure 27
0001
1001
0000
0010
,  // measure 28
0100
0110
0110
1001
,  // measure 29
1001
2000
0100
0100
,  // measure 30
3100
0002
0100
0100
,  // measure 31
0103
2000
0010
0010
,  // measure 32
3010
0002
0010
0010
,  // measure 33
0013
0001
1000
0000
0100
0000
0010
0000
,  // measure 34
0000
0001
1000
0100
,  // measure 35
0010
0001
1000
1000
,  // measure 36
0100
0010
0010
0001
,  // measure 37
0001
0010
0100
0100
,  // measure 38
1000
0010
0100
0001
,  // measure 39
0001
0010
0100
0010
,  // measure 40
0001
0100
0100
0010
,  // measure 41
0010
2000
0100
0100
,  // measure 42
3100
0002
0100
0100
,  // measure 43
0103
2000
0010
0010
,  // measure 44
3010
0002
0010
0010
,  // measure 45
0013
2000
0100
0000
,  // measure 46
3001
0002
0100
0000
,  // measure 47
1003
2000
0010
0000
,  // measure 48
3001
0002
0010
1000
,  // measure 49
1003
0100
0110
0001
,  // measure 50
1000
0100
1100
0001
,  // measure 51
0100
0010
0110
1000
,  // measure 52
0001
0010
0011
0100
,  // measure 53
0110
1000
0001
0010
,  // measure 54
0100
1000
0010
0100
,  // measure 55
0001
0010
0100
1000
,  // measure 56
0010
0200
0301
0002
,  // measure 57
1003
0100
0110
0001
,  // measure 58
1000
0001
0110
0001
,  // measure 59
0010
0100
1001
0010
,  // measure 60
0100
0001
1001
1001
,  // measure 61
0110
1000
0001
0010
,  // measure 62
0110
1000
0100
0010
,  // measure 63
1001
0010
0100
0010
,  // measure 64
1001
0100
0100
0010
,  // measure 65
0010
1001
0000
0000
;

//---------------dance-single - ----------------
#NOTES:
     dance-single:
     :
     Challenge:
     11:
     1.000,1.000,0.232,0.670,1.000,952.000,27.000,78.000,0.000,0.000:  // measure 1
1001
0100
0010
0001
1000
0100
0010
0001
1000
0100
0010
0001
1000
0100
0100
0010
,  // measure 2
0001
0100
0010
1000
0001
0100
0010
1000
0001
0100
0010
1000
0100
0010
0010
0100
,  // measure 3
1000
0100
0010
0001
1000
0100
0010
0001
1000
0100
0010
0001
1000
0001
0010
0100
,  // measure 4
1000
0001
0100
0010
1000
0001
0100
0010
1000
0001
0100
0010
1000
0001
1000
0001
,  // measure 5
1001
0000
0000
0000
1000
0000
0000
1000
0200
0000
0300
0000
0100
0000
0000
0100
,  // measure 6
0020
0000
0030
0000
0010
0000
0000
0010
0001
0100
0001
0000
0100
0010
0100
0000
,  // measure 7
0020
0000
0030
0000
1000
0000
0001
0100
0001
0000
1000
0000
0100
0000
0010
0100
,  // measure 8
0010
0000
0000
0100
1000
0000
0000
1000
0001
0000
0000
0001
0100
0000
0010
1000
,  // measure 9
0101
0000
0100
0000
0010
0000
1000
0001
0010
0100
1000
0000
0100
0000
1000
0100
,  // measure 10
0010
0000
0001
0000
1000
0000
0010
0100
0001
1000
0010
0000
1000
0000
0001
0010
,  // measure 11
0100
0000
0010
0000
0100
0000
0001
0000
0100
0000
0010
0000
0001
0000
0100
0010
,  // measure 12
0100
0010
0100
0010
0100
0010
1000
0010
1000
0001
1000
0001
0100
0010
1000
0001
,  // measure 13
0110
2000
0000
3100
0020
0000
0130
0020
0000
0032
0000
1003
0020
0000
0230
0000
,  // measure 14
0301
0020
0000
0130
0002
0000
0103
0020
0000
0032
0000
0103
0020
0000
2030
0000
,  // measure 15
3001
0020
0000
0130
2000
0000
3100
0020
0000
0032
0000
0103
0020
0000
2030
0000
,  // measure 16
3001
0200
0000
0310
2000
0000
3001
0020
0000
0230
0000
0310
0200
0000
2300
3000
,  // measure 17
1001
0100
0010
1000
0001
0100
0010
1000
0001
0010
1000
0010
0001
1000
0010
0001
,  // measure 18
0010
1000
0100
0001
0100
1000
0001
0010
0100
0001
0100
0010
0001
0100
0010
0001
,  // measure 19
0010
1000
0100
0010
1000
0010
0100
1000
0010
0100
1000
0100
0010
1000
0001
1000
,  // measure 20
0001
1000
0010
0100
0010
0100
0001
0010
0100
0001
0100
0010
0001
1000
0100
0010
,  // measure 21
0101
2000
0000
3001
0200
0000
0310
2000
0000
3002
0000
0103
0020
0000
2030
0000
,  // measure 22
3001
0020
0000
0130
0002
0000
0103
0020
0000
0032
0000
0103
0020
0000
2030
0000
,  // measure 23
3001
0200
0000
0310
2000
0000
3001
0020
0000
2030
0000
3010
0002
0000
2003
0000
,  // measure 24
3010
0002
0000
0013
2000
0000
3100
0020
0000
0230
0000
1300
0002
0000
0203
0300
,  // measure 25
0110
1000
0001
0100
0010
1000
0001
0010
1000
0010
0100
0001
0100
0010
0100
0001
,  // measure 26
0100
0010
0100
0010
0001
0100
0010
0100
0010
1000
0100
0010
0100
1000
0100
0010
,  // measure 27
0001
1000
0010
0100
0001
1000
0010
0100
0001
0010
1000
0010
0001
1000
0010
0001
,  // measure 28
0010
1000
0100
0001
0100
1000
0001
0100
1000
0100
0001
1000
0001
0010
0100
1000
,  // measure 29
0200
0000
0000
0000
0000
0000
0000
0000
1300
0100
0010
0001
1000
0100
0001
0100
1000
0010
0001
0010
1000
0100
0010
0100
1000
0001
0100
0010
0100
0001
0010
1000
,  // measure 30
0010
0001
1000
0010
0001
0010
1000
0100
0001
0100
1000
0001
0010
1000
0010
0001
1000
0100
0001
0100
1000
0001
0010
0100
0001
0100
0010
0001
0100
0010
0001
0010
,  // measure 31
1000
0100
0010
1000
0010
0100
1000
0010
0100
1000
0100
0010
1000
0100
0010
0100
1000
0001
0100
1000
0100
0001
1000
0100
0001
0100
1000
0001
0010
1000
0010
0001
,  // measure 32
1000
0010
0001
0010
1000
0001
0100
0010
0100
0001
0010
0100
0001
0100
0010
0001
0100
0010
1000
0100
0010
1000
0010
0100
1000
0010
0100
0001
0010
0100
1000
0001
,  // measure 33
0010
0100
1000
0100
0010
0001
1000
0100
0011
0000
0000
0000
0001
0000
0000
0000
0011
0000
0000
0000
0010
0000
0100
0000
0010
0000
0000
0000
0100
0000
0000
0000
,  // measure 34
1100
0000
1000
0100
0010
0000
0001
0000
0101
0000
0100
0010
1000
0001
0010
0000
,  // measure 35
0110
0000
0010
0001
0100
0010
1000
0000
0101
0000
0100
0010
0000
1000
0001
0000
,  // measure 36
0110
0000
0010
0100
0001
0100
0010
0000
0011
0000
0010
0001
0000
0001
0100
0000
,  // measure 37
0110
0000
1000
0000
1001
0100
0010
1000
0100
0010
0001
1000
0001
0010
0100
1000
,  // measure 38
0001
1000
0010
1000
1001
0100
0010
1000
0001
0010
0100
1000
0001
0100
1000
0100
,  // measure 39
0010
0001
1000
0001
1001
0001
0010
0100
1000
0100
0010
0100
0110
0010
0001
0100
,  // measure 40
0010
0000
1000
0000
0001
0000
1000
0000
0100
0000
0010
0000
0001
0000
0010
0000
0100
0000
1000
0000
0001
0000
0010
0000
0100
1000
0100
0000
0001
0010
0001
0000
,  // measure 41
0100
1000
0100
0000
0010
0001
0010
0000
1001
0000
1000
0000
0100
0000
0001
0000
0100
0000
1000
0000
0010
0000
0001
0000
0010
0000
1000
0000
0001
0000
0100
0000
,  // measure 42
1000
0100
0001
0010
1000
0010
0001
1000
0010
0001
0010
1000
0100
0010
0001
0100
,  // measure 43
0010
1000
0100
0010
0001
0100
0010
1000
0100
0010
0001
1000
0010
0100
0001
0010
,  // measure 44
0100
0001
0100
0010
0001
0100
0010
0001
0010
1000
0100
0010
1000
0010
0100
1000
,  // measure 45
0010
0100
0001
1000
0011
0100
0001
0010
0100
1000
0001
0010
0100
1000
0100
0010
,  // measure 46
0001
1000
0100
0010
0001
1000
0010
0100
0001
1000
0010
0100
0001
0010
0100
0001
,  // measure 47
0100
0010
0001
0100
0010
0001
0010
1000
0100
0010
1000
0010
0100
1000
0010
0100
,  // measure 48
1000
0100
0010
1000
0001
0100
0010
1000
0001
0010
0100
1000
0100
0010
0100
0010
,  // measure 49
0100
0010
0001
0100
1010
0002
0000
0103
0020
0000
1030
0002
0000
0203
0000
0310
,  // measure 50
2000
0000
3002
0000
0013
0200
0000
0301
0200
0000
0310
0002
0000
0203
0000
0310
,  // measure 51
2000
0000
3002
0000
0013
2000
0000
3010
0002
0000
1003
0020
0000
0032
0000
0013
,  // measure 52
2000
0000
3200
0000
0310
0002
0000
0103
0020
0000
1030
0002
0000
0203
0000
0310
,  // measure 53
2000
0000
3002
0003
1010
0100
0001
0100
0010
0001
0100
0010
0001
0010
1000
0100
,  // measure 54
0010
0100
1000
0001
0100
0010
1000
0001
0010
1000
0010
0001
1000
0010
0001
0010
,  // measure 55
1000
0100
0010
0001
0100
0010
1000
0001
0010
0100
0001
0100
0010
0001
0100
0010
,  // measure 56
0001
0010
1000
0100
0010
1000
0010
0100
1000
0100
0010
0100
1000
0001
0100
0010
,  // measure 57
0100
0001
0100
0010
1001
0100
0010
0100
0010
0100
0010
0001
0100
0010
1000
0100
,  // measure 58
0010
0001
0100
0010
1000
0001
0010
0100
1000
0001
0010
0100
1000
0010
0100
0001
,  // measure 59
0010
0100
1000
0010
0100
0001
0010
0100
0010
0100
0010
0001
1000
0010
0100
0001
,  // measure 60
1000
0010
0100
0001
0010
0100
1000
0100
0010
0100
1000
0001
0100
0010
1000
0001
,  // measure 61
0100
0010
1000
0001
1001
0010
0100
0010
1000
0100
0010
0100
1000
0001
0100
0010
,  // measure 62
0100
0001
0010
0100
1000
0001
0100
0010
0100
0001
0010
0100
0001
0100
0010
0001
,  // measure 63
1000
0010
0100
0010
1000
0001
0010
0100
0010
0001
1000
0100
0010
0100
1000
0001
,  // measure 64
0100
0010
0100
0001
0010
0100
1000
0001
0010
0100
1000
0100
0010
0001
1000
0100
,  // measure 65
0001
1000
0010
0001
2002
0000
0000
0000
0000
0000
0000
0000
0000
0000
0000
0000
,  // measure 66
3003
0000
0000
0000
;

//---------------dance-single - ----------------
#NOTES:
     dance-single:
     :
     Medium:
     6:
     0.410,0.414,0.258,0.000,0.000,304.000,30.000,0.000,0.000,0.000:  // measure 1
1000
0010
1000
0010
,  // measure 2
0100
0001
0100
0001
,  // measure 3
1000
0010
0100
0001
,  // measure 4
0010
0010
0010
0010
,  // measure 5
0100
1100
0001
0010
,  // measure 6
0100
0000
1001
0000
1000
0000
0010
0100
,  // measure 7
0001
0010
0100
1000
,  // measure 8
0101
1010
0101
1010
,  // measure 9
0100
0000
0001
1000
0100
0000
0010
0000
,  // measure 10
0001
0000
0100
0010
1000
0000
0100
0010
,  // measure 11
0001
0100
0010
1000
,  // measure 12
0110
0001
0110
1000
,  // measure 13
0001
0010
0001
0010
0001
0010
0001
0000
,  // measure 14
1000
0010
1000
0010
1000
0010
1000
0000
,  // measure 15
0001
0100
0001
0100
0001
0100
0001
0000
,  // measure 16
1000
0010
1000
0010
1000
0010
1000
0000
,  // measure 17
0001
0100
0001
0000
0100
0001
0100
0000
,  // measure 18
0010
1000
0010
0000
1000
0010
1000
0000
,  // measure 19
0100
0010
0100
0000
0010
0100
0010
0000
,  // measure 20
0001
1000
0001
1000
0001
1000
0001
1000
,  // measure 21
0100
0011
0011
1000
,  // measure 22
0010
0000
0100
0000
0001
1000
0001
0000
,  // measure 23
0100
0010
1100
0011
,  // measure 24
1000
0000
0010
0000
0100
0001
0100
0000
,  // measure 25
0010
1100
0010
0101
,  // measure 26
0010
1100
1100
0001
,  // measure 27
1000
0010
0100
0000
0001
1000
0010
0000
,  // measure 28
0100
0001
0100
0001
0100
0001
0100
0000
,  // measure 29
1001
1000
0100
0010
,  // measure 30
0001
0100
0010
1000
,  // measure 31
0001
0100
0010
1000
,  // measure 32
0001
0100
0100
0010
,  // measure 33
0010
1000
0100
0000
0010
0000
0001
0000
,  // measure 34
0100
0010
1000
0100
,  // measure 35
0010
0001
1000
0001
,  // measure 36
1000
0100
0100
0100
,  // measure 37
0100
0010
0001
0100
,  // measure 38
0010
1000
0001
1000
,  // measure 39
0010
0100
0001
0100
,  // measure 40
0001
1000
0010
1000
,  // measure 41
0010
0100
0011
1000
,  // measure 42
1000
0010
0101
0010
,  // measure 43
0010
0100
1010
0001
,  // measure 44
0001
1000
0010
1000
,  // measure 45
0010
0100
0011
1000
,  // measure 46
1000
0001
0110
1000
,  // measure 47
1000
0010
0101
0010
,  // measure 48
0010
1000
0001
1000
,  // measure 49
0001
0110
0110
1000
,  // measure 50
0001
0110
1000
0001
,  // measure 51
1000
0010
0011
1000
,  // measure 52
0100
0010
0001
0100
,  // measure 53
0010
1001
1000
0010
,  // measure 54
1000
0001
0100
0001
,  // measure 55
0010
0010
0100
1000
,  // measure 56
0010
0100
0100
0001
,  // measure 57
0001
1000
1100
0010
,  // measure 58
0100
0001
0010
0100
,  // measure 59
1000
0010
0100
0001
,  // measure 60
1000
0010
0100
0001
,  // measure 61
1000
0000
0010
0100
0010
0100
0010
0100
,  // measure 62
0010
0000
1000
0001
1000
0001
1000
0001
,  // measure 63
1000
0000
0100
0010
0100
0010
0100
0010
,  // measure 64
0100
0000
1000
0010
1000
0010
0100
0001
,  // measure 65
0100
1010
0000
0000
;
