#TITLE:Laguna Battle;
#SUBTITLE:(FF8 Orchestra version);
#ARTIST:植松伸夫;
#TITLETRANSLIT:;
#SUBTITLETRANSLIT:;
#ARTISTTRANSLIT:Nobuo Uematsu;
#CREDIT:;
#BANNER:banner.jpg;
#BACKGROUND:temp-bg.jpg;
#LYRICSPATH:;
#CDTITLE:;
#MUSIC:332- 330 Unknown Artist - Untitled short.mp3;
#OFFSET:-0.440;
#SAMPLESTART:7.420;
#SAMPLELENGTH:12.000;
#SELECTABLE:YES;
#BPMS:0.000=136.000;
#STOPS:;
#BGCHANGES:;
// cache tags:
#FIRSTBEAT:16.000;
#LASTBEAT:236.000;
#SONGFILENAME:Songs/mike songs/ff8 laguna orchestra/fallinlove.sm;
#HASMUSIC:1;
#HASBANNER:1;
#MUSICLENGTH:108.703;
// end cache tags

//---------------dance-single - ----------------
#NOTES:
     dance-single:
     :
     Hard:
     9:
     0.605,0.678,0.212,0.092,0.511,427.000,23.000,10.000,0.000,0.000:
0000
0000
0000
0000
,
0000
0000
0000
0000
,
0000
0000
0000
0000
,
0000
0000
0000
0000
,
0100
0000
1000
0000
0100
0000
0010
0001
0000
0001
0000
1000
0010
0000
0000
0000
,
0100
0000
0010
0000
1000
0000
0100
0010
0000
0010
0000
0001
1000
0000
0000
0000
,
0001
0000
0100
0000
0010
0000
1000
0100
0000
0100
0000
0010
0001
0000
0000
0000
,
0001
0000
0010
0000
1000
0000
0010
0001
0000
0001
0000
0100
0010
0000
0000
0000
,
2000
0100
0001
3010
,
0200
0000
0000
0000
0310
0000
1000
0010
1000
0000
0000
0000
0001
0000
1000
0001
,
2000
0000
0100
0000
0010
0001
3001
0000
,
0002
0000
0100
0000
1000
0010
0013
0000
,
1000
0000
0100
0000
0001
0000
0100
0000
1000
0000
0100
0000
0010
0000
0100
1000
,
0001
0000
0100
0000
0010
0000
0100
0000
1000
0000
0100
0000
0001
0000
0100
0010
,
1000
0000
0100
0000
0010
0000
0100
0000
0001
0000
0100
0000
1000
0000
0100
0010
,
0001
0000
0100
0000
0010
0000
0100
0000
1000
0000
0100
0000
0001
0000
0100
0010
,
0100
0000
0001
0100
0000
0000
0010
0000
1001
0000
1000
0100
0000
0000
0010
0000
,
0011
0000
1000
0010
0000
0000
0100
0000
0101
0000
0001
0000
0010
0000
0100
0000
,
1200
0010
0001
0010
,
1000
0000
0001
0000
1000
1000
1300
0000
,
0010
0000
0001
0000
1000
0000
0100
0010
0000
0010
0000
0100
1000
0000
0001
0010
,
0001
0000
0100
0000
0010
0000
1000
0100
0000
0100
0000
0010
0001
0000
1000
0100
,
1000
0000
0010
0000
0100
0000
0010
0001
0000
0001
0000
0010
1000
0000
0010
0100
,
0001
0000
1000
0000
0100
0000
0100
1000
0000
1000
0000
0001
0100
0000
0010
1000
,
0001
0000
0101
1000
0100
0010
0001
0000
,
1000
0000
0110
0001
0100
0010
1000
0000
,
0001
0100
0000
0000
1100
0000
0000
0000
0001
0100
0000
0000
1100
0000
0000
0000
,
1000
0010
0000
0000
0011
0000
0000
0000
1000
0010
0000
0000
1000
0001
1000
0010
,
0100
0000
0001
0010
1000
0010
0100
0001
,
0100
1000
0001
1000
0010
0001
0000
0010
,
0100
0001
1000
1000
0100
0100
0010
0010
,
0001
0001
1000
0100
1100
1001
0101
1001
,
2000
0000
0000
0000
,
0002
0000
0000
0000
0000
0000
0000
0000
0000
0000
0000
0000
3003
0000
0100
0010
,
0100
0000
0001
0000
0010
0000
0100
1000
0000
0001
0010
0000
0100
0000
0000
0000
,
1000
0000
0100
0000
0010
0000
0001
1000
0000
0100
0010
0000
0001
0000
0000
0000
,
1000
0000
1000
0100
1000
0000
0100
0010
0000
0010
0000
0001
1000
0000
0010
0000
,
0010
0000
0100
0001
0100
0000
0001
0010
0000
0010
0000
0100
1000
0000
1000
0010
,
0100
0000
0010
0000
1000
0000
0100
0010
0000
0100
0000
0100
0010
0000
0001
0000
,
1000
0000
0010
0000
0100
0000
0001
1000
0000
0100
0000
1000
0010
0000
0100
0000
,
0001
0000
1000
0010
0100
0000
0001
0100
0000
1000
0000
0100
0010
0000
1000
0000
,
0100
0000
0010
0100
1000
0000
0100
0001
0000
0100
0000
0010
0001
0000
0001
0100
,
0010
0000
1000
0000
0010
0000
0100
0010
0000
0001
0000
0010
1000
0000
0001
0000
,
1000
0000
0100
0000
0010
0000
0001
0100
0000
0010
0000
1000
0100
0000
0010
0001
,
0100
0000
0000
0000
0010
0000
1000
0000
0000
0100
0000
0000
0010
0000
0000
0000
0001
0000
0100
0000
0000
0001
0000
0000
,
1000
0000
0000
0000
0000
0000
0000
0000
0100
0000
0000
0000
0010
0000
0000
0000
0000
0000
0010
0000
0000
0000
0000
0000
0001
0000
0000
1000
0000
0000
0010
0000
0000
0100
0000
0000
0000
0000
0000
0000
0000
0000
0010
0000
0000
0000
0000
0000
,
2000
0100
0001
0010
0000
0000
3100
0000
,
1010
0000
0000
0000
0011
0000
0000
0000
0101
0000
0000
0000
1100
0000
1000
0100
,
0001
0000
0000
0000
0100
0000
0010
0000
0000
0001
0000
0000
1000
0000
0000
0000
0010
0000
0100
0000
0000
0100
0000
0000
,
0001
0000
0000
0000
0000
0000
0000
0000
0100
0000
0000
0000
0000
0000
0000
0000
1000
0000
0000
0000
0000
0000
0000
0000
0100
0000
0000
0010
0000
0000
1000
0000
0000
0001
0000
0000
0000
0000
0000
0000
0010
0000
0000
0000
0000
0000
0000
0000
,
0110
0000
0100
1000
0001
0000
1000
0000
0000
0000
1000
0000
0101
0000
0000
0000
,
1001
0000
0100
0010
0100
0000
0001
0000
0000
0000
0100
0000
1010
0000
0000
0000
,
1100
0000
0000
0000
0100
0000
1000
0100
1000
0000
0100
0010
0100
0000
0010
0001
,
0010
0000
0001
1000
0100
0000
1000
0010
0100
0000
0001
0010
0100
1000
0001
0100
,
0010
0000
1000
0000
0001
0000
1000
0100
0000
0001
0100
0000
0010
0000
0000
0000
,
1000
0000
0001
0000
0100
0000
0001
0010
0000
1000
0010
0000
0100
0000
1000
0100
,
1000
0000
0001
0000
1000
0000
0001
0010
0000
0010
0001
0000
0010
0000
0000
0000
,
1000
0000
0100
0000
1000
0000
0001
0100
0000
0100
0010
0000
1000
0000
0000
0000
,
0000
2002
0000
0000
0000
0000
0000
0000
,
3003
0000
0000
0000
;

//---------------dance-single - Copied from----------------
#NOTES:
     dance-single:
     Copied from:
     Easy:
     5:
     0.290,0.407,0.331,0.175,0.000,166.000,36.000,19.000,0.000,0.000:
0000
0000
0000
0000
,
0000
0000
0000
0000
,
0000
0000
0000
0000
,
0000
0000
0000
0000
,
0010
1000
0001
1000
,
0010
0100
0001
0100
,
0010
1000
0010
0100
,
0001
0010
0001
0100
,
0010
1010
0000
0100
,
1000
0100
0010
0001
,
1000
1001
0000
0001
,
0100
1000
0100
0101
,
1000
0100
0001
0100
,
1000
0010
0001
0010
,
1000
0100
0001
0100
,
1000
0010
0001
0010
,
1001
0000
0110
0000
,
0101
0000
1010
0000
,
0001
0010
1000
1000
,
0001
0100
1000
1000
,
0010
1001
0000
1000
,
0001
0100
0000
0001
,
1000
0101
0000
1000
,
0001
0010
0000
0010
,
0001
1100
1000
0011
,
0001
1010
0010
0101
,
0001
1010
0001
1010
,
1000
0011
1000
0011
,
0100
0100
0001
0001
,
1000
1000
0010
0010
,
0001
1000
0010
0100
,
0001
1001
1010
0110
,
2002
0000
0000
0000
,
0000
0000
0000
3003
,
0220
0000
0000
0000
,
0000
0000
0000
0330
,
1000
0100
0010
0001
,
1000
0010
0100
0001
,
1000
1100
0010
0001
,
1000
1100
0010
0001
,
1000
0100
0001
0010
,
1000
0100
0001
0010
,
1000
0101
0001
1000
,
0010
0101
0001
1000
,
0020
0000
2030
0000
,
3002
0000
0203
0000
,
0320
0000
0000
0030
,
0001
0100
0010
1000
,
0200
0000
0320
0000
,
0032
0000
2003
0000
,
3001
0000
0000
0011
0000
0000
0001
0000
,
0100
0000
0000
0110
0000
0000
0010
0000
,
1010
0010
0100
0001
,
1100
1100
1100
1100
,
2200
0000
0000
0000
,
0000
0000
0000
3300
,
0022
0000
0000
0000
,
0000
0000
0000
0033
,
0000
0022
0000
0000
0000
0000
0000
0000
,
0033
0000
0000
0000
;

//---------------dance-single - ----------------
#NOTES:
     dance-single:
     :
     Medium:
     7:
     0.449,0.461,0.221,0.046,0.064,313.000,24.000,5.000,0.000,0.000:
0000
0000
0000
0000
,
0000
0000
0000
0000
,
0000
0000
0000
0000
,
0000
0000
0000
0000
,
1000
0100
0010
0100
1000
0001
1000
0000
,
0001
0100
0010
0100
0001
1000
0100
0000
,
1000
0100
0010
0001
0010
0100
1000
0000
,
0001
0100
0010
1000
0001
0100
0010
0000
,
1000
0100
1000
0000
0010
0100
0010
0000
,
1000
0001
1000
0000
0001
0100
0001
0000
,
1000
0100
0010
0000
0001
0100
0010
0000
,
1000
0100
0010
0000
0001
0100
0010
0000
,
1000
0100
0010
0001
1000
0010
0100
0000
,
0001
0010
0100
1000
0001
0100
0010
0000
,
1000
0001
0010
0100
0010
0001
1000
0000
,
0001
1000
0010
0100
0010
1000
0001
0000
,
1000
0000
0000
0100
0000
0000
1000
0000
0001
0000
0000
0100
0000
0000
0001
0000
,
1000
0000
0000
0010
0000
0000
0100
0000
0001
0000
0000
0000
1000
0000
0001
0000
,
0200
0010
0000
0010
,
0001
0000
0001
0300
,
1001
0000
1000
0010
0100
0001
0010
0000
,
1001
0000
0010
1000
0100
0010
0001
0000
,
0101
0000
1000
0100
1000
0010
0100
0000
,
0011
0000
0001
0100
1000
0100
0001
0000
,
0100
0010
1000
0100
0000
0001
0100
0000
,
1000
0000
0100
0000
0001
0000
0000
0000
0100
0000
0000
1000
0000
0000
0001
0000
,
0001
1000
0000
0100
1000
0100
0010
0000
,
0001
0100
0001
0010
0000
1000
0010
0000
,
0001
0000
0000
0011
0000
1001
0000
0110
,
0000
0100
0010
1000
0010
0001
0000
1010
,
0000
1000
0100
0010
0001
0001
0000
0000
,
0000
0000
0011
0000
1100
1100
1100
1100
,
2000
0000
0000
0000
,
0002
0000
0000
3003
,
0010
0000
1000
0000
0100
0001
0010
0000
,
1000
0000
0100
0000
0001
0100
1000
0000
,
0001
0010
0100
1000
0001
0010
0100
1000
,
0001
0100
0010
1000
0001
0100
0010
1000
,
0001
0010
0100
0010
0001
1000
0100
1000
,
0001
0010
0001
1000
0100
1000
0010
0000
,
1000
0100
0010
0001
1000
0010
0100
0001
,
1000
0100
0001
0100
1000
0100
0010
0001
,
1000
0100
1000
0010
1000
0001
0100
0010
,
1000
0001
0100
1000
0100
0010
1000
0000
,
0000
0001
1000
0100
0010
0000
0001
0000
,
1000
0000
0000
0100
0000
0000
1000
0000
0010
0000
0001
0000
,
0000
0100
1000
0100
0000
0000
1000
0000
,
1100
1010
0101
0011
,
0001
0000
0010
0000
0100
0000
1000
0000
0010
0000
0100
0000
,
0001
0000
0010
0000
0001
0000
1000
0000
0100
0000
1000
0000
,
0000
0010
0100
0001
0000
1000
0100
0010
,
0000
0100
1000
0001
0000
0100
1000
0000
,
0100
0000
0000
1001
0000
0010
1010
0000
,
0011
0101
1100
1010
,
1000
0100
0010
0000
1000
0100
0010
0000
,
0001
0100
0010
0000
0001
0100
0010
0000
,
1000
0100
0001
0000
0001
0100
1000
0000
,
1000
0010
0001
0000
0001
0010
1000
0000
,
0000
2002
0000
0000
0000
0000
0000
0000
,
3003
0000
0000
0000
;

//---------------dance-single - ----------------
#NOTES:
     dance-single:
     :
     Beginner:
     1:
     0.095,0.129,0.046,0.000,0.000,67.000,5.000,0.000,0.000,0.000:
0000
0000
0000
0000
,
0000
0000
0000
0000
,
0000
0000
0000
0000
,
0000
0000
0000
0000
,
1000
0000
0000
0000
,
0001
0000
0000
0000
,
1000
0000
0000
0000
,
0001
0000
0000
0000
,
0100
0000
0100
0000
,
0100
0000
0000
0000
,
0010
0000
0010
0000
,
0010
0000
0000
0000
,
1000
0000
0000
0000
,
0100
0000
0000
0000
,
1000
0000
0000
0000
,
0001
0000
0000
0000
,
0010
0000
0010
0000
,
0001
0000
0001
0000
,
1000
0000
0000
0000
,
0100
0000
0000
0000
,
1000
0000
0000
0010
,
0010
0000
0000
0000
,
0001
0000
0000
0100
,
0100
0000
0000
0000
,
1001
0000
0000
0000
,
0001
0000
1000
0000
,
0001
0000
0000
0000
,
1000
0000
0010
0000
,
1000
0000
0000
0000
,
0001
0000
0000
0000
,
0100
0000
0000
0000
,
0000
1000
0000
1000
,
1000
0000
0000
0000
,
0000
0000
0000
0000
,
1001
0000
0000
0000
,
0000
0000
0000
0000
,
0001
0000
0000
0001
,
0000
0000
1000
0000
,
0100
0000
0000
0100
,
0000
0000
1000
0000
,
0010
0000
0000
0010
,
0000
0000
0100
0000
,
0001
0000
0000
0001
,
0000
0000
1000
0000
,
0100
0000
0000
0000
,
0010
0000
0000
0000
,
0100
0000
0000
0000
,
0001
0001
0001
0000
,
1000
0000
0000
0000
,
0010
0000
0000
0000
,
0001
0000
0000
1000
,
1000
0000
0000
0100
,
0100
0000
0000
0000
,
0110
0000
0110
0000
,
0000
0000
0000
0000
,
0000
0000
0000
0000
,
0110
0000
0000
0000
;

//---------------dance-double - ----------------
#NOTES:
     dance-double:
     :
     Hard:
     8:
     0.509,0.516,0.267,0.046,0.285,353.000,29.000,5.000,0.000,0.000:
00000000
00000000
00000000
00000000
,
00000000
00000000
00000000
00000000
,
00000000
00000000
00000000
00000000
,
00000000
00000000
00000000
00000000
,
00010000
00000000
10000000
00000000
01000000
00000000
00100000
00000000
00010000
00000000
00000000
00100000
00001000
00000000
00000000
00000000
,
00010000
00000000
00001000
00000000
00000100
00000000
00000010
00000000
00001000
00000000
00000000
00001000
00000001
00000000
00000000
00000000
,
00001000
00000000
00000010
00000000
00010000
00000000
00001000
00000000
01000000
00000000
00000000
00010000
00100000
00000000
00000000
00000000
,
10000000
00000000
01000000
00000000
00010000
00000000
01000000
00000000
10000000
00000000
00000000
01000000
00010000
00000000
00000000
00000000
,
00000100
00001000
00000001
00000100
00000010
00001000
00000001
00000000
,
00010000
00001000
00010000
01000000
00010000
00001000
00100000
00000000
,
00010000
10000000
01000000
00010000
01000000
00100000
00001000
00000000
,
00010000
00001000
00000100
00000001
00000010
00001000
00000010
00000000
,
00000001
00000010
00000000
00000000
00000100
00000000
00001000
00000000
00000100
00010000
00000000
00000000
00011000
00000000
00000000
00000000
,
01000000
00010000
00000000
00000000
00010000
00000000
00100000
00000000
10000000
00100000
00000000
00000000
01100000
00000000
00000000
00000000
,
00010000
00100000
00000000
00000000
01000000
00000000
10000000
00000000
01000000
00010000
00000000
00000000
00011000
00000000
00000000
00000000
,
00001000
00000100
00000000
00000000
00000001
00000000
00000100
00000000
00000010
00001000
00000000
00000000
00001001
00000000
00000000
00000000
,
00000001
00000000
00000000
00000010
00000000
00000000
00001000
00000000
00010000
00000000
00000000
00100000
00000000
00000000
10000000
00000000
,
10000000
00000000
00000000
01000000
00000000
00000000
00010000
00000000
00001000
00000000
00000000
00000000
00000100
00000000
00000001
00000000
,
00001001
00000000
00000010
00000100
00001000
00000000
00011000
00000000
,
01010000
00000000
00100000
10000000
01000000
00000000
00110000
00000000
,
10000000
00000000
01000000
00000000
00100000
00000000
00001000
00100000
00000000
00000000
00000000
00000010
00010000
00000000
00000000
00000000
,
00001000
00000000
00010000
00000000
00000100
00000000
00000010
00000100
00000000
00000000
00000000
00010000
00001000
00000000
00000000
00000000
,
00000010
00000000
00000001
00000000
00001000
00000000
00000100
00010000
00000000
00000000
00000000
00001000
00000010
00000000
00000000
00000000
,
00000100
00000000
00010000
00000000
00001000
00000000
00001000
00010000
00000000
00000000
00000000
00010000
10000000
00000000
00000000
00000000
,
10000000
01000000
10000000
01000000
00010000
01000000
00010000
01000000
,
00010000
00001000
00010000
00001000
00000100
00001000
00000100
00000000
,
00000001
00000010
00000100
00010000
00001000
00100000
01000000
00000000
,
10000000
01000000
00010000
00001000
00100000
01000000
00010000
00000000
,
00011000
00000000
00000000
00001001
00000000
00011000
00000000
10010000
,
00000000
10000000
01000000
00010000
00001000
00100000
00000000
00010100
,
00000000
00000100
00001000
00000010
00001000
00000001
00000010
00001000
,
00010000
00000000
00101000
00000000
00110000
00010000
10010000
10000000
,
10200000
00000000
00000000
00000000
,
02000000
00000000
00000000
03300000
,
10000000
01000000
00010000
00000000
00001000
00000010
00000001
00000000
,
00000001
00000100
00001000
00000000
00010000
00100000
10000000
00000000
,
10000000
01000000
00100000
00010000
01000000
00100000
10000000
00000000
,
00010000
01000000
00001000
00010000
00000100
00001000
00000001
00000000
,
00001000
00000000
00000100
00000000
00001000
00000000
00000001
00000100
00000000
00000010
00000000
00001000
00000100
00000000
00010000
00000000
,
00000010
00000000
00001000
00000000
00000100
00000000
00010000
00001000
00000000
00010000
00000000
00001000
01000000
00000000
00010000
00000000
,
10000000
00100000
01000000
00001000
00010000
00000010
00000100
00000000
,
00000001
00000100
00000010
00010000
00001000
01000000
00100000
00000000
,
10000000
00000000
01000000
00000000
00100000
00000000
00010000
00100000
00000000
01000000
00000000
10000000
01000000
00000000
00100000
00000000
,
00010000
00000000
01000000
00000000
00010000
00000000
00100000
00001000
00000000
00010000
00000000
00000010
00001000
00000000
00000010
00000000
,
00000100
00000000
00000001
00000000
00001000
00000000
00000010
00000000
00000100
00000000
00001000
00000000
,
00010000
00000000
00001000
00000000
00100000
00000000
01000000
00000000
00010000
00000000
00001000
00000000
,
02000000
00100000
00000000
13000000
,
11000000
01100000
01010000
00011000
,
00001000
00000000
00000010
00000000
00001000
00000000
00010000
00000000
00100000
00000000
00010000
00000000
,
00001000
00000000
00010000
00000000
01000000
00000000
10000000
00000000
01000000
00000000
00010000
00000000
,
00001000
00000000
00010000
00001000
00010000
00000000
00001000
00000000
00000000
00000000
00010000
00000000
00010100
00000000
00000000
00000000
,
00001000
00000000
00000100
00010000
00001000
00000000
00010000
00000000
00000000
00000000
00001000
00000000
01001000
00000000
00000000
00000000
,
00010000
00000000
00100000
00001000
00100000
00000000
00010000
00000000
00000000
00000000
01000000
00000000
01100000
00000000
00000000
00000000
,
10010000
00101000
00010100
00001001
,
00000010
00000000
00001000
00000000
00000001
00000000
00000100
00000001
00000000
00000001
00001000
00000000
00000100
00000000
00000000
00000000
,
00001000
00000000
00000010
00000000
00010000
00000000
00001000
00010000
00000000
00010000
00001000
00000000
00100000
00000000
00000000
00000000
,
00010000
00000000
10000000
00000000
01000000
00000000
00100000
00010000
00000000
00100000
01000000
00000000
00100000
00000000
00000000
00000000
,
00010000
00000000
00100000
00000000
00001000
00000000
00010000
00001000
00000000
01000000
00010000
00000000
10000000
00000000
00000000
00000000
,
00000000
20020000
00000000
00000000
00000000
00000000
00000000
00000000
,
30030000
00000000
00000000
00000000
;

//---------------dance-double - ----------------
#NOTES:
     dance-double:
     :
     Medium:
     5:
     0.309,0.353,0.156,0.092,0.000,208.000,17.000,10.000,0.000,0.000:
00000000
00000000
00000000
00000000
,
00000000
00000000
00000000
00000000
,
00000000
00000000
00000000
00000000
,
00000000
00000000
00000000
00000000
,
00100000
00000000
10000000
01000000
10000000
00000000
00010000
00000000
,
00100000
00000000
00001000
00010000
00001000
00000000
00010000
00000000
,
00000100
00000000
00001000
00000100
00001000
00000000
00000001
00000000
,
00001000
00000000
00000010
00000100
00000010
00000000
00001000
00000000
,
00000100
00010000
00000000
00001000
,
01000000
00010000
00100000
00010000
,
10000000
00010000
00000000
01000000
,
00010000
10000000
10010000
00000000
,
10000000
00000000
01000000
00000000
10000000
01000000
00100000
00000000
,
00001000
00000000
00010000
00000000
00001000
00010000
00000010
00000000
,
00001000
00000000
00000001
00000000
00001000
00000010
00000100
00000000
,
00000001
00000000
00000100
00000000
00001000
00000100
00000001
00000000
,
00001000
00001100
00010000
00011000
,
00100000
00110000
10000000
10000000
,
10010000
01100000
00000000
01010000
,
00001000
00000000
00010000
00000000
00000100
00010000
00000100
00000000
,
00000010
00000000
00000001
00000100
00000000
00000010
00001000
00000000
,
00000010
00000000
00001000
00000100
00000000
00000100
00010000
00000000
,
00001000
00000000
00100000
00010000
00000000
00100000
01000000
00000000
,
00010000
00000000
10000000
01000000
00000000
00100000
00010000
00000000
,
00100000
00011000
00010000
00001100
,
00000100
00000011
00000001
00001010
,
00000100
00000000
00000000
00001000
00010000
00000000
00001000
00000000
,
00100000
00010000
00100000
00000000
00100000
00001000
00100000
00000000
,
00010000
00000000
00000000
00010000
00000000
00100000
00000000
01000000
,
00000000
10000000
01000000
10000000
01000000
00100000
00000000
00010000
,
00000000
00100000
00010000
00100000
00010000
00010000
00000000
00000000
,
00000000
00000000
00010000
00000000
00010000
00100000
01000000
10000000
,
02000000
00000000
00000000
00000000
,
00200000
00000000
00000000
03300000
,
00002000
00000000
00000000
00000000
,
00020000
00000000
00000000
00033000
,
00001000
00000010
00000100
00000010
,
00000001
00001000
00000100
00001000
,
00000001
00000100
00001000
00010000
,
00001000
00010000
01000000
10000000
,
00010000
01000000
00010000
00100000
,
01000000
00010000
00001000
00100000
,
00001000
00010000
00000010
00000100
,
00000001
00000010
00001000
00000010
,
00000001
00000000
00000001
00001000
00000100
00000000
00000000
00010000
,
00001000
00000000
00000000
00100000
00010000
00000000
00000000
10000000
,
00000000
10000000
00100000
01000000
00000000
00000000
00010000
00000000
,
00011000
00001000
00011000
00010000
,
00000001
00000000
00000010
00000100
00001000
00000000
00000010
00000000
,
00001000
00000000
00000100
00000000
,
00000110
00000000
00000000
00000001
00000000
00001000
00000001
00000000
,
00010000
00000000
00000000
00001000
00000000
00100000
01000000
00000000
,
10000000
00000000
00000000
00100000
00000000
00010000
00001000
00000000
,
00000010
00001010
00000001
00000101
,
00000200
00000000
00000000
00000000
,
00002000
00000000
00000000
00003300
,
00020000
00000000
00000000
00000000
,
00002000
00000000
00000000
00033000
,
00000000
00220000
00000000
00000000
00000000
00000000
00000000
00000000
,
00330000
00000000
00000000
00000000
;

//---------------dance-double - ----------------
#NOTES:
     dance-double:
     :
     Easy:
     1:
     0.113,0.190,0.009,0.083,0.000,76.000,1.000,9.000,0.000,0.000:
00000000
00000000
00000000
00000000
,
00000000
00000000
00000000
00000000
,
00000000
00000000
00000000
00000000
,
00000000
00000000
00000000
00000000
,
10000000
00000000
00000000
00000000
,
00010000
00000000
00000000
00000000
,
00100000
00000000
00000000
00000000
,
00001000
00000000
00000000
00000000
,
00010000
00000000
00000000
00000000
,
00001000
00000000
00000000
00000000
,
00010000
00000000
00000000
00000000
,
00000100
00000000
00000000
00000000
,
00001000
00000000
00000000
00000000
,
00000001
00000000
00000000
00000000
,
00000010
00000000
00000000
00000000
,
00000001
00000000
00000000
00000000
,
00001000
00000000
00001000
00000000
,
00000100
00000000
00000100
00000000
,
00010000
00000000
00010000
00000000
,
00001000
00000000
00001000
00000000
,
00010000
00000000
00000000
00000000
,
01000000
00000000
00000000
00000000
,
00100000
00000000
00000000
00000000
,
01000000
00000000
00000000
00000000
,
10000000
00000000
00000000
00000000
,
00100000
00000000
10000000
00000000
,
00010000
00000000
00000000
00000000
,
00100000
00000000
00001000
00000000
,
00010000
00000000
00001000
00001000
,
00010000
00000000
00000100
00001000
,
00000000
00000010
00000100
00000000
,
00000000
00001000
00000000
00000001
,
00002000
00000000
00000000
00000000
,
00000000
00000000
00000000
00003000
,
00000200
00000000
00000000
00000000
,
00000000
00000000
00000000
00000300
,
00010000
00000000
00000000
00000000
,
00000001
00000000
00000000
00000000
,
00001000
00000000
00000010
00000000
,
00000100
00000000
00000001
00000000
,
00001000
00000000
00000000
00000000
,
00100000
00000000
00000000
00000000
,
10000000
00000000
00100000
00000000
,
01000000
00000000
00010000
00000000
,
00200000
00000000
00000000
00300000
,
00002000
00000000
00000000
00003000
,
00020000
00000000
00000000
00030000
,
00010000
00001000
00100000
00001000
,
00010000
00000000
00000000
00000000
,
00000100
00000000
00000000
00000000
,
00000010
00000000
00000000
00000100
,
00000010
00000000
00000000
00000001
,
00001000
00000000
00000010
00000000
,
00001000
00000100
00010000
00001000
,
00020000
00000000
00000000
00000000
,
00000000
00000000
00000000
00030000
,
00002000
00000000
00000000
00000000
,
00000000
00000000
00000000
00003000
,
00000000
00022000
00000000
00000000
00000000
00000000
00000000
00000000
,
00033000
00000000
00000000
00000000
;

//---------------dance-single - ----------------
#NOTES:
     dance-single:
     :
     Challenge:
     10:
     0.811,0.841,0.524,0.147,0.869,544.000,57.000,16.000,0.000,0.000:
0000
0000
0000
0000
,
0000
0000
0000
0000
,
0000
0000
0000
0000
,
0000
0000
0000
0000
,
1000
0100
1000
0000
0010
0000
0010
0100
0001
1000
0000
0100
0010
0000
0001
0010
,
0001
0000
1000
0000
1000
0000
0001
0010
0100
1000
0000
0001
1000
0000
0100
1000
,
0001
0000
0100
0010
1000
0000
0001
0100
0000
1000
0000
0100
0010
0000
1000
0001
,
0100
0010
1000
0000
0100
0000
0001
0100
0000
0010
0001
1000
0100
0000
0010
0001
,
0010
0000
0100
0000
1100
0000
0100
0010
0000
0011
0000
0001
1000
0000
0100
0010
,
0001
0000
1000
0000
1001
0000
0001
0100
0000
0110
0000
1000
0010
0000
0100
0010
,
0100
0000
0001
0000
1010
0000
1000
0001
0000
0110
0000
1000
0100
0000
0010
0001
,
1000
0000
0100
1000
0001
0000
0010
0001
0000
1100
0000
0100
0010
0000
0010
0001
,
1000
0000
0100
0000
1000
0100
0010
0000
0001
0000
0100
0000
0001
1000
0100
0000
,
1000
0000
0010
0000
1000
0010
0100
0000
0001
0000
0100
0000
0001
1000
0100
0000
,
1000
0000
0100
0000
0010
0001
1000
0000
0001
0000
0010
0000
0100
1000
0001
0000
,
1000
0000
0100
0000
1000
0010
0100
0000
0001
0000
0100
0000
0001
0010
0100
0000
,
1000
0000
0010
0100
0001
0000
1001
0000
0001
0000
1000
0010
1000
0000
1010
0000
,
0100
0000
0001
0010
0100
0000
0110
0000
0100
0000
0010
0100
1000
0000
0011
0000
,
0100
1000
0000
1000
0001
0100
0000
0100
0010
0000
0100
0000
0100
0000
0001
0000
,
0001
0000
1000
0000
0100
0000
0001
0100
0000
1000
0000
0100
0001
0000
0100
0000
,
0010
0001
1000
0000
0010
0100
0000
0001
0000
0010
0000
0001
1000
0000
0100
1000
,
0010
0100
0001
0000
1000
0000
0010
0001
0000
0010
0000
0100
0001
0000
1000
0100
,
0001
0100
1000
0000
0010
0000
1000
0100
0010
0001
0100
0000
0001
0000
0100
0010
,
1000
0000
0100
0000
0010
0001
1000
0100
1000
0000
0010
0100
0001
0000
0010
0100
,
0010
0000
0001
0000
1000
0000
0100
0010
0000
0010
0000
0010
0001
0000
0000
0000
,
0100
0000
0010
0000
1000
0000
0001
0100
0010
0100
0000
0100
0001
0000
1000
0000
,
0100
0010
0000
0100
1000
0000
0010
0000
0100
0001
0000
0100
1000
0000
0100
0000
,
0010
1000
0000
0001
0100
0000
0001
0000
0010
0001
0100
0010
1000
0100
1000
0010
,
0100
0000
0010
0011
0001
1001
1000
1100
,
0010
0110
1100
0110
1100
1001
0001
0110
,
1000
1010
0101
1001
1100
0110
0001
0001
,
1100
1001
0101
1001
0110
1100
0110
0011
,
0210
1000
0001
0010
,
0020
0000
0000
0000
0000
0000
0330
0000
0001
0000
0000
0000
0000
0000
1000
0100
,
0001
0000
0100
0000
1000
0000
0100
0001
0000
0100
1000
0000
0010
0000
0000
0000
,
0001
0000
0010
0000
1000
0000
0010
0001
0000
0010
1000
0000
0100
0000
0000
0000
,
1000
0100
0010
0100
1000
0001
0010
0001
1000
0100
0010
0001
1000
0010
0100
0001
,
1000
0100
1000
0001
1000
0010
0100
0001
1000
0001
0010
0001
0100
0000
0000
0000
,
0001
0010
0100
1000
0010
0100
0001
0010
0100
1000
0010
0100
0001
0100
0010
1000
,
0001
0010
0001
0100
0010
1000
0100
1000
0010
0100
0001
0010
0100
0000
0000
0000
,
0010
0100
1000
0100
0010
0100
0001
0100
1000
0100
0010
0001
1000
0010
0100
0001
,
0100
0010
0100
1000
0100
0010
1000
0001
0010
0100
0010
1000
0010
0000
0000
0000
,
0001
0100
0010
1000
0001
0100
1000
0100
0010
1000
0001
0010
0001
0010
1000
0010
,
0001
1000
0001
1000
0100
0001
0100
1000
0001
1000
0010
0001
0010
0000
0000
0000
,
1000
0000
0110
0000
1010
0000
0001
0000
0101
0000
0110
0000
,
1000
0000
0101
0000
1100
0000
0010
0000
0011
0000
0101
0000
,
1000
0100
0001
0010
1000
0100
0001
0000
,
1000
0100
0000
0000
0010
0001
0000
0000
1000
0010
0000
0000
0100
0001
0000
0000
,
2000
0000
0000
0000
0000
0000
3100
0000
0000
0010
0000
0000
0001
0000
0000
0000
0000
0000
1001
0000
0000
0000
0000
0000
0210
0000
0000
0000
0000
0000
0000
0000
0010
0300
0000
0000
0002
0000
0000
0000
0010
0000
0003
0000
0000
0000
0000
0000
,
2100
0000
0000
0000
0000
0000
0000
0000
0200
0000
0000
0000
3000
0000
0000
0000
0000
0000
0301
0000
0000
0000
0000
0000
0001
0000
0000
0100
0000
0000
1000
0000
0000
0020
0000
0000
0000
0000
0000
0000
0000
0000
1000
0000
0000
0030
0000
0000
,
2000
0000
3010
0100
0001
0000
0102
0000
0003
0000
1010
0000
0021
0000
0031
0000
,
0201
0000
0301
0010
0100
0000
2001
0000
3000
0000
0011
0000
1020
0000
1030
0000
,
1001
0000
0010
0100
0001
0000
0010
0100
1000
0000
0010
0100
1000
0000
0100
0010
,
1000
0000
0100
0010
1000
0000
0010
0001
0010
0000
0001
0010
0100
1000
0100
0010
,
0011
0000
1000
0000
0100
0000
1000
0100
0000
1000
0100
0000
1000
0000
0000
0000
,
0001
0000
0100
0000
0001
0000
0100
0001
0000
0100
0001
0000
0100
0000
0010
1000
,
1001
0000
1000
0000
0010
0000
1000
0010
0000
1000
0010
0000
1000
0000
0000
0000
,
0001
0000
0100
0000
0001
0000
0100
0001
0000
0100
0001
0000
0101
0000
0000
0000
,
0000
2002
0000
0000
0000
0000
0000
0000
,
3003
0000
0000
0000
;

//---------------dance-double - ----------------
#NOTES:
     dance-double:
     :
     Challenge:
     10:
     0.764,0.814,0.313,0.258,0.814,519.000,34.000,28.000,0.000,0.000:
00000000
00000000
00000000
00000000
,
00000000
00000000
00000000
00000000
,
00000000
00000000
00000000
00000000
,
00000000
00000000
00000000
00000000
,
10000000
00000000
01000000
00000000
00100000
00000000
00010000
10000000
00000000
01000000
00000000
00100000
00001000
00000000
00000000
00000000
,
00010000
00000000
00000010
00000000
00000100
00000000
00000001
00000100
00000000
00000010
00000000
00000001
00000010
00000000
00000000
00000000
,
00001000
00000000
00000100
00000000
00010000
00000000
00001000
00010000
00000000
01000000
00000000
10000000
01000000
00000000
00000000
00000000
,
00100000
00000000
00001000
00000000
00010000
00000000
00000100
00001000
00000000
00000100
00000000
00000010
00000001
00000000
00001000
00000100
,
00001000
00000100
00000001
00000100
00001000
00000100
00010000
00001000
,
00010000
00000000
00100000
00000000
10000000
00000000
00100000
00000000
01000000
00000000
10000000
00000000
01000000
00000000
00010000
01000000
,
00100000
00000000
00010000
00000000
00001000
00000000
00010000
00000000
00000100
00000000
00001000
00000000
00000001
00000000
00001000
00000100
,
00000010
00000000
00000001
00000100
00000010
00000000
00000001
00000010
00000000
00001000
00000000
00000010
00010000
00000000
00001000
00100000
,
00010000
00000000
00100000
00000000
00010000
10000000
00100000
00000000
01000000
00000000
00010000
00000000
01000000
00010000
10000000
00000000
,
00010000
00000000
00100000
00000000
00010000
01000000
00001000
00000000
00010000
00000000
00000010
00000000
00000100
00001000
00000100
00000000
,
00000001
00000000
00001000
00000000
00000100
00000010
00000001
00000000
00000010
00000000
00000100
00000000
00001000
00000010
00000100
00000000
,
00000001
00000000
00001000
00000000
00000100
00000010
00001000
00000000
00010000
00000000
00001000
00000000
00010000
00100000
01000000
00000000
,
00010000
00000000
10000000
01000000
00100000
00000000
00110000
00000000
10000000
00000000
00010000
01000000
00010000
00000000
01010000
00000000
,
00001000
00000000
00010000
00001000
00100000
00000000
00110000
00000000
00001000
00000000
00010000
00000100
00010000
00000000
00010100
00000000
,
00000100
00001000
00000000
00000001
00000100
00000010
00000000
00001000
00000010
00000000
00000010
00000000
00000100
00000000
00000100
00000000
,
00000001
00000000
00000100
00000000
00001000
00000000
00010000
00001000
00000000
00010000
00000000
01000000
10000000
00000000
00010000
00000000
,
01000000
00010000
00100000
00000000
01000000
00100000
00000000
00001000
00000000
00010000
00000000
00000010
00001000
00000000
00000010
00000100
,
00000001
00001000
00000010
00000000
00001000
00000000
00000010
00000100
00000000
00001000
00000000
00010000
00100000
00000000
10000000
00010000
,
01000000
00010000
10000000
00000000
00010000
00000000
00100000
00001000
00010000
00000100
00001000
00000000
00000100
00000000
00000010
00000001
,
00000010
00000000
00000001
00000000
00001000
00000010
00000100
00001000
00000000
00000100
00000010
00001000
00000001
00000000
00000100
00000010
,
00001000
00000000
00000100
00000000
00010000
00000000
00001000
00010000
00000000
01000000
00000000
10000000
01000000
00000000
00000000
00000000
,
00001000
00000000
00000010
00000000
00000100
00000000
00000001
00000100
00000000
00001000
00000000
00010000
00001000
00000000
00100000
00000000
,
00010000
00100000
00000000
01000000
00100000
00000000
00010000
00000000
10000000
01000000
00000000
00010000
00001000
00000000
00010000
00000000
,
00000100
00001000
00000000
00000001
00001000
00000000
00000100
00000000
00000010
00000100
00001000
00000100
00010000
00001000
00010000
00000010
,
00001000
00000000
00010000
00011000
00001000
01001000
01000000
01100000
,
00000000
00110000
01100000
00110000
01100000
01010000
00000000
00011000
,
00000000
00001010
00000101
00000011
00000110
00001100
00000001
00000001
,
00001000
00000011
00000001
00000011
00001100
00000110
00001100
00011000
,
00120000
10000000
01000000
00100000
,
00200000
00000000
00000000
00000000
00000000
00000000
00330000
00000000
00010000
00000000
00000000
00000000
00000000
00000000
10000000
01000000
,
00010000
00000000
01000000
00000000
00100000
00000000
00010000
00100000
00000000
00001000
00010000
00000000
00000010
00000000
00000000
00000000
,
00000100
00000000
00000001
00000000
00000100
00000000
00000010
00010000
00000000
00001000
00100000
00000000
00010000
00000000
00000000
00000000
,
10000000
01000000
10000000
00010000
01000000
00010000
10000000
00100000
01000000
00010000
10000000
01000000
00100000
00010000
00100000
00010000
,
00100000
00001000
00100000
00001000
00010000
00001000
00010000
00000100
00001000
00000100
00001000
00000001
00000100
00000000
00000000
00000000
,
00000010
00000100
00000010
00001000
00000001
00001000
00000100
00001000
00000100
00010000
00001000
00010000
00001000
00100000
00001000
00100000
,
00010000
01000000
00010000
10000000
01000000
10000000
01000000
00100000
00010000
00100000
01000000
00100000
00010000
00000000
00000000
00000000
,
00100000
00010000
00100000
00001000
00010000
00001000
00010000
00000100
00001000
00000100
00001000
00000001
00000100
00000010
00001000
00000001
,
00000010
00000100
00001000
00000100
00010000
00000100
00010000
00001000
00100000
00010000
00100000
00010000
10000000
00000000
00000000
00000000
,
10000000
00010000
01000000
00010000
10000000
01000000
00100000
00010000
10000000
00100000
10000000
00010000
00100000
01000000
00100000
01000000
,
00010000
01000000
00010000
00001000
00010000
00001000
00010000
00000010
00001000
00000010
00000100
00000001
00001000
00000000
00000000
00000000
,
00000002
00000000
00000000
00000000
00000000
00000000
00000000
00000000
00000200
00000003
00000000
00000000
00000000
00000000
00000000
00000000
00002000
00000000
00000300
00000000
00000000
00000000
00000000
00000000
00023000
00000000
00000000
00000000
00000000
00000000
00000000
00000000
00200000
00030000
00000000
00000000
00000000
00000000
00000000
00000000
20000000
00000000
00300000
00000000
00000000
00000000
00000000
00000000
,
32000000
00000000
00000000
00000000
00000000
00000000
00000000
00000000
00020000
03000000
00000000
00000000
00000000
00000000
00000000
00000000
00002000
00000000
00030000
00000000
00000000
00000000
00000000
00000000
00003020
00000000
00000000
00000000
00000000
00000000
00000000
00000000
00000032
00000000
00000000
00000000
00000000
00000000
00000000
00000000
00000200
00000000
00000003
00000000
00000000
00000000
00000000
00000000
,
00001300
00010000
00100000
10000000
01000000
00010000
00001000
00000000
,
00000010
00000001
00000000
00000000
00000100
00001000
00000000
00000000
00010000
00100000
00000000
00000000
10000000
01000000
00100000
00010000
,
20000000
00000000
00000000
00000000
00000000
00000000
00000000
00000000
02000000
30000000
00000000
00000000
00000000
00000000
00000000
00000000
00020000
00000000
03000000
00000000
00000000
00000000
00000000
00000000
00032000
00000000
00000000
00000000
00000000
00000000
00000000
00000000
00000020
00003000
00000000
00000000
00000000
00000000
00000000
00000000
00002000
00000000
00000030
00000000
00000000
00000000
00000000
00000000
,
00023000
00000000
00000000
00000000
00000000
00000000
00000000
00000000
00200000
00030000
00000000
00000000
00000000
00000000
00000000
00000000
00020000
00000000
00300000
00000000
00000000
00000000
00000000
00000000
00032000
00000000
00000000
00000000
00000000
00000000
00000000
00000000
00000200
00003000
00000000
00000000
00000000
00000000
00000000
00000000
00002000
00000000
00000300
00000000
00000000
00000000
00000000
00000000
,
00013000
00000000
00000010
00000100
00000001
00000000
00000101
00000000
00000000
00000000
00001010
00000000
00000101
00000000
00000000
00000000
,
00000011
00000000
00000010
00001000
00010000
00000000
00011000
00000000
00000000
00000000
01010000
00000000
10100000
00000000
00000000
00000000
,
01010000
00000000
10000000
01000000
00100000
00000000
00001000
00010000
00000010
00000000
00001000
00000100
00000010
00000000
00001000
00010000
,
00100000
00000000
00010000
00100000
01000000
00000000
00010000
01000000
10000000
00000000
01000000
00100000
10000000
00010000
01000000
00100000
,
10000000
00000000
00010000
00000000
10000000
00000000
00010000
10000000
00000000
00010000
10000000
00000000
00010000
00000000
00000000
00000000
,
01000000
00000000
00001000
00000000
01000000
00000000
00001000
01000000
00000000
00001000
01000000
00000000
00001000
00000000
00100000
00001000
,
00010000
00000000
00000100
00000000
00010000
00000000
00000100
00010000
00000000
00000100
00010000
00000000
00000100
00000000
00000000
00000000
,
00001000
00000000
00000001
00000000
00001000
00000000
00000001
00001000
00000000
00000001
00001000
00000000
00000001
00000000
00000000
00000000
,
00000000
00000220
00000000
00000000
00000000
00000000
00000000
00000000
,
00000330
00000000
00000000
00000000
;
