#TITLE:Challenge Myself to the Goal V2;
#SUBTITLE:Yin Yang! X-Change Aternative;
#ARTIST:Angel Note;
#TITLETRANSLIT:;
#SUBTITLETRANSLIT:;
#ARTISTTRANSLIT:;
#CREDIT:;
#BANNER:Challenge Myself to the Goal.jpg;
#BACKGROUND:Challenge Myself to the Goal-bg.jpg;
#LYRICSPATH:;
#CDTITLE:Kotarouchan.png;
#MUSIC:Challenge Myself to the Goal.mp3;
#OFFSET:0.390;
#SAMPLESTART:14.000;
#SAMPLELENGTH:18.000;
#SELECTABLE:YES;
#BPMS:0.000=147.000;
#STOPS:;
#BGCHANGES:;
// cache tags:
#FIRSTBEAT:9.500;
#LASTBEAT:219.500;
#SONGFILENAME:Songs/juju steps/[Kotarouchan]Challenge Myself to the Goal V2/Challenge Myself to the Goal.sm;
#HASMUSIC:1;
#HASBANNER:1;
#MUSICLENGTH:94.302;
// end cache tags

//---------------dance-single - ----------------
#NOTES:
     dance-single:
     :
     Hard:
     11:
     1.000,1.000,1.000,0.838,0.308,435.000,203.000,79.000,0.000,58.000:
0000
0000
0000
0000
,
0000
0000
0000
0000
,
0000
0000
0000
1001
0110
1001
0000
1100
,
0110
0011
0110
1100
0110
0011
0110
2200
,
0000
3311
0000
1100
0011
0220
0330
1100
,
0110
1100
1001
0011
0101
1010
1100
0220
,
0330
2002
3003
2200
3300
0220
0330
1100
,
1100
0000
0000
0011
0011
0000
0000
1100
,
1100
0000
1100
0110
0000
0011
0000
2200
,
0000
0000
0000
0000
0000
0000
3300
1100
,
1100
0000
0110
0110
0000
0011
0110
1100
,
2000
0200
3020
2300
0032
3200
2003
0320
,
3002
0230
2003
0320
3002
0230
2003
0320
,
3200
0032
2300
0203
3020
0302
0230
0023
,
2300
0032
3200
0023
2300
0132
3103
1001
,
0110
0110
0000
1001
0011
0011
0000
1100
,
0110
0011
0000
0110
1001
0101
0110
1100
,
0110
0110
0000
1100
0011
0011
0000
2200
,
3300
0110
1100
0022
0000
0000
0000
0033
,
1100
1100
0000
0011
0110
0110
0000
0110
,
1100
1100
0000
1001
0101
0110
1010
0101
,
1010
1100
0110
0011
0101
0011
0110
1100
,
1001
0000
0000
1100
0110
0011
0000
0000
,
1100
0000
0100
0000
0110
0000
1000
0010
0100
0010
1000
0000
0011
0000
0010
0000
,
1100
0000
0100
0000
0101
0000
1000
0100
1000
0001
1000
0000
0101
0000
0010
0000
,
1010
0000
0100
0000
0110
0000
0010
0100
1000
0100
0010
0000
0110
0000
0100
0000
,
0101
0000
0100
0000
0110
0000
0100
0010
0001
1000
0010
0000
1010
0000
0100
0000
,
1001
0000
0100
0000
0101
0000
0010
1000
0100
1000
0001
0000
0110
0000
0100
0000
,
1010
0000
0100
0000
1100
0000
0010
0100
0010
1000
0001
0000
1001
0000
0010
0000
,
1100
0000
0100
0000
0011
0000
0010
0001
0100
0010
0100
0000
1010
0000
0100
0000
,
1001
0000
0100
0000
1100
0000
0010
0100
0001
0010
1000
0000
0110
0000
0100
0000
,
1010
0000
1000
0000
1100
0000
0100
0010
0001
1000
0100
0000
1100
0000
0001
0000
,
1100
0000
1100
0011
1100
0011
1100
0011
2200
3300
0011
0000
0000
0000
0110
0000
,
0110
0000
1100
0000
0011
0000
0100
1000
0001
1000
0100
0000
0110
0000
0100
0000
,
1100
0000
0110
0000
1100
0000
1000
0100
1000
0001
0100
0000
0110
0000
0010
0000
,
1010
0000
0110
0000
1100
0000
0010
1000
0100
1000
0001
0000
0110
0000
0001
0000
,
1001
0000
0011
0000
0110
0000
0010
0001
0100
1000
0100
0000
1100
0000
0100
0000
,
1001
0000
1100
0000
0110
0000
0010
1000
0100
1000
0001
0000
0110
0000
0010
0000
,
0101
0000
1010
0000
0110
0000
0010
0100
1000
0010
0100
0000
0110
0000
0100
0000
,
0101
0000
1010
0000
1001
0000
0010
0100
1000
0010
0100
0000
0110
0000
0001
0000
,
1010
0000
0101
0000
1001
0000
0001
0010
0100
1000
0010
0000
0110
0000
0010
0000
,
1010
0000
0010
0000
0011
0000
0010
0100
0010
1000
0010
0000
0011
0000
0100
0000
,
1010
0000
0010
0000
1010
0000
0010
1000
0001
0100
0001
0000
0110
0000
0001
0000
,
0101
0000
0110
0000
0011
0000
0001
0100
0001
1000
0100
0000
0110
0000
0100
0000
,
1100
0000
0110
0000
1100
0000
0010
0100
0010
0100
0001
0000
0110
0000
0001
0000
,
1010
0000
0100
0000
1001
0000
0100
1000
0010
0100
1000
0000
0110
0000
0100
0000
,
1100
0000
0110
0000
0101
0000
0010
0100
0001
1000
0100
0000
1010
0000
0010
0000
,
0110
0000
1100
0000
1001
0000
1000
0001
0100
0010
0100
0000
1100
0000
1000
0000
,
1001
0000
0101
0000
0110
0000
0010
0100
0001
1000
0100
0000
0110
0000
0001
0000
,
1010
0000
0110
0000
0101
0000
0010
0001
0010
0100
1000
0001
1000
0001
1000
0001
,
1001
0000
0110
0110
0000
1100
0110
0011
,
2000
0200
3020
0302
0230
0023
0302
0230
,
2003
0320
3002
0230
2003
0320
3200
2030
,
0302
3020
0203
0032
2300
0023
3200
2030
,
0320
3002
0230
2003
0320
3031
1001
1001
;
