#TITLE:Blaze;
#SUBTITLE:;
#ARTIST:cornandbeans;
#TITLETRANSLIT:;
#SUBTITLETRANSLIT:;
#ARTISTTRANSLIT:;
#CREDIT:;
#BANNER:blaze-bn.png;
#BACKGROUND:blaze-bg.png;
#LYRICSPATH:;
#CDTITLE:!cartoonTitle.png;
#MUSIC:Blaze - cornandbeans.mp3;
#OFFSET:0.000;
#SAMPLESTART:99.640;
#SAMPLELENGTH:12.000;
#SELECTABLE:YES;
#BPMS:0.000=175.000;
#STOPS:;
#BGCHANGES:;
// cache tags:
#FIRSTBEAT:3.500;
#LASTBEAT:504.000;
#SONGFILENAME:Songs/Definitive Keyboard Megapack/Blaze(Cartoon)/{Blaze} - cornandbeans.sm;
#HASMUSIC:1;
#HASBANNER:1;
#MUSICLENGTH:198.974;
// end cache tags

//---------------dance-single - Blank----------------
#NOTES:
     dance-single:
     Blank:
     Easy:
     14:
     1.000,1.000,1.000,0.176,1.000,1402.000,603.000,35.000,0.000,80.000:

0000
0000
0000
0000
0000
0000
0000
0000
0000
0000
0000
0000
0000
0000
1010
0100
,
1010
0000
0000
0000
0000
0000
0000
0000
0000
0000
0000
0000
0000
0000
1100
0001
,
1100
0000
0000
0000
0000
0000
0000
0000
0000
0000
0000
0000
0000
0000
1001
0010
,
1001
0000
0000
0000
0000
0000
0000
0000
0000
0000
0000
0000
0000
0000
0101
1000
,
0101
0011
0101
1010
,
0110
0101
1100
0011
,
1010
0011
0101
0110
,
0101
1010
0011
1010
,
1100
0010
0101
0010
1100
0010
0101
1000
,
0011
0100
1010
0001
1100
0001
0110
0100
,
1001
0010
1100
0001
1010
0100
1010
0001
,
0110
1000
0110
1000
0011
1000
0110
0100
,
1010
0001
1110
0001
0110
1000
0111
1000
,
0011
0100
1011
0100
1001
0010
1101
0001
,
0110
0001
1110
0001
1100
0010
1101
0010
,
0101
0000
1000
0000
0111
0000
0100
0000
1010
0100
1010
0000
0101
0010
0101
0000
,
1100
0010
1101
0010
1100
0001
1110
0001
,
1100
0010
1101
0010
1001
0100
1011
0001
,
0110
0001
1110
0001
1100
0010
1101
0010
,
1001
0000
0100
0000
1011
0000
0100
0000
0011
0100
1010
0000
1100
0010
0101
0000
,
1010
0002
0113
2000
3011
0200
1310
0002
,
0113
2000
3011
0200
1310
0002
0113
0200
,
1310
0002
1013
0200
1310
0002
1103
0020
,
0131
2000
3011
0200
1301
0020
0131
0002
,
0113
2000
3110
0002
1013
0200
1301
0020
,
0131
2000
3101
0020
1130
0002
0113
0200
,
1301
0020
1031
0200
1301
0020
1130
0020
,
0131
0020
1130
0002
0113
2000
3101
0010
,
1111
0000
0000
0000
0020
0030
0200
0300
,
1010
0001
0110
1000
0011
0100
1001
0010
1100
0001
1010
0100
0011
0100
0011
1000
,
0110
0001
1010
0100
0011
0100
1001
0100
0011
1000
0101
0010
1100
0010
0101
0010
,
0101
1000
0110
0001
0110
1000
0101
0010
1001
0100
1001
0010
0101
0010
1100
0001
,
1010
0100
1001
0010
1100
0001
0110
0001
1100
0010
0101
0010
1100
0010
1001
0100
,
0011
0100
1010
0001
1100
0010
0101
1000
0110
0001
1010
0100
0011
1000
0110
0001
,
1100
0010
0101
0010
1100
0010
1001
0100
0011
1000
0110
0001
1100
0010
1001
0100
,
0011
0100
1010
0001
1100
0010
1001
0100
0011
0100
1010
0100
0011
1000
0011
0100
,
1010
0001
1100
0010
0101
1000
0110
0001
1100
0010
0101
0010
1100
0001
0110
0001
,
1010
0100
1001
0010
0101
0010
1100
0001
0110
1000
0110
1000
0101
0010
0101
0010
,
1100
0001
0110
1000
0011
0100
0011
1000
0011
0100
1010
0001
0110
1000
0011
0100
,
1001
0100
0011
0100
1010
0001
1100
0010
0101
1000
0110
0001
0110
0001
1100
0010
,
1101
0010
0101
0010
1101
0010
1001
0100
1011
0100
1010
0100
1011
0100
0011
1000
,
0110
0001
1010
0100
0011
1000
0101
1000
0110
0001
1010
0100
0011
1000
0101
1000
,
0110
0001
0110
0001
1010
0100
1001
0010
0101
0010
1100
0001
1010
0100
0011
1000
,
0101
0010
1100
0010
0101
0010
1100
0001
0110
0001
1010
0100
1001
0010
1100
0001
,
1110
0001
1100
0001
1110
0001
0110
1000
0111
1000
0110
1000
0111
1000
0110
0001
,
1010
0100
0011
0100
1010
0001
0110
1000
0011
0100
1001
0010
1100
0001
0110
1000
,
0011
0100
1001
0010
0101
0010
1001
0100
1010
0100
0011
1000
0110
0001
1010
0100
,
1001
0010
1100
0001
0110
1000
0101
0010
1001
0100
0011
1000
0110
0001
1010
0100
,
0011
1000
0101
0010
1001
0100
1010
0001
0110
1000
0011
0100
0011
1000
0011
0100
,
1010
0100
1001
0010
1100
0001
0110
1000
0011
0100
1010
0100
0011
1000
0011
0100
,
1010
0100
0011
0100
1001
0010
1100
0001
1010
0100
0011
0100
1010
0001
0110
1000
,
0011
0100
0011
1000
0110
0001
1100
0010
1001
0100
1010
0001
0110
0001
1100
0010
,
0101
0010
1100
0010
1001
0100
0011
1000
0110
0001
1100
0010
0101
0010
1100
0001
,
0110
0001
1010
0100
0010
0001
0110
1000
0001
0100
1010
0001
0100
1000
0101
0010
,
0001
1000
0101
0010
0100
1000
0011
0100
0010
0001
1100
0010
0100
0010
1001
0010
,
0100
0001
1010
0100
1000
0001
1100
0010
1000
0001
0110
0001
1000
0010
0101
0010
,
0100
0010
1100
0001
0010
1000
0101
0010
0100
0001
1010
0001
0100
1000
0110
0001
,
1000
0100
1001
0010
0100
1000
0011
0100
0010
0001
1100
0010
0001
1000
0011
0100
,
1000
0001
1100
0010
0001
0100
1010
0100
1000
0010
0101
1000
0010
0100
0011
1000
,
0100
0001
1100
0010
0001
0100
0011
1000
0100
0001
0110
1000
0100
0010
1001
0100
,
0010
0001
0110
1000
0010
0001
0110
1000
0001
0010
1100
0001
0010
1000
0011
0100
,
1011
0010
0000
0100
0000
0001
0000
1000
,
0000
0001
0000
0100
0000
1000
0000
0010
,
0000
0010
0000
0100
0000
0001
0000
1000
,
0000
0010
0000
0100
0000
0010
0000
1000
,
0011
0100
1011
0001
0110
1000
0111
0100
,
1010
0001
1011
0100
0011
1000
1110
0001
,
0110
0100
1011
1000
0110
0001
0111
1000
,
0101
0010
1110
0001
0110
1000
0111
1000
,
0100
0010
0001
0000
0100
0000
1000
0100
,
0010
0001
1000
0001
,
0100
0000
0001
0010
0100
1000
0001
0000
,
0100
0000
1000
0100
0010
0001
0100
1000
,
0001
0000
0100
0010
0001
0010
0100
1000
,
0000
0100
0010
0100
0001
0010
1000
0001
,
0100
0000
0010
0000
0000
0100
0000
0100
,
0010
0010
0001
0001
1000
1000
0001
0001
,
1110
0001
0010
0000
0011
0000
0010
0100
,
0011
0010
0011
0010
,
1110
0000
0001
1000
0101
0010
0100
0000
,
0101
0000
0010
1000
0101
1000
0010
0001
,
1110
0000
0010
1000
0110
0001
0010
1000
,
0110
0001
0001
1000
0110
0001
1000
0001
,
1110
0000
0001
0000
1100
0001
0000
0001
,
1100
0100
0001
0001
1100
1000
0010
0010
,
1101
0010
0001
0000
0011
0000
1000
0100
,
0011
0100
0011
0100
,
1101
0000
0001
1000
0101
0010
1000
0000
,
0101
0000
0010
1000
0101
0010
1000
0010
,
1101
0000
0010
1000
0110
0001
0100
0001
,
0110
1000
0001
1000
0110
0001
1000
0010
,
1101
0000
0100
0000
1100
0001
0000
0001
,
1100
1000
0010
0010
1100
0100
0001
0001
,
1111
0000
0000
0000
0020
0030
0200
0300
,
1010
0100
0011
1000
0011
0100
1010
0100
1001
0010
0101
0010
1100
0001
0110
1000
,
0101
0010
1100
0001
0110
1000
0011
0100
1001
0010
0101
0010
1100
0001
1010
0100
,
0011
0100
1001
0010
0101
0010
1100
0001
0110
1000
0101
0010
1001
0100
0011
1000
,
0110
0001
1010
0100
0011
1000
0110
0001
1010
0100
1001
0010
1100
0001
0110
1000
,
0011
1000
0110
0001
1010
0100
1001
0010
0101
0010
1001
0100
1010
0100
0011
0100
,
1010
0100
0011
1000
0110
0001
1010
0100
0011
1000
0101
0010
1100
0010
1001
0100
,
0011
1000
0011
0100
1010
0001
0110
0001
1010
0100
1001
0010
1100
0001
1010
0100
,
0011
1000
0110
0001
1010
0100
0011
1000
0110
1000
0011
0100
1001
0010
1100
0001
,
1010
0100
0011
1000
0110
0001
1010
0100
1001
0010
1100
0001
1010
0100
0011
1000
,
0110
0001
1010
0100
1001
0010
1100
0001
0110
1000
0110
0001
1100
0010
1001
0100
,
0011
1000
0101
0010
1100
0001
0110
1000
0011
0100
1010
0100
0011
1000
0011
1000
,
0111
1000
0011
1000
0111
1000
0110
0001
1110
0001
0110
0001
1110
0001
1010
0100
,
0011
1000
0110
0001
1010
0100
0011
1000
0011
0100
1001
0010
1100
0001
0110
1000
,
0011
0100
1010
0001
0110
1000
0011
0100
1010
0001
0110
0001
1010
0100
0011
1000
,
0110
0001
1010
0100
0011
1000
0110
0001
1010
0100
0011
1000
0110
0001
1010
0100
,
1011
0100
1001
0100
1011
0100
1001
0010
1101
0010
1100
0010
1101
0010
1100
0001
,
0110
0001
1100
0010
0101
0010
1100
0001
0110
1000
0011
0100
1010
0001
0110
0001
,
1100
0010
1001
0100
1010
0001
0110
1000
0101
0010
1001
0100
1010
0100
0011
0100
,
1010
0001
0110
1000
0101
0010
1100
0001
0110
1000
0011
0100
1001
0010
0101
0010
,
1100
0001
1010
0100
0011
1000
0110
0001
1010
0100
0011
0100
1010
0100
0011
1000
,
0011
0100
1010
0100
1001
0010
1100
0010
1001
0100
1010
0001
0110
1000
0110
0001
,
1010
0100
1010
0001
0110
1000
0011
0100
1010
0100
1001
0010
0101
0010
1100
0001
,
0110
1000
0011
0100
1010
0100
0011
1000
0110
1000
0101
0010
1100
0010
0101
0010
,
1001
0100
1010
0100
0011
1000
0011
0100
1010
0001
0110
1000
0011
0100
1010
0100
,
1001
0100
1001
0010
0100
0001
1010
0100
0010
0001
1100
0010
0100
0010
1001
0100
,
1000
0001
1010
0100
0010
0001
0110
1000
0001
0100
0011
1000
0100
0010
1100
0001
,
0100
0010
1100
0001
0010
0100
1010
0001
0100
1000
0011
0100
0001
0100
1010
0001
,
0100
1000
0011
0100
1000
0001
0110
0001
1000
0010
1100
0001
0100
0010
1100
0001
,
0010
0100
1001
0010
0100
1000
0110
0001
0100
0010
1001
0100
0010
1000
0110
0001
,
0100
0010
1100
0001
0010
1000
0011
0100
0010
0100
1010
0001
0100
1000
0101
0010
,
1100
0000
0011
0000
0000
0010
0000
0100
,
0001
0000
0000
0001
0010
0100
1000
0000
0000
1000
0100
0010
,
1001
0000
0000
0000
;
