#TITLE:Ami Furi Koneko;
#SUBTITLE:;
#ARTIST:Nekomimi Mahoutsukai;
#TITLETRANSLIT:;
#SUBTITLETRANSLIT:;
#ARTISTTRANSLIT:;
#CREDIT:;
#BANNER:Ami Furi Koneko-bn.PNG;
#BACKGROUND:Ami Furi Koneko-bg.png;
#LYRICSPATH:;
#CDTITLE:cdtitle.png;
#MUSIC:Ami Furi Koneko.mp3;
#OFFSET:-0.083;
#SAMPLESTART:4.036;
#SAMPLELENGTH:12.326;
#SELECTABLE:YES;
#BPMS:0.000=118.000;
#STOPS:;
#BGCHANGES:;
// cache tags:
#FIRSTBEAT:7.833;
#LASTBEAT:225.042;
#SONGFILENAME:Songs/Keyboard Collaboration II/Bursurk Lurk  - Ami Furi Koneko/Ami Furi Koneko.sm;
#HASMUSIC:1;
#HASBANNER:1;
#MUSICLENGTH:115.382;
// end cache tags

//---------------dance-single - ----------------
#NOTES:
     dance-single:
     :
     Hard:
     12:
     1.000,1.000,0.043,0.433,1.000,814.000,5.000,50.000,0.000,0.000:  // measure 1
0000
0000
0000
0000
,  // measure 2
0000
0000
0000
0000
0000
0000
0000
0000
0000
0000
0000
0000
0000
0000
0000
0000
0000
0000
0000
0000
0000
0000
0000
0000
0000
0000
0000
0000
0000
0000
0000
0000
0000
0000
0000
0000
0000
0000
0000
0000
0000
0000
0000
0000
0000
0000
0010
0100
,  // measure 3
2000
0000
0000
3000
0000
0100
0010
0100
1000
0002
0000
0000
0203
0000
0000
0320
0000
0000
1030
0000
0010
1000
0000
0010
,  // measure 4
0100
0010
0001
0100
0010
1000
0010
0000
0100
1000
0010
0100
0020
0000
0000
0032
0000
1003
0100
0000
0100
1000
0000
0100
,  // measure 5
0000
0000
0010
0001
0010
1000
0100
0000
0010
0100
1000
0010
0001
0100
0010
1000
0100
0010
0001
1000
0100
0010
0001
0010
,  // measure 6
0200
0000
0000
0300
0000
0010
1000
0100
0010
0200
0000
0000
0320
0000
0000
0032
0000
0000
0103
0000
0001
1000
0000
0010
,  // measure 7
0100
0010
1000
0001
0000
0010
0100
0010
1000
0001
0000
1000
0010
0000
0100
0010
0000
0100
0001
0000
0100
1000
0000
0010
,  // measure 8
0100
0000
0000
0000
0010
0000
0001
0000
0010
0000
1000
0000
0100
0000
0000
0000
0010
0000
0100
0000
0000
0000
0000
0000
0001
0000
0000
0000
0100
0000
0010
0000
0000
0000
1000
0000
0100
0000
0010
0000
0100
0000
2000
0000
0000
3000
0000
0000
,  // measure 9
0010
0000
0000
0100
0000
0001
0010
0000
0100
1000
0000
0100
0010
0000
1000
0100
0000
0001
0010
0000
0001
0000
0000
0100
,  // measure 10
0000
0000
0010
1000
0000
0000
0100
0000
0010
0100
0000
0001
0000
0000
0000
1000
0000
0010
0100
0000
0010
0001
0000
0100
,  // measure 11
0010
0000
1000
0100
0000
0010
0001
0000
1000
0001
0000
1000
0001
0000
0100
0010
0000
0010
0100
0010
0100
1000
0100
0001
,  // measure 12
0010
0000
0100
0000
0000
0100
0010
0000
0100
1000
0000
0100
0001
0000
1000
0100
0000
0001
0010
0000
1000
0000
0000
0100
,  // measure 13
0000
0000
1000
0010
0000
0000
0100
0000
0010
0100
0000
0010
0100
0000
0001
0000
0000
0100
0010
0000
0001
0010
0000
0100
,  // measure 14
1000
0000
0010
0001
0000
0010
0100
0000
0001
1000
0000
0010
0100
0000
0100
0010
0000
0100
1000
0000
0000
0100
0000
0000
,  // measure 15
1000
0000
0000
0010
1000
0010
0100
0000
0000
0001
0000
0000
1000
0000
0100
0010
0000
0000
0100
0000
0000
0001
0000
0000
,  // measure 16
1000
0000
0010
1000
0000
0010
1000
0000
0001
0000
0000
1000
0001
0000
0000
0010
0000
0000
0100
0010
0001
1000
0000
0000
,  // measure 17
1000
0000
0000
0010
0000
1000
0100
0000
0000
0001
0000
1000
0000
0000
0001
0100
0000
0001
1000
0000
0010
0001
0000
1000
,  // measure 18
0100
0000
0001
0010
0000
0000
1000
0000
0010
0001
0000
0010
0100
0000
0000
1000
0000
0010
0000
0000
0100
0000
0000
0100
,  // measure 19
0000
0000
0100
0000
0000
0100
0010
0100
0001
1000
0000
0010
0001
0000
0000
0001
0010
1000
0020
0000
0000
0000
0000
0000
,  // measure 20
0030
0000
0010
1000
0000
0001
0100
0000
0100
0010
0000
0000
1000
0000
0010
0100
0000
0000
1000
0000
0000
0001
0000
0000
,  // measure 21
0100
0000
0010
1000
0000
0010
1000
0000
0001
0000
0000
1000
0001
0000
0000
0100
0000
0000
0010
0100
0001
1000
0000
0000
,  // measure 22
0001
0000
0000
1000
0000
0001
0100
0000
0000
0010
0000
1000
0000
0000
0001
1000
0000
1000
0010
0000
1000
0100
0000
0001
,  // measure 23
0010
0000
0100
1000
0000
0000
0001
0000
0100
0010
0000
1000
0100
0000
0000
1000
0000
0100
0000
0000
0010
0000
0000
0010
,  // measure 24
0000
0000
0010
0000
0000
0010
0001
0100
0010
1000
0000
0001
1000
0000
0001
1000
0100
0001
0220
0000
0000
0330
0000
0000
,  // measure 25
1000
0000
0001
1000
0000
0001
1000
0000
0001
1000
0000
0001
0000
0000
1000
0001
0000
1000
0002
0000
0000
0000
0003
0100
,  // measure 26
0000
0000
1001
0000
0000
0000
0100
1000
0100
1000
0100
1000
0010
1000
0010
1000
0010
1000
0001
1000
0001
1000
0100
0010
,  // measure 27
0001
0010
0100
1000
0100
0001
0010
0001
0010
0001
0100
0001
0100
0001
1000
0001
1000
0001
0010
1000
0010
1000
0010
1000
,  // measure 28
0100
0000
0010
0100
0000
0010
0100
0000
0010
0100
0000
0010
0000
0000
0100
0010
0000
0100
0020
0000
0000
0000
0030
1000
,  // measure 29
0000
0000
0110
0000
0000
0000
0010
0001
0010
0001
0010
0001
1000
0001
1000
0001
1000
0001
0010
0001
0010
0001
0010
0001
,  // measure 30
1000
0000
0000
0000
0000
0000
0000
0000
0100
0000
0000
0000
0000
0000
0000
0000
0010
0000
0000
0000
0000
0000
0000
0000
0001
0000
0000
0000
0000
0000
0000
0000
0010
0000
0000
0000
0000
0000
0000
0000
0100
0000
0000
0000
0000
0000
0000
0000
1000
0000
0000
0000
0000
0000
0000
0000
0100
0000
0000
0000
0000
0000
0000
0000
0001
0000
0000
0000
0000
0000
0000
0000
0100
0000
0000
0000
0000
0000
0000
0000
0001
0000
0000
0000
0000
0000
0000
0000
0100
0000
0000
0000
0000
0000
0000
0000
0010
0000
0000
0000
0000
0000
0000
0000
0100
0000
0000
0000
0000
0000
0000
0000
0010
0000
0000
0000
0000
0000
0000
0000
0100
0000
0000
0000
0000
0000
0000
0000
0001
0000
0000
0000
0000
0000
0000
0000
0100
0000
0000
0000
0000
0000
0000
0000
0001
0000
0000
0000
0000
0000
0000
0000
0100
0000
0000
0000
0000
0000
0000
0000
1000
0000
0000
0000
0000
0000
0000
0000
0001
0000
0000
0000
0000
0000
0010
0000
0000
0000
0000
0000
0100
0000
0000
0000
0000
0000
1000
0000
0000
0000
0000
0000
,  // measure 31
0020
0000
2030
3002
0203
0320
0000
0000
,  // measure 32
0200
0030
0000
0000
0000
0000
0000
0000
0000
0320
0000
0000
0000
0000
0000
2030
0000
0000
3200
0000
0000
0320
0000
0000
,  // measure 33
0032
0000
0000
0203
0000
0000
0302
2003
,  // measure 34
3020
0230
0302
2003
0000
0000
3002
0000
,  // measure 35
2003
3020
0000
0230
2300
3002
2003
0000
,  // measure 36
0000
3000
0000
0022
0000
0000
0000
0000
0000
0033
0000
0000
0000
0000
0010
1000
0000
0010
1000
0000
0001
0100
0000
0001
,  // measure 37
0100
0000
0001
0100
0000
0010
0100
0000
0010
1000
0000
0010
1000
0000
0010
0100
0000
0010
0100
0000
0010
1000
0000
0010
,  // measure 38
0100
0000
0001
0000
0000
1000
0100
0000
0010
0001
0000
1000
0000
0000
0001
0010
0000
0100
1000
0000
0100
1000
0000
1000
,  // measure 39
0100
0000
0100
0010
0000
0001
0010
0000
0001
0010
0100
1000
0000
0000
1000
0100
0000
1000
0100
0000
0010
0100
0000
0010
,  // measure 40
0001
0000
0010
0001
0000
0100
0001
0000
1000
0000
0000
0001
0000
0000
1000
0100
0000
1000
0100
0000
1000
0100
0000
1000
,  // measure 41
0010
0000
1000
0010
0000
0100
1000
0010
0100
0010
0000
1000
0010
0000
0100
1000
0010
0100
0001
0000
0100
0001
0000
0100
,  // measure 42
0001
0100
0010
0100
0000
0010
1000
0100
0010
0100
0010
1000
0100
1000
0100
1000
0010
1000
0010
1000
0001
1000
0001
1000
,  // measure 43
0010
1000
0010
1000
0100
0010
0001
0010
0100
0010
0100
0010
0100
0010
0100
0010
0100
0010
0100
0010
0100
0010
0100
0010
,  // measure 44
1000
0000
0001
0000
0000
1000
0001
0000
0100
0010
0000
0100
0010
0000
1000
0100
0010
0100
0001
0010
0100
0001
0010
0100
,  // measure 45
1000
0100
0010
1000
0100
0010
1000
0010
0100
1000
0010
0100
0001
0000
0001
0000
0000
0001
0000
0000
0001
0010
0100
1000
,  // measure 46
0010
0100
0001
0100
0000
1000
0001
0000
0001
1000
0000
1000
0001
0000
0100
0010
0000
0100
1000
0010
1000
0100
0010
0100
,  // measure 47
0010
0000
0001
0010
0000
0100
0010
1000
0010
0100
0000
0010
0100
0000
1000
0100
0010
0100
1000
0000
0100
0010
0000
0001
,  // measure 48
1000
0100
0010
0001
0010
1000
0100
0000
0010
0001
0000
0000
1000
0000
0010
0100
0000
0010
0100
1000
0100
0001
0100
1000
,  // measure 49
0010
0000
0100
0000
0001
0000
1000
0000
0010
0000
1000
0000
0100
0000
0010
0000
0001
0000
0100
0000
0010
0000
1000
0000
0100
0000
0001
0000
1000
0000
0001
0000
0100
0000
0001
0000
0100
0000
0010
0000
0100
0000
1000
0000
0100
0000
0001
0020
,  // measure 50
0000
0000
0000
0030
0000
0010
1000
0100
0010
0001
0000
0000
0100
0000
0000
0010
0000
0000
1000
0000
0001
0100
0000
0010
,  // measure 51
1000
0001
0100
0010
1000
0100
0001
0000
0100
1000
0010
0100
0010
0000
0000
0001
0000
0100
0010
0000
0100
1000
0000
0100
,  // measure 52
0000
0000
0100
0001
0010
0100
1000
0000
0001
1000
0100
0001
0100
1000
0010
0100
1000
0010
0001
0010
0100
1000
0001
0010
,  // measure 53
0200
0000
0000
0300
0000
1000
0010
0100
1000
0020
0000
0000
0230
0000
0000
0302
0000
0000
1003
0000
0001
0100
0000
0001
,  // measure 54
0100
0001
0010
1000
0000
0001
0100
0001
0010
1000
0000
0100
0010
0000
0001
0100
0000
0001
0100
0000
0010
1000
0000
0010
,  // measure 55
0100
0000
1000
0100
0010
0100
1000
0000
0100
1000
0000
0100
0010
0000
0010
0100
0000
0100
1000
0000
1000
0001
1000
0001
,  // measure 56
1000
0000
0010
0100
0000
0010
0100
0000
0001
0010
0000
0100
1000
0000
0010
0100
0001
0010
1000
0000
0001
0100
0000
0000
,  // measure 57
0010
0000
0000
0000
0000
0000
0000
0000
0000
0000
0000
0000
0000
0000
0000
0000
1000
0000
0000
0000
0000
0000
0000
0000
0001
0000
0000
0000
0000
0000
0000
0000
0000
0000
0000
0000
0000
0000
0000
0000
0000
0000
0000
0000
0000
0000
0000
0000
2002
0000
3003
0000
0000
0000
0000
0000
0000
0000
0000
0000
0000
0000
0000
0000
0000
0000
0000
0000
0000
0000
0000
0000
0000
0000
0000
0000
0000
0000
0000
0000
0000
0000
0000
0000
0000
0000
0000
0000
0000
0000
0000
0000
0000
0000
0000
0000
0000
0000
0000
0000
0000
0000
0000
0000
0000
0000
0000
0000
0000
0000
0000
0000
0000
0000
0000
0000
0000
0000
0000
0000
0000
0000
0000
0000
0000
0000
0000
0000
0000
0000
0000
0000
0000
0000
0000
0000
0000
0000
0000
0000
0000
0000
0000
0000
0000
0000
0000
0000
0000
0000
0000
0000
0000
0000
0000
0000
0000
0000
0000
0000
0000
0000
0000
0000
0000
0000
0000
0000
0000
0000
0000
0000
0000
0000
0000
0000
0000
0000
0000
0000
0000
0000
0000
0000
0000
0000
0000
0000
0000
0000
0000
0000
;
