#TITLE:the garden with red dragon shouts;
#SUBTITLE:;
#ARTIST:DeadballP;
#TITLETRANSLIT:;
#SUBTITLETRANSLIT:;
#ARTISTTRANSLIT:;
#CREDIT:M.L-INS;
#BANNER:../Tachyon DIVA.png;
#BACKGROUND:../Tachyon DIVA-bg.png;
#LYRICSPATH:;
#CDTITLE:;
#MUSIC:the garden with red dragon shouts.ogg;
#OFFSET:0.040;
#SAMPLESTART:31.433;
#SAMPLELENGTH:12.000;
#SELECTABLE:YES;
#BPMS:0.000=190.002,87.000=195.003,92.000=195.003;
#STOPS:;
#BGCHANGES:;
// cache tags:
#FIRSTBEAT:2.000;
#LASTBEAT:325.333;
#SONGFILENAME:Songs/Tachyon DIVA/NgmeN[M.L-INS]/the garden with red dragon shouts.sm;
#HASMUSIC:1;
#HASBANNER:1;
#MUSICLENGTH:101.006;
// end cache tags

//---------------dance-single - Blank----------------
#NOTES:
     dance-single:
     Blank:
     Challenge:
     13:
     1.000,1.000,0.079,0.406,1.000,847.000,8.000,41.000,4.000,0.000:
0000
0000
0000
0000
0000
0000
0000
0000
2002
0000
3003
0000
0000
0000
0000
1000
,
0000
0000
0000
0000
0000
0000
0001
0000
0000
0000
0000
0000
0010
0000
0000
0000
0000
0000
0100
0000
0000
0000
0000
0000
1000
0000
0000
0000
0100
0000
0000
0000
0010
0000
0000
0000
0001
0000
0000
1000
0000
0000
0010
0000
0000
0100
0000
0000
,
0040
0000
0000
0000
0000
0000
0000
0000
0000
0000
0000
0000
0000
0030
0000
0000
,
1000
0001
0010
0100
1000
0010
0100
0001
1000
0100
0010
0001
0100
0010
1000
0010
,
0400
0000
0001
0300
1000
0000
0100
0000
0010
0000
0100
0000
1000
0000
0001
0000
0100
0000
0001
0000
1000
0000
0010
0000
,
0100
0001
0010
0100
1000
0100
0010
0001
1000
0100
0010
0100
,
1000
0001
0100
0001
0010
0100
0010
0001
1000
0100
0010
0001
,
0010
0100
1000
0001
0100
0010
1000
0100
0010
0001
0100
0010
,
1000
0001
1000
0001
0100
0010
1000
0100
0010
0001
0100
0010
,
1000
0000
0001
0000
0100
0000
0010
0000
1000
0000
0100
0000
0010
0000
0001
0000
0100
0000
0010
0000
1000
0001
1000
0000
,
0100
0010
0001
1000
0010
1000
0001
0010
0100
1000
0001
0100
,
0010
1000
0010
0100
0001
1000
0100
0010
0001
0100
0010
1000
,
0010
0100
0001
0010
0100
1000
0100
0010
0001
1000
0100
0010
,
0001
1000
0001
0010
0100
0010
0001
0100
0001
1000
0010
1000
,
0100
0010
0100
1000
0010
0100
0001
0100
0010
1000
0010
0100
,
0001
1000
0100
0010
0001
1000
0010
1000
0001
0100
0010
1000
,
0400
0000
0000
0000
,
0000
0000
0000
0000
0000
0320
0000
0000
0000
0000
0032
0000
,
0000
0000
0000
0000
0000
0000
2003
0000
0000
0000
0000
0000
3001
0100
0010
1000
0010
0100
0001
0010
0100
1000
0010
0100
,
0010
0000
1000
0000
0100
0000
1000
0000
0001
0000
0100
0000
0001
0000
0010
0000
0100
0000
0010
0000
0001
0000
1000
0000
0100
0000
0010
0000
0001
0000
4000
0000
0000
0000
0000
0000
0000
0000
0000
0000
0000
0000
3001
0000
0000
0100
0000
0000
,
0001
0100
0001
0100
0001
0100
0001
0400
0004
0000
0000
0000
0000
0000
0000
0000
,
0000
0000
0000
0000
0000
0000
0303
0000
0000
0000
0000
0000
0M0M
0000
0000
0000
0000
0000
1000
0001
0100
0001
1000
0000
,
0001
0000
0100
0000
0010
0000
1000
0000
0001
0000
0010
0000
0100
0000
1000
0000
0100
0000
0010
0001
1000
0000
0001
0000
,
1000
0001
1000
0200
0300
0010
0001
1000
0010
0100
0001
0010
,
0200
0300
1000
0100
0010
0001
0100
0010
1000
0002
0003
1000
,
0001
0100
0010
0100
0001
1000
0002
0003
1000
0100
0010
0001
,
0100
0010
1000
0200
0300
0010
0001
0100
0010
1000
0001
0010
,
0200
0300
1000
0001
0010
0100
0010
0001
1000
0020
0030
0100
,
0001
0010
0100
0010
0001
1000
0001
1000
0010
0100
0010
1000
,
0010
1000
0001
0100
0010
1000
0010
0100
0001
0010
0100
0010
,
0001
1000
0100
0010
0100
1000
0001
0100
0010
1000
0100
0010
,
0100
1000
0001
0100
0001
1000
0400
0000
0000
0000
0000
0000
,
0320
0000
0030
0001
1000
0010
0100
0001
0100
0001
1000
0100
,
0010
0100
1000
0001
0100
0010
1000
0100
0010
0100
1000
0001
,
0100
0001
0010
0100
1000
0001
0040
0000
0000
0000
0000
0000
,
0130
0000
0000
1000
0001
0100
0010
0100
0001
1000
0001
0010
,
0100
0010
0001
1000
0100
1000
0001
0100
0001
0010
0100
0010
,
0001
0000
1000
0000
0100
0000
0010
0000
0100
0000
1000
0000
0002
0000
1003
0100
1000
0100
1000
0100
1000
0001
0000
0010
,
0000
0100
0000
1000
0000
0200
0000
0000
0300
0010
0000
0001
0000
1000
0000
0010
0000
0100
0000
0001
0000
0010
0000
0200
,
0000
0000
0000
1300
0000
0001
0000
0100
0000
0010
0000
1000
0000
0100
0000
0010
0000
0002
0000
0000
0003
1000
0000
0010
,
0000
0100
0000
0001
0000
1000
0000
0100
0000
0010
0000
0100
0000
1000
0000
0001
0000
0100
0000
0001
0000
0010
0000
0100
,
0000
0010
0000
0001
0000
2000
0000
0000
3000
0001
0000
0100
0000
0010
0000
1000
0000
0010
0000
0100
0000
0001
0000
2000
,
0000
0000
3000
0010
0000
1000
0000
0100
0000
0010
0000
0001
0000
1000
0000
0010
0000
0200
0000
0000
0300
0001
0000
0100
,
0000
0001
0000
1000
0000
0010
0000
1000
0000
0100
0000
0010
0000
0001
0000
0100
0000
0010
0000
1000
0000
0001
0000
0010
,
0000
0100
0000
1000
0000
0002
0000
0000
0003
1000
0000
0100
0000
0010
0000
0001
0000
0100
0000
0010
0000
1000
0000
0002
,
0000
0000
0003
0010
0000
0100
0000
1000
0000
0001
0000
0100
0000
0010
0000
1000
0000
0200
0000
0000
0300
0010
0000
0001
,
0000
1000
0000
0010
0000
1000
0000
0001
0000
0100
0000
0001
0000
1000
0000
0100
0000
0010
0000
0001
0000
0010
0000
0100
,
0000
1000
0000
0001
0000
0000
1000
0000
0000
0100
0000
0000
0020
0000
0000
0000
0000
0000
0032
0000
0000
0000
0000
0000
,
0203
0000
0000
0000
0000
0000
0301
0000
0000
0100
0000
0000
0010
0000
0000
1000
0000
0000
0100
0000
0000
0000
0010
0000
,
0100
0000
0100
1000
0000
1000
0010
0100
0001
0010
0100
1000
,
0100
0000
0000
0000
0010
0000
0000
0000
0001
0000
0000
0000
1000
0000
0000
0000
0000
0000
0001
0000
0000
0100
0000
0000
0001
0000
0000
0000
0000
0000
0010
0000
0000
0100
0000
0000
0010
0000
0000
0000
0000
0000
0001
0000
0000
0000
0000
0000
,
1000
0000
0010
0100
0010
0000
1000
0100
1000
0000
0001
0000
1000
0000
0001
0100
,
0001
0000
1000
0010
1000
0000
0100
0000
0010
0000
0001
0010
0100
0000
1000
0100
,
0010
0000
0001
0000
1000
0000
0001
0100
0010
0000
1000
0100
0010
0000
0001
0000
,
0100
0000
0010
1000
0100
0000
0010
0001
0100
0000
0010
0000
1000
0000
0001
0010
,
0100
0000
1000
0100
0010
0000
0001
0000
0100
0000
0010
1000
0001
0000
1000
0010
,
0100
0000
0000
0001
0000
0000
2000
0000
0000
0000
3001
0000
0100
0000
0010
0000
1000
0000
0001
0000
0010
0000
0100
0000
,
0020
0000
0031
0100
0010
1000
0100
0010
0001
0200
0000
0310
,
1000
0001
0100
0010
1000
0100
2000
0000
3001
0100
0001
0010
,
0100
0010
0001
0400
0000
0000
0000
0000
0000
0301
0010
0010
,
0001
0100
0100
0001
0010
0010
0100
1000
1000
0001
0100
0100
,
0010
1000
0100
0010
0001
0100
0010
1000
0010
0100
0001
0010
,
0100
0000
0000
1000
0000
0000
0200
0000
0000
0000
0000
0000
1300
0000
0001
0000
0100
0000
0010
0000
1000
0000
0010
0000
,
0100
0000
0000
0000
0001
0000
0000
0000
1000
0000
0000
0000
0100
0000
0000
0000
0010
0000
0000
0000
0100
0000
0000
0000
1000
0000
0000
0000
0000
0000
0001
0000
0000
0000
0000
0000
0200
0000
0000
0000
0000
0000
0000
0000
0000
0300
0000
0000
,
0010
1000
0001
0100
0001
1000
0010
1000
0100
0020
0032
0023
,
0230
2300
3001
1000
0001
1000
0010
0100
0001
0010
0100
0010
,
0001
1000
0100
0010
0001
0100
0010
1000
0001
0100
0010
1000
,
0001
0010
0100
1000
0100
0010
0002
0000
0000
0000
M000
0000
,
0103
0000
0000
0010
1000
0001
0100
0001
1000
0100
1000
0001
,
0100
0001
0010
0001
1000
0010
1000
0100
1000
0001
0010
0100
,
1000
0001
0100
0010
1000
0100
0020
0000
0000
0000
0000
0000
,
0031
0000
0000
1000
0100
1000
0001
0100
0001
0100
0010
1000
,
0100
0010
0100
1000
0001
0100
0001
0010
0001
1000
0010
1000
,
0100
0010
0100
1000
0001
0100
0010
1000
0100
0010
0001
0100
,
0010
1000
0001
0100
0010
1000
0100
1000
0001
0100
0001
0010
,
0100
0010
0001
1000
0100
1000
0001
0100
0001
1000
0010
0100
,
0001
0010
0001
1000
0100
1000
0010
0100
0010
1000
0001
1000
,
0100
0010
0001
0010
0100
1000
0001
0010
0100
1000
0010
0100
,
0001
1000
0100
0010
0001
1000
0100
1000
0001
1000
0010
1000
,
0001
0100
0001
1000
0100
1000
0001
0010
0100
1000
0100
0010
,
0001
1000
0001
1000
0100
0010
0100
1000
0001
0100
0010
1000
,
2002
0000
0000
0000
3M03
0000
0000
0000
0000
0000
0000
0000
;
