#TITLE:To Make the End of Digging;
#SUBTITLE:Gurumin (2004);
#ARTIST:Sound Team JDK;
#TITLETRANSLIT:;
#SUBTITLETRANSLIT:;
#ARTISTTRANSLIT:;
#CREDIT:;
#BANNER:To Make the End of Digging.png;
#BACKGROUND:To Make the End of Digging-bg.png;
#LYRICSPATH:;
#CDTITLE:!Necros.png;
#MUSIC:To Make the End of Digging.mp3;
#OFFSET:-0.584;
#SAMPLESTART:42.204;
#SAMPLELENGTH:11.700;
#SELECTABLE:YES;
#BPMS:0.000=165.000;
#STOPS:;
#BGCHANGES:;
// cache tags:
#FIRSTBEAT:2.500;
#LASTBEAT:388.000;
#SONGFILENAME:Songs/VGMP 3/To Make the End of Digging (Necros)/To Make the End of Digging.sm;
#HASMUSIC:1;
#HASBANNER:1;
#MUSICLENGTH:145.115;
// end cache tags

//---------------dance-single - ----------------
#NOTES:
     dance-single:
     :
     Hard:
     12:
     1.000,1.000,1.000,0.896,0.648,864.000,397.000,130.000,0.000,108.000:

0000
0000
0000
0000
0000
0100
1111
0001
,
1101
0000
0000
0010
0000
0000
0101
0000
0000
0010
0000
0000
1001
0000
0000
0100
0001
1000
0101
0000
0000
1000
0000
0000
,
0011
0000
0000
0100
0000
0000
1001
0000
0000
0100
0001
0010
1100
0000
0000
0001
0000
0000
0110
0000
0000
0011
0000
0000
,
1101
0000
0000
0010
0000
0000
0101
0000
0000
0010
0000
0000
1001
0000
0000
0100
0001
1000
0101
0000
0000
1000
0000
0000
,
0011
0000
0000
0000
0000
0000
0100
0000
0000
0000
0000
0000
1001
0000
0000
0000
0000
0000
0010
0000
0000
0000
0000
0000
0101
0000
0000
0000
0000
0000
1001
0000
0010
1000
0100
0000
0011
0000
0000
0000
0000
0000
1011
0000
0000
0000
0000
0000
,
1101
0000
0000
0010
0000
0000
0101
0000
0000
0010
0000
0000
1001
0000
0000
0100
0001
1000
0101
0000
0000
1000
0000
0000
,
0011
0000
0000
0100
0000
0000
1001
0000
0000
0100
0001
0010
1100
0000
0000
0001
0000
0000
0110
0000
0000
0011
0000
0000
,
1101
0000
0000
0000
0000
0000
0010
0000
0000
0000
0000
0000
0101
0000
0000
0000
0000
0000
0010
0000
0000
0000
0000
0000
1001
0000
0000
0000
0000
0000
0100
0000
0001
0000
1000
0000
0101
0000
0000
0000
0000
0000
0010
0000
0000
0001
0000
0000
,
1110
0001
1100
0010
1100
0001
0010
1000
0110
1000
0011
1100
0011
1000
0101
0010
,
1101
0000
0001
0000
1100
0010
1001
0000
0110
0000
0001
0000
1100
0010
1001
0000
,
0110
0000
0010
0000
0111
1000
0011
0000
0100
0000
1010
0000
1100
0010
1001
0000
,
0110
0000
0001
0000
1100
0010
1001
0000
0110
0000
0001
0000
1100
0010
1001
0000
,
0110
0000
1001
0000
1100
0001
1010
0000
1000
0000
0101
1000
0011
0100
1011
0000
,
0110
0000
0001
0000
1100
0010
1001
0000
0110
0000
0001
0000
1100
0010
1001
0000
,
0110
0000
0010
0000
0111
1000
0011
0000
1000
0000
0101
0000
0111
1000
0110
0000
,
0011
0000
1000
0000
0111
1000
0100
0000
1010
0000
0101
0000
0010
0000
1100
0000
,
0101
1000
0011
1000
0101
0010
1100
0001
1010
0100
1001
0110
1001
0010
1101
0010
,
1101
0000
0001
0000
1100
0010
1001
0000
0110
0000
0001
0000
1100
0010
1001
0000
,
0110
0000
0010
0000
0111
1000
0011
0000
0100
0000
1010
0000
1100
0010
1001
0000
,
0110
0000
0001
0000
1100
0010
1001
0000
0110
0000
0001
0000
1100
0010
1001
0000
,
0110
0000
1001
0000
1100
0001
1010
0000
1000
0000
0101
1000
0011
0100
1011
0000
,
0110
0000
0001
0000
1100
0010
1001
0000
0110
0000
0001
0000
1100
0010
1001
0000
,
0110
0000
0010
0000
0111
1000
0011
0000
1000
0000
0101
0000
0111
1000
0110
0000
,
0011
0000
1000
0000
0111
1000
0100
0000
1010
0000
0101
0000
0010
0000
1100
0000
,
0101
1000
0011
1000
0101
0010
1100
0001
1010
0100
2001
0010
3201
1000
0321
1000
,
0132
0000
0000
0203
,
0320
0000
0000
2030
0000
0000
3020
0000
,
0230
0000
0320
0032
0000
0023
0000
0230
,
0000
0000
0302
0000
0023
0000
2030
0000
0000
3000
2000
0000
3200
0000
0320
0000
,
0032
0000
0000
0203
,
0320
0000
0000
2030
0000
0000
3020
0000
,
0230
0000
0320
0032
0000
0023
0000
0230
,
0000
0000
0302
0000
0023
0000
2030
0000
0000
3000
2000
0000
3200
0000
0320
0000
,
0032
0000
0000
0203
,
0320
0000
0000
0000
0000
0000
0000
0000
0000
0000
0000
0000
0031
0100
2000
0000
0000
0000
0000
0000
0000
0000
0000
0000
3020
0000
0000
0000
0000
0000
0000
0000
,
0230
0000
0320
0032
0000
0023
0000
0230
,
0000
0000
0302
0000
0023
0000
2030
0000
0000
3000
2000
3000
2000
0000
3002
0000
,
0203
0000
2300
3020
0000
0032
0000
2003
,
0000
0000
3200
0302
0000
0023
0000
0230
,
0000
0000
0000
0000
0000
0000
2300
3020
2030
0000
0000
0000
0000
0000
0000
0000
,
3001
0100
0001
1000
0201
1000
0001
1000
0321
1000
0001
0100
2031
0100
0001
0100
,
3012
0010
0010
0213
,
1320
0000
0001
2030
0100
0000
3120
0000
,
0231
0000
1320
0032
0100
0023
1000
0230
,
1000
0000
0302
0000
1023
0000
2030
0000
0100
3000
2000
0001
3210
0000
1320
0000
,
1032
0010
0010
0213
,
1320
0000
0001
2030
0100
0000
3120
0000
,
0231
0000
1320
0032
0100
0023
1000
0230
,
1000
0000
0302
0000
1023
0000
2030
0000
0001
3000
2000
0001
3210
0000
1320
0000
,
1032
0010
0010
0213
,
1320
0000
0000
0000
0000
0000
0000
0000
1000
0000
0000
0000
0031
0100
2000
0000
0010
0000
0000
0000
0000
0000
0000
0000
3120
0000
0000
0000
0000
0000
0000
0000
,
0231
0000
1320
0032
0100
0023
1000
0230
,
1000
0000
0302
0000
1023
0000
2030
0000
0100
3000
2000
0001
3210
0000
1320
0000
,
1230
0000
2301
3020
0100
0032
0100
2003
,
0100
0000
3210
0302
1000
0023
1000
0230
,
0001
0000
0000
0000
0001
0000
2300
3020
2130
0000
0000
0000
0100
0000
0000
0000
,
3001
0100
0011
1000
0211
1000
0011
1000
0321
1000
0001
0100
2031
0100
3011
0100
,
1011
0100
1000
0011
0100
1000
0011
1100
,
0001
0010
0100
0001
0010
0100
0001
1000
,
0011
0100
1000
0011
0100
1000
0011
1100
,
0001
0010
0100
0001
0010
0100
0001
1000
,
1011
0000
1100
0001
1010
0000
1011
0000
1100
0010
1001
0000
1110
0000
0101
1000
,
0011
0000
1110
0000
0110
1000
0101
0000
1110
0000
0100
1000
0111
0000
1000
0000
,
1111
0000
1100
0001
1010
0000
1011
0000
1100
0010
1001
0000
1110
0000
0101
1000
,
0011
0100
1011
0100
1001
0010
1100
0010
1101
0010
0100
1001
0110
0001
1100
0010
,
1101
0000
0000
0010
0000
0000
0101
0000
0000
0010
0000
0000
1001
0000
0000
0100
0001
1000
0101
0000
0000
1000
0000
0000
,
0011
0000
0000
0100
0000
0000
1001
0000
0000
0100
0001
0010
1100
0000
0000
0001
0000
0000
0110
0000
0000
0011
0000
0000
,
1101
0000
0000
0010
0000
0000
0101
0000
0000
0010
0000
0000
1001
0000
0000
0100
0001
1000
0101
0000
0000
1000
0000
0000
,
0011
0000
0000
0000
0000
0000
0100
0000
0000
0000
0000
0000
1001
0000
0000
0000
0000
0000
0010
0000
0000
0000
0000
0000
0101
0000
0000
0000
0000
0000
1001
0000
0010
1000
0100
0000
0011
0000
0000
0000
0000
0000
1011
0000
0000
0000
0000
0000
,
1101
0000
0000
0010
0000
0000
0101
0000
0000
0010
0000
0000
1001
0000
0000
0100
0001
1000
0101
0000
0000
1000
0000
0000
,
0011
0000
0000
0100
0000
0000
1001
0000
0000
0100
0001
0010
1100
0000
0000
0001
0000
0000
0110
0000
0000
0011
0000
0000
,
1101
0000
0000
0000
0000
0000
0010
0000
0000
0000
0000
0000
0101
0000
0000
0000
0000
0000
0010
0000
0000
0000
0000
0000
1001
0000
0000
0000
0000
0000
0100
0000
0001
0000
1000
0000
0101
0000
0000
0000
0000
0000
0010
0000
0000
0001
0000
0000
,
1110
0001
1100
0010
1100
0001
0010
1000
0110
1000
0011
1100
0011
1000
0101
0010
,
1001
0000
0101
1000
0011
0000
0001
1000
,
0011
0000
1010
0001
0010
0100
0001
1000
,
0111
0100
1010
1100
0111
0000
0100
1000
,
0111
0000
1100
0000
0011
0000
0101
0000
1000
0000
0101
0010
1001
0000
1010
0000
,
0111
0100
1010
1100
0111
0000
0001
1000
,
0011
0000
1010
0001
0010
2100
3001
1000
,
0111
0000
1000
0000
0011
0100
0001
0000
1110
0000
0101
0000
0010
0000
1101
0010
,
1001
0100
1011
0100
1010
0001
1110
0001
1000
0001
1100
0010
1001
0010
1101
0010
,
1101
0000
0001
0000
1100
0010
1001
0000
0110
0000
0001
0000
1100
0010
1001
0000
,
0110
0000
0010
0000
0111
1000
0011
0000
0100
0000
1010
0000
1100
0010
1001
0000
,
0110
0000
0001
0000
1100
0010
1001
0000
0110
0000
0001
0000
1100
0010
1001
0000
,
0110
0000
1001
0000
1100
0001
1010
0000
1000
0000
0101
1000
0011
0100
1011
0000
,
0110
0000
0001
0000
1100
0010
1001
0000
0110
0000
0001
0000
1100
0010
1001
0000
,
0110
0000
0010
0000
0111
1000
0011
0000
1000
0000
0101
0000
0111
1000
0110
0000
,
0011
0000
1000
0000
0111
1000
0100
0000
1010
0000
0101
0000
0010
0000
1100
0000
,
0101
1000
0011
1000
0101
0010
1100
0001
1010
0100
1001
0110
1001
0010
1101
0010
,
1101
0000
0001
0000
1100
0010
1001
0000
0110
0000
0001
0000
1100
0010
1001
0000
,
0110
0000
0010
0000
0111
1000
0011
0000
0100
0000
1010
0000
1100
0010
1001
0000
,
0110
0000
0001
0000
1100
0010
1001
0000
0110
0000
0001
0000
1100
0010
1001
0000
,
0110
0000
1001
0000
1100
0001
1010
0000
1000
0000
0101
1000
0011
0100
1011
0000
,
0110
0000
0001
0000
1100
0010
1001
0000
0110
0000
0001
0000
1100
0010
1001
0000
,
0110
0000
0010
0000
0111
1000
0011
0000
1000
0000
0101
0000
0111
1000
0110
0000
,
0011
0000
1000
0000
0111
1000
0100
0000
1010
0000
0101
0000
0010
0000
1101
0000
,
0101
1000
0111
1000
0011
0100
1011
0100
0001
0100
0011
0100
1001
0100
1011
0100
,
1011
0000
0000
0000
;
