#TITLE:A.DOGMA;
#SUBTITLE:;
#ARTIST:Asaki;
#TITLETRANSLIT:;
#SUBTITLETRANSLIT:;
#ARTISTTRANSLIT:;
#CREDIT:;
#BANNER:A.DOGMA-bn.png;
#BACKGROUND:A.DOGMA-bg.jpg;
#LYRICSPATH:;
#CDTITLE:Type MARS.png;
#MUSIC:A.DOGMA.mp3;
#OFFSET:-0.420;
#SAMPLESTART:81.340;
#SAMPLELENGTH:13.060;
#SELECTABLE:YES;
#BPMS:0.000=73.500,10.000=147.000,38.000=73.500,39.000=294.000,231.000=147.000,260.000=294.000,482.500=147.010,486.500=190.000;
#STOPS:;
#BGCHANGES:;
// cache tags:
#FIRSTBEAT:0.000;
#LASTBEAT:486.500;
#SONGFILENAME:Songs/Definitive Keyboard Megapack/A.DOGMA (TypeMARS)/A.DOGMA.sm;
#HASMUSIC:1;
#HASBANNER:1;
#MUSICLENGTH:123.410;
// end cache tags

//---------------dance-single - ----------------
#NOTES:
     dance-single:
     :
     Hard:
     10:
     1.000,1.000,0.624,0.097,0.478,876.000,77.000,12.000,0.000,0.000:
2001
0000
0001
0000
0000
0000
0000
0000
0000
0000
0000
0000
0000
0000
0010
0000
0000
0000
0000
0000
0001
0000
0100
0000
0000
0000
0010
0000
0000
0000
0001
0100
,
3001
0000
0000
0000
0000
0000
0010
0000
1000
0000
0100
0001
1000
0000
0010
0000
0000
0000
0000
0000
0000
0000
0000
0000
0000
0000
0210
0001
0010
0001
0010
0000
,
0001
0000
0000
0000
0000
0000
0000
0000
0010
0000
0310
0000
0010
0000
0010
1000
0001
0000
0000
0000
0010
0000
1000
0000
0001
0000
0000
0000
0100
0000
0010
0000
,
1000
0000
0100
0000
0001
0010
0100
1000
0100
0000
0010
0000
0001
0000
0100
0000
,
0010
0000
1000
0100
0010
0000
0001
0100
0010
0000
1000
0100
0010
0001
0100
0010
,
1000
0000
0100
0000
0001
0010
0100
1000
0110
0000
0010
0001
1000
0000
0010
1000
,
0100
0000
0001
0100
0010
1000
0000
1001
0000
0010
0100
0001
1000
0000
0010
0001
,
0100
0000
0010
1000
0100
0001
0000
1001
0010
0000
0100
0000
0001
0100
1000
0010
,
0100
0000
0010
0001
0100
0010
0100
1000
0002
0000
0000
0000
0100
0000
0000
0000
,
0103
0000
0000
0000
0000
0000
0000
0000
0100
0000
0000
0000
0000
0000
0000
0000
0001
0010
0100
1000
0100
0010
0100
1000
0001
0000
0000
0000
0000
0000
0000
0000
,
1001
0000
0010
1000
0001
0100
0010
1000
,
0100
0000
0010
0001
0100
0010
1000
0100
,
0010
0000
1001
0000
1001
0000
0010
0001
,
0100
0010
1000
0100
0001
0000
0100
0010
,
0001
0100
0010
1000
0100
0000
1001
0000
,
0010
1000
0001
0000
0100
0001
1000
0000
,
0010
0001
0100
0000
0010
1000
0100
0000
,
0001
0100
1000
0000
0010
0001
0100
0000
,
0010
1000
0100
0000
0001
0100
0010
0100
,
1000
0010
0100
0001
0100
0010
1000
0000
,
0010
0001
0100
0000
0010
1000
0100
0010
,
0001
0000
0000
0100
0000
0000
0010
0000
0000
0000
0000
0000
1000
0000
0000
0010
0000
0000
0001
0000
0000
0000
1000
0000
,
0000
0010
0000
0100
0000
0001
0000
1000
0000
0010
0000
0100
,
0000
0001
0000
1000
0000
0010
0000
0100
0000
0010
0000
0001
,
0000
1000
0000
0001
0000
1100
0000
0011
0000
1001
0000
0000
,
1001
0000
0010
0001
0100
0010
1000
0100
,
0001
0000
0100
0010
1000
0100
0001
0100
,
1000
0000
0110
0000
0110
0000
0001
0100
,
0010
1000
0100
0010
0001
0000
0100
0010
,
0001
0100
0010
1000
0100
0000
1001
0000
,
0010
0001
0100
0000
0010
1000
0001
0000
,
0100
0001
1000
0000
0010
0001
0100
0000
,
0010
1000
0100
0000
0010
0100
0001
0000
,
0100
1000
0010
0000
0100
0001
1000
0100
,
0010
1000
0100
0010
0001
0100
1001
0000
,
0010
0001
0100
0000
0010
1000
0100
0001
,
0100
0010
1000
0000
0100
0001
0100
0000
,
0010
1000
0001
0100
0010
0001
0100
0000
,
0010
0000
0000
1000
0000
0000
0001
0000
0000
0100
0000
0000
0010
0000
0000
1000
0000
0000
0001
0000
0010
0000
0100
0000
,
1000
0000
0001
0000
0010
0000
0100
0000
0000
1000
0000
0000
0001
0000
0000
0100
0000
0000
0010
0000
0000
0000
0000
0000
,
1000
0001
0100
0000
0010
0100
0001
0100
,
1000
0010
0100
0000
0001
0100
0010
1000
,
0100
0001
0100
0000
0010
1000
0001
0000
,
0100
0001
0100
0000
0010
0100
0001
0100
,
0010
1000
0110
0000
0001
1000
0110
0000
,
1000
0001
0110
0000
1000
0001
1100
0000
,
0001
1000
0101
0000
0001
0010
1100
0000
,
1000
0100
0011
0000
1001
0000
0010
0001
,
0100
0010
1000
0000
0001
0100
0010
0001
,
0100
0010
0100
1000
0010
0100
0001
0100
,
0010
1000
0100
0001
0100
1000
0010
0100
,
0001
0100
0010
0100
1000
0001
0100
0001
,
0010
1000
0100
0010
0001
0100
0011
0000
,
0000
1100
0000
0000
1001
0000
0110
0000
,
0101
0000
0000
1001
0000
0000
0110
0000
0000
0001
0010
0100
,
0001
0000
0010
0000
0100
0000
1000
0000
0100
0000
0010
0000
1000
0000
0100
0000
0010
0000
0001
0000
0000
0010
0000
0000
,
1000
0001
0100
1000
0001
0010
0100
1000
,
0100
0000
0010
0000
0001
0000
0100
0000
0010
0000
0100
0000
1000
0000
0001
0100
,
0010
0000
1000
0010
0100
0000
0001
0100
1000
0000
1000
0010
0100
0000
0001
0100
,
0010
0000
1000
0010
0001
0000
0100
0010
1000
0100
0010
0000
0100
0001
0100
0010
,
1000
0000
0100
0001
0100
0000
0010
0100
0001
0000
1000
0010
0100
0000
1001
0000
,
0010
0000
0001
0100
0010
0000
1000
0001
0100
0000
0010
1000
0001
0000
1100
0000
,
0001
0100
0010
1000
0100
0010
0001
0100
0010
0000
1000
0001
0100
0010
1000
0100
,
0001
0010
0100
0000
0001
0100
0010
0000
1000
0010
0100
0001
0100
0000
0000
1100
,
0000
0000
0000
0101
0000
0000
0001
0010
0100
1000
0100
0010
0001
0010
0100
1000
0100
0010
0001
0010
0100
0001
0010
0100
,
1000
0101
1000
1100
,
0010
0110
1000
1001
,
0001
0101
0010
0110
,
1000
1001
0010
0101
,
0110
0000
1001
0000
0001
0010
0100
0001
,
0100
1000
0010
0100
0001
0010
1000
0001
,
0100
0010
1000
0100
0010
0001
0100
0010
,
1000
0100
0001
0100
1000
0010
0001
0100
,
0010
1000
0001
0100
0010
0001
0100
0010
,
1000
0100
0010
0001
0100
0010
0100
1000
,
0010
0001
0100
0010
0001
0100
0010
1000
,
0001
0000
0010
0000
0100
0000
0010
0000
0100
0000
1000
0000
0100
0000
0000
0001
0000
0000
0000
0000
0000
1001
0000
0000
,
0000
0100
0000
0110
0000
0001
0000
0101
,
0000
1000
0000
1100
0000
0001
0100
0010
,
1000
0100
0000
0001
0000
0100
0000
0010
,
0000
1000
0010
0001
0100
0010
1000
0100
,
0010
0001
0000
0101
0000
1000
0000
1100
,
0000
0010
0000
0110
0000
0001
0100
0010
,
1000
0100
0000
0010
0001
0100
0010
1000
,
0100
0010
0001
0100
0010
1000
0000
1001
,
0000
0001
0000
0101
0000
0010
0000
0110
,
0000
1000
0000
1001
0000
0010
0001
0100
,
0010
1000
0000
0100
1000
0010
0001
0100
,
0010
0001
0100
0010
1000
0100
0000
0010
,
0001
1000
0000
0010
1000
0001
0000
0100
,
0010
0100
0000
1000
0001
0100
0000
0010
,
0001
0100
0000
0010
1000
0100
0010
0001
,
0100
0010
1000
0100
0010
0100
0000
0101
,
0000
1000
0000
1001
0000
0010
0000
0101
,
0000
0100
0000
1100
0000
0010
0001
0100
,
0010
1000
0000
0100
1000
0010
0001
0100
,
0010
1000
0100
0010
0001
0100
0000
0101
,
0000
0010
0000
1010
0000
0100
0000
1001
,
0000
0010
0000
1001
0000
0010
0001
0100
,
0010
1000
0100
0010
0001
0100
0010
0100
,
1000
0002
0100
1000
0000
0103
0000
1100
,
0000
0001
0000
1001
0000
0010
0000
0110
,
0000
1000
0000
1001
0000
0010
0001
0100
,
0010
1000
0100
0010
0001
0100
0010
0100
,
1000
0010
0100
0001
0100
0010
0000
1000
,
0001
0100
0000
0010
0001
0100
0000
0010
,
1000
0001
0000
0100
0010
1000
0100
0010
,
0001
0100
0010
1000
0100
0001
0100
1000
,
0010
0100
0001
0100
0010
2000
0000
3100
,
0001
0100
0010
0100
1000
0002
0000
0103
,
0010
1000
0100
0001
0100
0010
0100
1000
,
0100
0001
0000
0001
0100
0010
0100
1000
,
0100
0010
0000
1001
0000
1000
0000
0010
,
0001
0100
0010
0001
0100
0010
0000
1000
,
0100
0011
0000
0110
0000
1100
0010
0001
,
0100
0010
1000
0010
0001
0100
0010
1100
,
0000
1001
0000
0110
0000
0001
0100
0010
,
0001
0100
0010
1000
0100
0001
0200
0000
,
0320
0000
2030
0000
3002
0000
0103
0010
,
1000
0100
0001
0100
0010
1000
0100
0001
,
0010
0100
0001
0100
0010
2002
0000
0000
,
0000
0000
0000
0000
0000
3003
0000
0000
;

//---------------dance-single - ----------------
#NOTES:
     dance-single:
     :
     Challenge:
     13:
     1.000,1.000,1.000,0.097,0.535,974.000,190.000,12.000,0.000,0.000:
0210
0000
0010
0000
0000
0000
0000
0000
0000
0000
0000
0000
0000
0000
1000
0000
0000
0000
0000
0000
0010
0000
0001
0000
0000
0000
1000
0000
0000
0000
0010
0001
,
0310
0000
0000
0000
0000
0000
1000
0000
0100
0000
0001
0010
0100
0000
1000
0000
0000
0000
0000
0000
0000
0000
0000
0000
0000
0000
1002
0010
1000
0010
1000
0000
,
0010
0000
0000
0000
0000
0000
0000
0000
1000
0000
1003
0000
1000
0000
1000
0100
0010
0000
0000
0000
1000
0000
0100
0000
0010
0000
0000
0000
0001
0000
1000
0000
,
0100
0000
0001
0100
0010
1000
0001
0100
0001
0000
1000
0000
0010
0000
0001
0000
,
1000
0000
0100
0001
1000
0100
0010
0001
1000
0000
0100
0001
1000
0010
0001
1000
,
0110
0000
0000
0000
0001
0000
1000
0100
0010
0000
1000
0000
0001
0000
0100
0000
1001
0000
0000
0000
1000
0000
0010
0000
0100
0000
0000
0000
1000
0000
0100
0000
,
0001
0000
0010
0001
1000
0110
0000
0110
0000
1000
0001
0010
0100
0000
1000
0010
,
0001
0000
1000
0100
0001
0110
0000
0110
1000
0000
0001
0000
0010
0001
0100
1000
,
0001
0000
0000
0000
1000
0000
0010
0100
0001
0000
1000
0100
0001
0010
0100
1000
0020
0000
0000
0000
0000
0000
0000
0000
0001
0000
0000
0000
0000
0000
0000
0000
,
0031
0000
0000
0000
0000
0000
0000
0000
0001
0000
0000
0000
0000
0000
0000
0000
0010
1000
0001
0100
0001
1000
0001
1000
0110
0000
0000
0000
0000
0000
0000
0000
,
0110
0000
1000
0100
1010
0001
1000
0100
,
0011
0000
1000
0110
0001
1000
0100
0001
,
1000
0000
0110
0000
0110
0000
1000
0010
,
0101
1000
0100
0001
1010
0000
0001
1100
,
0010
0001
1000
0100
0001
0000
0110
0000
,
1000
0100
0011
0000
0001
0010
1100
0000
,
1000
0010
0101
0000
1000
0100
0011
0000
,
0010
0001
1100
0000
1000
0010
0101
0000
,
1000
0100
0011
0000
0010
0001
1010
0001
,
0100
1000
0001
0010
0001
1000
0110
0000
,
1000
0010
0001
0000
1000
0100
0001
1000
,
0010
0000
0000
0001
0000
0000
1000
0000
0000
0000
0000
0000
0100
0000
0000
1000
0000
0000
0011
0000
0000
0000
1100
0000
,
0000
1100
0000
0011
0000
1001
0000
0110
0000
1001
0000
0010
,
0000
0100
0000
1001
0000
0010
0000
0100
0000
0101
0000
0110
,
0000
1100
0000
0110
0000
0101
0000
1010
0000
0110
0000
0000
,
0110
0000
1000
0010
0101
1000
0100
0001
,
1010
0000
0001
1010
0100
0001
0010
0001
,
0100
0000
1001
0000
1001
0000
0010
0001
,
1010
0100
0001
1000
0110
0000
0001
1100
,
0010
0001
1000
0100
0001
0000
0110
0000
,
1000
0010
0101
0000
1000
0100
1010
0000
,
0001
0010
0101
0000
1000
0010
1001
0000
,
1000
0100
0011
0000
1000
0001
0110
0000
,
0001
0100
1010
0000
0001
0010
1100
0001
,
1000
0100
0001
1000
0010
0001
0110
0000
,
1000
0010
0101
0000
1000
0100
1001
0000
,
0001
1000
0110
0000
0001
0010
0101
0000
,
1000
0100
1010
0001
1000
0010
0101
0000
,
1000
0000
0100
0000
1010
0000
0001
0000
1000
0000
0100
0000
0001
0010
0100
1000
,
0001
0010
0100
1000
0001
0000
0100
0000
0010
0000
0001
0000
1010
0000
0000
0000
,
0100
0010
0101
0000
1000
0001
0010
0001
,
0100
1000
0101
0000
0010
0001
1010
0100
,
0001
0010
1001
0000
1000
0100
0011
0000
,
0001
0000
0000
0010
0000
0000
0001
0000
0000
0100
0000
0000
1000
0000
0000
0001
0000
0000
0010
0000
0100
0000
1000
0000
,
0100
0000
0010
0000
0100
0000
1001
0000
0000
0000
0000
0000
0010
0000
0000
0100
0000
0000
1001
0000
0000
0000
0000
0000
,
0100
0010
1001
0000
0100
0010
0101
0000
,
0010
0100
0011
0000
0010
1000
0101
0000
,
0100
0001
1010
0000
0110
0000
1000
0010
,
0001
1000
0100
0000
0010
0001
1000
0010
,
0001
1000
0001
0100
1000
0001
0110
0001
,
1010
0100
1001
0010
0001
0100
1010
0001
,
0110
0001
1010
0101
1010
0101
0010
0001
,
1000
0100
0001
1000
0010
0001
1010
0000
,
0000
0101
0000
0000
0110
0000
1001
0000
,
0011
0000
0000
0000
0110
0000
0000
0000
1001
0000
0000
0000
0001
0010
0100
1000
,
0001
0010
0100
1000
0100
0010
0001
1000
0100
0010
0001
0010
0100
0000
1000
0000
,
0100
0010
0001
0100
0010
1000
0001
0100
,
0001
0000
1000
0000
0010
0000
0001
0000
1000
0000
0001
0000
0100
0000
0010
0001
,
1000
0000
0100
1000
0001
0000
0010
0001
0100
0000
0100
1000
0101
0000
0010
0001
,
1000
0000
0100
1000
0010
0000
0001
1000
0100
0001
1100
0000
0001
0010
0001
1000
,
0110
0000
0001
0010
0001
0000
1000
0001
0010
0000
0100
1000
0001
0000
0110
0000
,
1000
0000
0010
0001
1000
0000
0100
0010
0001
0000
1000
0100
0010
0000
0101
0000
,
0010
0001
1000
0100
0001
1000
0010
0001
1000
0000
0100
0010
0001
1000
0100
0001
,
0010
1000
0001
0000
0010
0001
1000
0000
0100
1000
0001
0010
0001
0000
0000
0101
,
0000
0000
0000
0000
0000
0000
0000
0000
0000
0000
0000
0000
0000
0000
0000
0000
0000
0000
0000
0000
0000
0000
0000
0000
0011
0000
0000
0000
0000
0000
0000
0000
0000
0000
0000
0000
0000
0000
0000
0000
0000
0000
0000
0000
0000
0000
0000
0000
1000
0000
0000
0000
0000
0000
0000
0000
0100
0000
0000
0000
0000
0000
0000
0000
0010
0000
0000
0000
0000
0000
0000
0000
0100
0000
0000
0000
0000
0000
0000
0000
0010
0000
0000
0000
0000
0000
0000
0000
0001
0000
0000
0000
0000
0000
0000
0000
0010
0000
0000
0000
0000
0000
0000
0000
0100
0000
0000
0000
0000
0000
0000
0000
1000
0000
0000
0000
0000
0000
0000
0000
0100
0000
0000
0000
0000
0000
0000
0000
0010
0000
0000
0000
0000
0000
0000
0000
0100
0000
0000
0000
0000
0000
0000
0000
0001
0000
0000
0000
0000
0000
0010
0000
0000
0000
0000
0000
0100
0000
0000
0000
0000
0000
1000
0000
0000
0000
0000
0000
0001
0000
0000
0000
0000
0000
0010
0000
0000
0000
0000
0000
0100
0000
0000
0000
0000
0000
1000
0000
0000
0000
0000
0000
,
0001
0100
0011
1000
0100
0010
0101
0010
,
1000
0100
1001
0010
0100
0001
0110
1000
,
0010
0100
0011
0100
1000
0010
1001
0010
,
0100
1000
0110
0001
1000
0100
0011
0100
,
1001
1000
0110
0001
0010
1000
0001
0010
,
0001
0110
1001
0110
1001
0010
0100
0010
,
0001
1000
0110
0001
1100
0010
0001
1000
,
0100
0001
0110
0001
0100
1001
0010
0001
,
1010
0100
1010
0001
1100
0010
0001
1000
,
0110
1001
0110
1000
0001
1000
0001
0100
,
1000
0010
0001
1000
0010
0001
1000
0100
,
0010
0000
1000
0000
0001
0000
1000
0000
0001
0000
0100
0000
0001
0000
0000
0010
0000
0000
1000
0000
0000
0110
0000
0000
,
1000
0001
0100
1001
0100
0010
1000
0011
,
1000
0100
0010
0101
1000
0010
0001
1000
,
0100
0001
1000
0010
0100
1001
0010
1001
,
0000
0100
1000
0010
0001
1010
0100
0011
,
1000
0010
0100
0011
1000
0100
0010
0101
,
0010
1000
0100
1001
0100
0010
0001
1000
,
0100
0001
0010
1000
0010
0101
1000
0110
,
0001
1100
0010
0101
1000
0100
0001
0110
,
1000
0010
0100
0011
0100
1000
0010
1001
,
0010
0100
0001
0110
0001
1000
0010
0001
,
1000
0100
0010
0001
0100
1001
0010
0101
,
1000
0010
0001
1000
0100
1001
0100
1000
,
0010
0100
0001
1000
0100
0010
0100
0001
,
1000
0001
0010
0100
0010
0001
0100
1000
,
0010
0001
0100
1000
0100
0001
1000
0010
,
0001
1000
0100
0001
0010
1001
0100
0011
,
1000
0110
0001
0110
0001
1000
0100
0011
,
0100
0001
0010
0101
0010
1001
0010
0101
,
1000
0101
0010
0001
0100
1000
0010
0101
,
1000
0100
0001
1000
0010
1001
0100
0011
,
0100
1010
0001
1100
0010
0001
1000
0110
,
0001
1000
0001
0110
0001
1000
0010
0001
,
1000
0100
0001
1000
0010
0001
1000
0001
,
0100
0020
0001
0100
0000
0031
1000
0101
,
1000
0010
0001
0110
0001
1000
0100
1001
,
0010
0100
1000
0110
0001
1100
0010
0001
,
1000
0100
0001
1000
0010
0001
1000
0001
,
0100
1000
0001
0010
0001
1000
0010
0100
,
0010
0001
0100
1000
0010
0001
0010
1000
,
0100
0010
0100
0001
1000
0100
0001
1000
,
0010
0001
1000
0100
0001
0010
0001
0100
,
1000
0001
0010
0001
1000
0210
0000
0301
,
0010
0001
1000
0001
0100
1020
0000
0031
,
1000
0100
0001
0010
0001
1010
0001
1000
,
0001
0110
0000
0100
0001
1000
0001
0100
,
0001
1010
0000
0110
0000
0100
0000
1001
,
0010
0101
1000
0110
0001
1010
0000
0100
,
0001
1010
0000
1001
0000
0101
1000
0010
,
0001
1000
0100
1000
0010
0001
1000
0101
,
0000
0110
0000
1001
0000
0010
0001
1000
,
0010
0001
1000
0100
0001
0010
0002
0000
,
2003
0000
3200
0000
0320
0000
0031
1000
,
0100
0001
0010
0001
1000
0100
0001
0010
,
1000
0001
0010
0001
1000
0220
0000
0000
,
0000
0000
0000
0000
0000
0330
0000
0000
;
