#TITLE:Thinking Of You;
#SUBTITLE:;
#ARTIST:goreshit;
#TITLETRANSLIT:;
#SUBTITLETRANSLIT:;
#ARTISTTRANSLIT:;
#CREDIT:;
#BANNER:thinking of bn.png;
#BACKGROUND:thinking of bg.png;
#LYRICSPATH:;
#CDTITLE:;
#MUSIC:thinking of you.ogg;
#OFFSET:0.007;
#SAMPLESTART:33.695;
#SAMPLELENGTH:17.180;
#SELECTABLE:YES;
#DISPLAYBPM:227.000;
#BPMS:0.000=227.000;
#STOPS:;
#BGCHANGES:;
// cache tags:
#FIRSTBEAT:32.000;
#LASTBEAT:640.000;
#SONGFILENAME:Songs/SPEEEDCOOOORE 3/Thinking of You - [Tyler]/thinking of you.sm;
#HASMUSIC:1;
#HASBANNER:1;
#MUSICLENGTH:170.075;
// end cache tags

//---------------dance-single - T. Moore----------------
#NOTES:
     dance-single:
     T. Moore:
     Challenge:
     19:
     1.000,1.000,0.247,0.088,1.000,1933.000,42.000,15.000,0.000,0.000:
0000
0000
0000
0000
,
0000
0000
0000
0000
,
0000
0000
0000
0000
,
0000
0000
0000
0000
,
0000
0000
0000
0000
,
0000
0000
0000
0000
,
0000
0000
0000
0000
,
0000
0000
0000
0000
,
1000
0000
0000
1000
0000
0000
0000
0000
,
1000
0000
0000
1000
0000
1000
0010
0010
,
0100
0000
0000
0100
0000
0000
0000
0000
,
0100
0000
0001
0100
0000
0100
0010
0010
,
1000
0000
0000
1000
0000
0000
0000
0000
,
1000
0000
0000
1000
0000
1000
0001
0001
,
0010
0000
0000
0010
0000
0000
0000
0000
,
0010
0000
0100
1000
0100
0000
0010
0001
1000
0000
0001
0100
0010
1000
0010
1000
,
0001
0000
1000
0100
0010
0000
0001
0000
0000
0000
1001
0000
0000
0000
0000
0000
,
1010
0010
0100
0101
0000
0001
1000
1000
,
1100
0000
0100
0000
0010
0000
0011
0000
0000
0000
1000
0000
0001
0100
0001
0100
,
0010
0000
1000
0000
0001
0000
0001
0000
0000
0000
1000
0000
0001
0000
0001
1000
,
0100
0000
0010
0000
0001
0000
1001
0000
0000
0000
1000
0000
0001
0100
0001
0100
,
0010
1000
0001
0011
0000
0010
0100
0100
,
1100
0000
1000
0000
0001
0000
0101
0000
0000
0000
0100
0000
0010
1000
0010
1000
,
0001
0000
1000
0001
0010
0000
0010
0000
0000
0000
0100
0000
1000
0000
1000
0001
,
0100
0010
1000
0001
1000
0001
0100
0010
1000
0001
1000
0001
0010
0100
1000
0001
,
0100
0010
1000
0001
1000
0001
0100
0010
1000
0001
1000
0001
0010
0100
1000
0001
,
1000
0010
0100
0001
0100
0001
1000
0010
0100
0001
0100
0001
1000
0100
0010
0001
,
1000
0010
0100
0001
1000
0100
1000
0100
0010
0001
1000
0010
0100
0001
0100
0001
,
1000
0100
0010
0001
1000
0001
0010
0100
1000
0001
1000
0100
0010
0001
1000
0001
,
1000
0010
0100
0001
1000
0100
1000
0100
0010
0001
0010
0100
1000
0001
1000
0001
,
1000
0010
0100
0001
0100
0001
1000
0010
0100
0001
0100
0001
1000
0100
0010
0001
,
1000
0001
0010
0100
1000
0001
1000
0001
0010
0001
1000
0100
1000
0001
1000
0001
,
1000
0010
0100
0001
1000
0001
0100
0010
1000
0001
0100
0001
1000
0010
0100
0010
,
1000
0001
0100
0001
1000
0010
0100
0001
0010
0100
1000
0001
1000
0100
0010
0001
,
1000
0010
0100
0001
1000
0001
0100
0010
1000
0001
0100
0010
1000
0010
0100
0001
,
1000
0010
1000
0001
1000
0010
0100
0001
0010
0100
1000
0001
1000
0100
0010
0001
,
1000
0010
0100
0010
1000
0001
0100
0001
1000
0010
0100
0010
1000
0001
0100
0001
,
1000
0010
0100
0010
1000
0001
0100
0001
0010
0100
1000
0001
0010
0001
1000
0100
,
0010
0100
1000
0001
0100
0010
1000
0010
0100
0001
1000
0100
0010
0001
1000
0001
,
0010
0100
0010
0001
0100
0010
1000
0001
0010
0100
1000
0001
1000
0001
1000
0001
,
1000
0100
0010
0001
1000
0001
0010
0100
1000
0001
0010
0001
1000
0001
0010
0100
,
1000
0001
0010
0001
1000
0100
0010
0001
0100
0010
1000
0001
1000
0010
0100
0001
,
1000
0001
0010
0100
1000
0001
0010
0001
1000
0001
0010
0100
1000
0100
0010
0001
,
1000
0100
1000
0001
1000
0100
0010
0001
0100
0010
1000
0001
1000
0010
0100
0001
,
1000
0001
0010
0100
1000
0001
0010
0001
1000
0100
0010
0100
1000
0001
0010
0001
,
1000
0100
0010
0100
1000
0001
0010
0001
0100
0010
1000
0001
0100
0001
1000
0010
,
0100
0010
1000
0001
0010
0100
1000
0100
0010
0001
1000
0010
0100
0001
1000
0001
,
0100
0010
0100
0001
0010
0100
1000
0001
0100
0010
1000
0001
1000
0001
1000
0001
,
1000
0100
0010
0001
1000
0001
0010
0100
1000
0001
0100
0001
1000
0010
0100
0010
,
1000
0001
0010
0100
1000
0100
0010
0001
1000
0010
0100
0001
1000
0001
0100
0010
,
1000
0100
0010
0001
0100
0010
1000
0010
0100
0001
1000
0100
0010
0001
1000
0001
,
0010
0100
1000
0001
0100
0010
1000
0010
0100
0001
1000
0001
0100
0010
1000
0001
,
1000
0100
1000
0001
0100
0001
1000
0010
0100
0001
1000
0001
0010
0100
1000
0100
,
0010
0001
1000
0001
0100
0010
1000
0001
1000
0100
1000
0001
0100
0010
1000
0001
,
1000
0100
0010
0001
1000
0010
1000
0001
0100
0001
1000
0001
0010
0100
1000
0100
,
0010
0001
0100
0010
1000
0001
1000
0010
0100
0010
1000
0001
1000
0001
1000
0001
,
1000
0100
0010
0001
1000
0001
0010
0100
1000
0001
0100
0001
1000
0010
0100
0010
,
1000
0001
0010
0100
1000
0100
0010
0001
1000
0010
0100
0001
1000
0001
0100
0010
,
1000
0100
0010
0001
0100
0010
1000
0010
0100
0001
1000
0100
0010
0001
1000
0001
,
0010
0100
1000
0001
0100
0010
1000
0010
0100
0001
1000
0001
0100
0010
1000
0001
,
1000
0100
1000
0001
0100
0001
1000
0010
0100
0001
1000
0001
0010
0100
1000
0100
,
0010
0001
1000
0001
0100
0010
1000
0001
1000
0100
1000
0001
0100
0010
1000
0001
,
1000
0100
0010
0001
1000
0010
1000
0001
0100
0001
1000
0001
0010
0100
1000
0100
,
0010
0001
0100
0010
1000
0001
1000
0010
0100
0010
1000
0001
1000
0001
1000
0001
,
0010
0100
1000
1001
0000
0001
0000
0000
,
0101
0100
0010
1010
0000
1000
0001
0001
,
0011
0000
0010
0000
0100
0000
1100
0000
0000
0000
0001
0000
1000
0010
1000
0010
,
0100
0000
0001
0000
1000
0000
1000
0000
0000
0000
0001
0000
1000
0000
1000
0001
,
0010
0000
0100
0000
1000
0000
1001
0000
0000
0000
0001
0000
1000
0010
1000
0010
,
0100
0001
1000
1100
0000
0100
0010
0010
,
0011
0000
0001
0000
1000
0000
1010
0000
0000
0000
0010
0000
0100
0001
0100
0001
,
1000
0000
0001
1000
0100
0000
0100
0000
0000
0000
0010
0000
0001
0000
0001
1000
,
0010
0100
0001
1000
0001
1000
0010
0100
0001
1000
0001
1000
0100
0010
0001
1000
,
0010
0100
0001
1000
0001
1000
0010
0100
0001
1000
0001
1000
0100
0010
0001
1000
,
0001
0100
0010
1000
0010
1000
0001
0100
0010
1000
0010
1000
0001
0010
0100
1000
,
0001
0100
0010
1000
0001
0010
0001
0010
0100
1000
0001
0100
0010
1000
0010
1000
,
0001
0010
0100
1000
0001
1000
0100
0010
0001
1000
0001
0010
0100
1000
0001
1000
,
0001
0100
0010
1000
0001
0010
0001
0010
0100
1000
0100
0010
0001
1000
0001
1000
,
0001
0100
0010
1000
0010
1000
0001
0100
0010
1000
0010
1000
0001
0010
0100
1000
,
0001
1000
0100
0010
0001
1000
0001
1000
0100
1000
0001
0010
0001
1000
0001
1000
,
0001
0100
0010
1000
0001
1000
0010
0100
0001
1000
0010
1000
0001
0100
0010
0100
,
0001
1000
0010
1000
0001
0100
0010
1000
0100
0010
0001
1000
0001
0010
0100
1000
,
0001
0100
0010
1000
0001
1000
0010
0100
0001
1000
0010
0100
0001
0100
0010
1000
,
0001
0100
0001
1000
0001
0100
0010
1000
0100
0010
0001
1000
0001
0010
0100
1000
,
0001
0100
0010
0100
0001
1000
0010
1000
0001
0100
0010
0100
0001
1000
0010
1000
,
0001
0100
0010
0100
0001
1000
0010
1000
0100
0010
0001
1000
0100
1000
0001
0010
,
0100
0010
0001
1000
0010
0100
0001
0100
0010
1000
0001
0010
0100
1000
0001
1000
,
0100
0010
0100
1000
0010
0100
0001
1000
0100
0010
0001
1000
0001
1000
0001
1000
,
0001
0010
0100
1000
0001
1000
0100
0010
0001
1000
0100
1000
0001
1000
0100
0010
,
0001
1000
0100
1000
0001
0010
0100
1000
0010
0100
0001
1000
0001
0100
0010
1000
,
0001
1000
0100
0010
0001
1000
0100
1000
0001
1000
0100
0010
0001
0010
0100
1000
,
0001
0010
0001
1000
0001
0010
0100
1000
0010
0100
0001
1000
0001
0100
0010
1000
,
0001
1000
0100
0010
0001
1000
0100
1000
0001
0010
0100
0010
0001
1000
0100
1000
,
0001
0010
0100
0010
0001
1000
0100
1000
0010
0100
0001
1000
0010
1000
0001
0100
,
0010
0100
0001
1000
0100
0010
0001
0010
0100
1000
0001
0100
0010
1000
0001
1000
,
0010
0100
0010
1000
0100
0010
0001
1000
0010
0100
0001
1000
0001
1000
0001
1000
,
0001
0010
0100
1000
0001
1000
0100
0010
0001
1000
0010
1000
0001
0100
0010
0100
,
0001
1000
0100
0010
0001
0010
0100
1000
0001
0100
0010
1000
0001
1000
0010
0100
,
0001
0010
0100
1000
0010
0100
0001
0100
0010
1000
0001
0010
0100
1000
0001
1000
,
0100
0010
0001
1000
0010
0100
0001
0100
0010
1000
0001
1000
0010
0100
0001
1000
,
0001
0010
0001
1000
0010
1000
0001
0100
0010
1000
0001
1000
0100
0010
0001
0010
,
0100
1000
0001
1000
0010
0100
0001
1000
0001
0010
0001
1000
0010
0100
0001
1000
,
0001
0010
0100
1000
0001
0100
0001
1000
0010
1000
0001
1000
0100
0010
0001
0010
,
0100
1000
0010
0100
0001
1000
0001
0100
0010
0100
0001
1000
0001
1000
0001
1000
,
0001
0010
0100
1000
0001
1000
0100
0010
0001
1000
0010
1000
0001
0100
0010
0100
,
0001
1000
0100
0010
0001
0010
0100
1000
0001
0100
0010
1000
0001
1000
0010
0100
,
0001
0010
0100
1000
0010
0100
0001
0100
0010
1000
0001
0010
0100
1000
0001
1000
,
0100
0010
0001
1000
0010
0100
0001
0100
0010
1000
0001
1000
0010
0100
0001
1000
,
0001
0010
0001
1000
0010
1000
0001
0100
0010
1000
0001
1000
0100
0010
0001
0010
,
0100
1000
0001
1000
0010
0100
0001
1000
0001
0010
0001
1000
0010
0100
0001
1000
,
0001
0010
0100
1000
0001
0100
0001
1000
0010
1000
0001
1000
0100
0010
0001
0010
,
0100
1000
0010
0100
0001
1000
0001
0100
0010
0100
0001
1000
0001
1000
0001
1000
,
0001
0010
0100
1000
0001
1000
0100
0010
0001
1000
0010
1000
0001
0100
0010
0100
,
0001
1000
0100
0010
0001
0010
0100
1000
0001
0100
0010
1000
0001
1000
0010
0100
,
0001
0010
0100
1000
0010
0100
0001
0100
0010
1000
0001
0010
0100
1000
0001
1000
,
0100
0010
0001
1000
0010
0100
0001
0100
0010
1000
0001
1000
0010
0100
0001
1000
,
0001
0010
0001
1000
0010
1000
0001
0100
0010
1000
0001
1000
0100
0010
0001
0010
,
0100
1000
0001
1000
0010
0100
0001
1000
0001
0010
0001
1000
0010
0100
0001
1000
,
0001
0010
0100
1000
0001
0100
0001
1000
0010
1000
0001
1000
0100
0010
0001
0010
,
0100
1000
0010
0100
0001
1000
0001
0100
0010
0100
0001
1000
0001
1000
0001
1000
,
0001
0010
0100
1000
0001
1000
0100
0010
0001
1000
0010
1000
0001
0100
0010
0100
,
0001
1000
0100
0010
0001
0010
0100
1000
0001
0100
0010
1000
0001
1000
0010
0100
,
0001
0010
0100
1000
0010
0100
0001
0100
0010
1000
0001
0010
0100
1000
0001
1000
,
0100
0010
0001
1000
0010
0100
0001
0100
0010
1000
0001
1000
0010
0100
0001
1000
,
0001
0010
0001
1000
0010
1000
0001
0100
0010
1000
0001
1000
0100
0010
0001
0010
,
0100
1000
0001
1000
0010
0100
0001
1000
0001
0010
0001
1000
0010
0100
0001
1000
,
0001
0010
0100
1000
0001
0100
0001
1000
0010
1000
0001
1000
0100
0010
0001
0010
,
0100
1000
0010
0100
0001
1000
0001
0100
0010
0100
0001
1000
0001
1000
0001
1000
,
0100
0000
0010
0110
0000
0100
0000
0000
,
1100
0000
1000
1100
0000
0100
0010
0010
,
1001
0000
0001
1001
0000
1000
0000
0000
,
1001
0000
0000
0000
0001
0000
0001
0000
0000
0000
0100
0000
0001
0000
0100
0001
,
1000
0000
0100
1100
0000
0100
0000
0000
,
0110
0000
0010
0110
0000
0010
0001
0001
,
1001
0000
1000
1001
0000
0001
0000
0000
,
0101
0000
0100
0010
1000
0000
1000
0000
0000
0000
0001
0000
1000
0000
1000
0001
,
0010
0000
0100
0110
0000
0010
0000
0000
,
0011
0000
0001
0011
0000
0010
0100
0100
,
1100
0000
1000
1100
0000
0100
0000
0000
,
1100
0000
0000
0000
1000
0000
1000
0000
0000
0000
0001
0000
1000
0000
0001
1000
,
0010
0000
0100
0110
0000
0010
0000
0000
,
1010
0000
1000
1010
0000
0010
1000
1000
,
1001
0000
0001
1001
0000
1000
0000
0000
,
1001
0000
1000
0001
0010
0000
0010
0000
0100
0000
1000
0000
0001
1000
0001
1000
,
0010
0100
0001
1000
0001
1000
0010
0100
0001
1000
0001
1000
0100
0010
0001
1000
,
0010
0100
0001
1000
0001
1000
0010
0100
0001
1000
0001
1000
0100
0010
0001
1000
,
0001
0100
0010
1000
0010
1000
0001
0100
0010
1000
0010
1000
0001
0100
0010
1000
,
0001
0010
0100
1000
0001
0100
0001
0100
0010
1000
0001
0010
0100
1000
0100
1000
,
0001
0100
0010
1000
0001
1000
0010
0100
0001
1000
0001
1000
0010
0100
0010
1000
,
0001
0010
0001
1000
0010
0100
0010
1000
0001
1000
0010
0100
0001
1000
0001
1000
,
0001
0010
0100
1000
0100
1000
0001
0010
0100
1000
0100
1000
0001
1000
0010
0100
,
0001
1000
0100
0010
0001
1000
0001
1000
0010
0100
0001
1000
0001
0010
0100
1000
,
0002
0003
0000
0000
2000
0000
3000
0000
0200
0000
0300
0000
2000
0000
0000
0000
,
0000
3000
0000
0000
,
0000
0000
0002
0003
0200
0300
0002
0000
,
0000
0000
0003
0000
2000
3000
0002
0003
,
2000
3000
0002
0003
2000
0000
0000
0000
,
3200
0320
0000
0032
,
0000
0000
0000
0000
,
0000
0000
0000
0000
,
0003
0000
0000
0000
;

//---------------dance-single - T. Moore & J. Nero----------------
#NOTES:
     dance-single:
     T. Moore & J. Nero:
     Hard:
     17:
     1.000,1.000,0.459,0.088,1.000,1468.000,78.000,15.000,0.000,0.000:
0000
0000
0000
0000
,
0000
0000
0000
0000
,
0000
0000
0000
0000
,
0000
0000
0000
0000
,
0000
0000
0000
0000
,
0000
0000
0000
0000
,
0000
0000
0000
0000
,
0000
0000
0000
0000
,
0001
0000
0000
0001
0000
0000
0000
0000
,
0001
0000
0000
0001
0000
0001
0100
0100
,
0010
0000
0000
0010
0000
0000
0000
0000
,
0010
0000
1000
0010
0000
0010
0100
0100
,
0001
0000
0000
0001
0000
0000
0000
0000
,
0001
0000
0000
0001
0000
0001
1000
1000
,
0100
0000
0000
0100
0000
0000
0000
0000
,
0100
0000
0010
0001
0010
0000
0001
1000
0010
0000
0100
0000
0001
1000
0001
1000
,
0100
0000
0010
1100
0000
0001
0000
0000
,
0011
0000
1000
0011
0000
0010
0100
0100
,
1100
0000
0001
1100
0000
0010
0000
0000
,
1001
0000
0000
0000
1000
0000
1000
0000
0000
0000
0001
0000
1000
0000
0001
1000
,
0010
0000
0100
0110
0000
0010
0000
0000
,
0110
0000
0100
0110
0000
0010
1000
1000
,
1001
0000
0001
1001
0000
1000
0000
0000
,
1100
0000
0100
0010
0001
0000
0001
0000
0000
0000
1000
0000
0001
0000
0001
1000
,
0010
0000
0100
0110
0000
0010
0000
0000
,
1010
0000
1000
1010
0000
0010
0100
0100
,
0101
0000
0001
0101
0000
0100
0000
0000
,
0101
0000
0000
0000
0001
0000
0001
0000
0000
0000
1000
0000
0001
0000
0001
1000
,
0100
0000
0010
0110
0000
0100
0000
0000
,
1100
0000
1000
1100
0000
1000
0001
0001
,
1001
0000
1000
1001
0000
0001
0000
0000
,
1001
0000
1000
0001
0100
0000
0100
0000
0010
0000
0100
0000
0001
0000
1000
0001
,
1000
0100
0010
0001
1000
0001
0010
0100
1000
0001
0010
0001
1000
0100
0010
0100
,
1000
0001
0010
0001
1000
0100
0010
0001
0100
0010
1000
0001
1000
0010
0100
0001
,
1000
0100
0010
0001
1000
0001
0010
0100
1000
0001
0010
0100
1000
0100
0010
0001
,
1000
0100
1000
0001
1000
0100
0010
0001
0100
0010
1000
0001
1000
0010
0100
0001
,
1000
0100
0010
0100
1000
0001
0010
0001
1000
0100
0010
0100
1000
0001
0010
0001
,
1000
0100
0010
0100
1000
0001
0010
0001
0100
0010
1000
0001
0100
0001
1000
0010
,
0100
0010
1000
0001
0010
0100
1000
0100
0010
0001
1000
0010
0100
0001
1000
0001
,
0100
0010
0100
0001
0010
0100
1000
0001
0100
0000
0010
0000
0010
0000
0010
0000
,
1000
0001
0100
0001
1000
0100
0010
0001
1000
0001
0010
0100
0010
0001
1000
0100
,
0010
0001
1000
0100
0010
0100
1000
0001
0100
0010
1000
0001
1000
0010
0100
0001
,
1000
0100
0010
0001
1000
0001
0010
0100
1000
0001
0010
0001
1000
0100
0010
0001
,
1000
0100
1000
0001
0010
0100
1000
0001
0100
0010
1000
0001
1000
0010
0100
0001
,
1000
0100
0010
0001
1000
0001
0010
0100
1000
0001
0010
0001
1000
0100
0010
0001
,
1000
0001
0010
0100
1000
0001
0010
0001
0100
0010
1000
0001
0100
0001
1000
0010
,
0100
0010
1000
0001
0010
0100
1000
0100
0010
0001
1000
0010
0100
0001
1000
0001
,
0100
0010
0100
0001
0010
0100
1000
0001
0100
0010
1000
0001
1000
0001
1000
0001
,
1000
0000
0100
0000
0010
0000
0001
1000
0001
0000
1000
0000
0010
0100
0010
0100
,
0001
0000
1000
0000
0010
0000
1000
0001
0010
0000
0100
0000
0100
0000
0010
0000
,
0001
0000
1000
0000
0010
0000
0100
0010
1000
0000
0001
0000
1000
0010
1000
0010
,
0100
0000
0001
0000
0010
0000
0001
0010
0001
0000
1000
0000
0001
0000
1000
0001
,
0100
0000
0010
0000
1000
0000
0001
1000
0100
0000
0010
0000
0001
1000
0001
1000
,
0010
0000
0100
0000
0001
0000
0100
0001
1000
0000
0100
0000
0100
0000
0010
0001
,
1000
0001
1000
0000
0010
0000
0100
0001
1000
0000
0100
0000
0010
0001
0010
0001
,
1000
0000
0010
0000
0100
0000
0010
1000
0001
0000
1000
0001
1000
0010
0100
0001
,
1000
0000
0100
0000
0010
0000
0001
1000
0001
0000
1000
0000
0010
0100
0010
0100
,
0001
0000
1000
0000
0010
0000
1000
0001
0010
0000
0100
0000
0100
0000
0010
0000
,
0001
0000
1000
0000
0010
0000
0100
0010
1000
0000
0001
0000
1000
0010
1000
0010
,
0100
0000
0001
0000
0010
0000
0001
0010
0001
0000
1000
0000
0001
0000
1000
0001
,
0100
0000
0010
0000
1000
0000
0001
1000
0100
0000
0010
0000
0001
1000
0001
1000
,
0010
0000
0100
0000
0001
0000
0100
0001
1000
0000
0100
0000
0100
0000
0010
0001
,
1000
0001
1000
0000
0010
0000
0100
0001
1000
0000
0100
0000
0010
0001
0010
0001
,
0100
0000
0010
1000
0100
0000
0010
0001
0100
0000
0010
1000
0100
0010
0100
0010
,
0001
1000
0010
0110
0000
0100
0000
0000
,
0101
0000
1000
0101
0000
0001
0010
0010
,
0110
0000
0100
0110
0000
0010
0000
0000
,
0011
0000
0000
0000
0001
0000
0001
0000
0000
0000
1000
0000
0001
0000
0001
1000
,
0010
0000
0100
0110
0000
0010
0000
0000
,
0110
0000
0100
0110
0000
0010
1000
1000
,
1001
0000
0001
1001
0000
1000
0000
0000
,
1001
0000
0001
0100
0010
0000
0010
0000
0000
0000
1000
0000
0001
0000
0001
0010
,
0100
0000
1000
1100
0000
0100
0000
0000
,
1100
0000
1000
1100
0000
0100
0010
0010
,
0011
0000
0001
0011
0000
0010
0000
0000
,
0011
0000
0000
0000
0100
0000
0100
0000
0000
0000
0010
0000
0100
0000
0100
1000
,
0001
0000
1000
1001
0000
0001
0000
0000
,
1001
0000
1000
1001
0000
0001
0100
0100
,
0110
0000
0010
0110
0000
0100
0000
0000
,
0110
0000
0010
1000
0001
0000
0001
0000
0000
0000
0001
0000
1000
0000
0001
1000
,
0001
0010
0100
1000
0001
1000
0100
0010
0001
1000
0100
1000
0001
0010
0100
0010
,
0001
1000
0100
1000
0001
0010
0100
1000
0010
0100
0001
1000
0001
0100
0010
1000
,
0001
0010
0100
1000
0001
1000
0100
0010
0001
1000
0100
0010
0001
0010
0100
1000
,
0001
0010
0001
1000
0001
0010
0100
1000
0010
0100
0001
1000
0001
0100
0010
1000
,
0001
0010
0100
0010
0001
1000
0100
1000
0001
0010
0100
0010
0001
1000
0100
1000
,
0001
0010
0100
0010
0001
1000
0100
1000
0010
0100
0001
1000
0010
1000
0001
0100
,
0010
0100
0001
1000
0100
0010
0001
0010
0100
1000
0001
0100
0010
1000
0001
1000
,
0010
0100
0010
1000
0100
0010
0001
1000
0010
0000
0100
0000
0100
0000
0100
0000
,
0001
1000
0010
1000
0001
0010
0100
1000
0001
1000
0100
0010
0100
1000
0001
0010
,
0100
1000
0001
0010
0100
0010
0001
1000
0010
0100
0001
1000
0001
0100
0010
1000
,
0001
0010
0100
1000
0001
1000
0100
0010
0001
1000
0100
1000
0001
0010
0100
1000
,
0001
0010
0001
1000
0100
0010
0001
1000
0010
0100
0001
1000
0001
0100
0010
1000
,
0001
0010
0100
1000
0001
1000
0100
0010
0001
1000
0100
1000
0001
0010
0100
1000
,
0001
1000
0100
0010
0001
1000
0100
1000
0010
0100
0001
1000
0010
1000
0001
0100
,
0010
0100
0001
1000
0100
0010
0001
0010
0100
1000
0001
0100
0010
1000
0001
1000
,
0010
0100
0010
1000
0100
0010
0001
1000
0010
0100
0001
1000
0001
1000
0001
1000
,
0001
0000
0100
0000
0010
0000
1000
0001
1000
0000
0001
0000
0010
0100
0010
0100
,
1000
0000
0001
0000
0010
0000
0001
1000
0010
0000
0100
0000
0100
0000
0010
0000
,
1000
0000
0001
0000
0010
0000
0100
0010
0001
0000
1000
0000
0001
0010
0001
0010
,
0100
0000
1000
0000
0010
0000
1000
0010
1000
0000
0001
0000
1000
0000
0001
1000
,
0100
0000
0010
0000
0001
0000
1000
0001
0100
0000
0010
0000
1000
0001
1000
0001
,
0010
0000
0100
0000
1000
0000
0100
1000
0001
0000
0100
0000
0100
0000
0010
1000
,
0001
1000
0001
0000
0010
0000
0100
1000
0001
0000
0100
0000
0010
1000
0010
1000
,
0001
0000
0010
0000
0100
0000
0010
0001
1000
0000
0001
1000
0001
0010
0100
1000
,
0001
0000
0100
0000
0010
0000
1000
0001
1000
0000
0001
0000
0010
0100
0010
0100
,
1000
0000
0001
0000
0010
0000
0001
1000
0010
0000
0100
0000
0100
0000
0010
0000
,
1000
0000
0001
0000
0010
0000
0100
0010
0001
0000
1000
0000
0001
0010
0001
0010
,
0100
0000
1000
0000
0010
0000
1000
0010
1000
0000
0001
0000
1000
0000
0001
1000
,
0100
0000
0010
0000
0001
0000
1000
0001
0100
0000
0010
0000
1000
0001
1000
0001
,
0010
0000
0100
0000
1000
0000
0100
1000
0001
0000
0100
0000
0100
0000
0010
1000
,
0001
1000
0001
0000
0100
0000
0010
1000
0001
0000
0010
0000
0100
1000
0100
1000
,
0010
0000
0100
0001
0010
0000
0100
1000
0010
0000
0100
0001
0010
0100
0010
0100
,
1000
0100
0010
0001
1000
0001
0010
0100
1000
0001
0100
0001
1000
0010
0100
0010
,
1000
0001
0010
0100
1000
0100
0010
0001
1000
0010
0100
0001
1000
0001
0100
0010
,
1000
0100
0010
0001
0100
0010
1000
0010
0100
0001
1000
0100
0010
0001
1000
0001
,
0010
0100
1000
0001
0100
0010
1000
0010
0100
0001
1000
0001
0100
0010
1000
0001
,
1000
0100
1000
0001
0100
0001
1000
0010
0100
0001
1000
0001
0010
0100
1000
0100
,
0010
0001
1000
0001
0100
0010
1000
0001
1000
0100
1000
0001
0100
0010
1000
0001
,
1000
0100
0010
0001
1000
0001
0010
0100
1000
0001
0010
0001
1000
0010
0100
0001
,
1000
0001
0100
0010
1000
0000
0001
0010
0100
0000
0010
0001
1000
0001
1000
0001
,
1000
0100
0010
0001
1000
0001
0010
0100
1000
0001
0100
0001
1000
0010
0100
0010
,
1000
0001
0010
0100
1000
0100
0010
0001
1000
0010
0100
0001
1000
0001
0100
0010
,
1000
0100
0010
0001
0100
0010
1000
0010
0100
0001
1000
0100
0010
0001
1000
0001
,
0010
0100
1000
0001
0100
0010
1000
0010
0100
0001
1000
0001
0100
0010
1000
0001
,
1000
0100
1000
0001
0100
0001
1000
0010
0100
0001
1000
0001
0010
0100
1000
0100
,
0010
0001
1000
0001
0100
0010
1000
0001
1000
0100
1000
0001
0100
0010
1000
0001
,
1000
0100
0010
0001
1000
0001
1000
0010
0100
0001
1000
0001
0100
0010
1000
0010
,
0100
0001
1000
0100
1000
0001
0100
0010
1000
0000
0001
1000
0010
0100
0010
0100
,
0010
0000
0100
0110
0000
0010
0000
0000
,
1010
0000
1000
1010
0000
0010
0100
0100
,
0101
0000
0001
0101
0000
0100
0000
0000
,
0101
0000
0000
0000
0010
0000
0010
0000
0000
0000
1000
0000
0010
0000
0010
1000
,
0001
0000
0010
0011
0000
0010
0000
0000
,
0110
0000
0100
0110
0000
0100
1000
1000
,
1001
0000
0001
1001
0000
1000
0000
0000
,
1001
0000
0001
0100
0010
0000
0010
0000
0000
0000
1000
0000
0001
0000
0001
1000
,
0100
0000
0010
0110
0000
0100
0000
0000
,
1100
0000
1000
1100
0000
0100
0010
0010
,
0011
0000
0001
0011
0000
0010
0000
0000
,
0011
0000
0000
0000
0001
0000
0001
0000
0000
0000
1000
0000
0001
0000
1000
0001
,
0100
0000
0010
0110
0000
0100
0000
0000
,
0101
0000
0001
0101
0000
0100
0001
0001
,
1001
0000
1000
1001
0000
0001
0000
0000
,
1001
0000
0001
1000
0100
0000
0100
0000
0010
0000
0001
0000
1000
0001
1000
0001
,
0100
0000
0001
1001
0000
1000
0000
0000
,
1010
0000
0010
0110
0000
0100
0001
0001
,
0011
0000
0010
0110
0000
0100
0000
0000
,
1100
0000
0000
0000
1000
0000
1000
0000
0000
0000
0001
0000
1000
0000
0001
1000
,
0010
0000
0100
0010
0000
1000
0000
0000
,
0001
0000
0010
0001
0000
0010
0100
0100
,
1000
0000
0001
1000
0000
0001
0000
0000
,
1000
0000
0001
1000
0010
0000
0010
0000
0100
0000
0001
0000
1000
0001
1000
0001
,
2000
3000
0000
0000
0002
0000
0003
0000
0020
0000
0030
0000
0002
0000
0000
0000
,
0000
0003
0000
0000
,
0000
0000
2000
3000
0020
0030
2000
0000
,
0000
0000
3000
0000
0002
0003
2000
3000
,
0002
0003
2000
3000
0002
0000
0000
0000
,
0023
0230
0000
2300
,
0000
0000
0000
0000
,
0000
0000
0000
0000
,
3000
0000
0000
0000
;

//---------------dance-single - T. Moore----------------
#NOTES:
     dance-single:
     T. Moore:
     Medium:
     13:
     1.000,1.000,0.000,0.659,0.479,1132.000,0.000,112.000,0.000,0.000:
0000
0000
0000
0000
,
0000
0000
0000
0000
,
0000
0000
0000
0000
,
0000
0000
0000
0000
,
0000
0000
0000
0000
,
0000
0000
0000
0000
,
0000
0000
0000
0000
,
0000
0000
0000
0000
,
1000
0000
0000
1000
0000
0000
0000
0000
,
1000
0000
0000
1000
0000
1000
0010
0010
,
0100
0000
0000
0100
0000
0000
0000
0000
,
0100
0000
0001
0100
0000
0100
0010
0010
,
1000
0000
0000
1000
0000
0000
0000
0000
,
1000
0000
0000
1000
0000
1000
0001
0001
,
0010
0000
0000
0010
0000
0000
0000
0000
,
0010
0000
0100
1000
0100
0000
1000
0001
0100
0000
0010
0000
1000
0001
1000
0001
,
0010
0000
0100
0010
0000
0001
0000
0000
,
0100
0000
0001
0100
0000
0100
0010
0010
,
1000
0000
0001
1000
0000
0100
0000
0000
,
1000
0000
0000
0000
0001
0000
0001
0000
0000
0000
0100
0000
0001
0000
0100
0010
,
1000
0000
0001
1000
0000
0100
0000
0000
,
0010
0000
0001
0010
0000
0010
0100
0100
,
1000
0000
0001
1000
0000
0001
0000
0000
,
1000
0000
0001
0100
0010
0000
0010
0000
0000
0000
1000
0000
0010
0000
0010
0100
,
0001
0000
1000
0001
0000
1000
0000
0000
,
0100
0000
0010
0100
0000
0100
1000
1000
,
0001
0000
0100
0001
0000
1000
0000
0000
,
0100
0000
0000
0000
0010
0000
0010
0000
0000
0000
0001
0000
0010
0000
0100
1000
,
0001
0000
1000
0001
0000
0010
0000
0000
,
0100
0000
1000
0100
0000
0100
0010
0010
,
0001
0000
1000
0001
0000
1000
0000
0000
,
0001
0000
1000
0001
0100
0000
0100
0000
0000
0000
0001
0000
0100
0000
0010
1000
,
0001
0010
0200
1300
0200
0310
0200
1300
,
0200
0310
0200
1300
0020
0130
0002
1003
,
0001
0100
0020
1030
0020
0130
0020
1030
,
0020
0130
0020
1030
0200
0310
0002
1003
,
0010
0100
0002
1003
0002
0013
0002
1003
,
0002
0103
0002
1003
0200
0310
0002
1003
,
0010
0100
0001
0100
0010
1000
0100
1000
,
0010
0100
0001
0010
0100
1000
1000
1000
,
0010
0100
0002
1003
0002
0103
0002
1003
,
0002
0013
0002
1003
0020
0130
0002
1003
,
0100
1000
0020
0130
0020
1030
0020
0130
,
0020
1030
0020
0130
0002
1003
0200
0310
,
0001
1000
0200
0310
0200
1300
0200
0310
,
0200
1300
0200
0310
0002
0103
0020
1030
,
0001
0010
0100
0010
0001
1000
0010
1000
,
0001
0000
0010
0000
0100
0000
1000
0000
0010
0000
0100
0001
0100
0001
0100
0001
,
1000
0000
0100
0000
0010
0000
0001
1000
0001
0000
1000
0000
0010
0100
0010
0100
,
0001
0000
1000
0000
0010
0000
1000
0001
0010
0000
0100
0000
0100
0000
0010
0000
,
0001
0000
1000
0000
0010
0000
0100
0010
1000
0000
0001
0000
1000
0010
1000
0010
,
0100
0000
0001
0000
0010
0000
0001
0010
0001
0000
1000
0000
0001
0000
1000
0001
,
0100
0000
0010
0000
1000
0000
0001
1000
0100
0000
0010
0000
0001
1000
0001
1000
,
0010
0000
0100
0000
0001
0000
0100
0001
1000
0000
0100
0000
0100
0000
0010
0001
,
1000
0001
1000
0000
0010
0000
0100
0001
1000
0000
0100
0000
0010
0001
0010
0001
,
1000
0000
0010
0000
0100
0000
0010
1000
0001
0000
1000
0001
1000
0010
0100
0001
,
1000
0000
0100
0000
0010
0000
0001
1000
0001
0000
1000
0000
0010
0100
0010
0100
,
0001
0000
1000
0000
0010
0000
1000
0001
0010
0000
0100
0000
0100
0000
0010
0000
,
0001
0000
1000
0000
0010
0000
0100
0010
1000
0000
0001
0000
1000
0010
1000
0010
,
0100
0000
0001
0000
0010
0000
0001
0010
0001
0000
1000
0000
0001
0000
1000
0001
,
0100
0000
0010
0000
1000
0000
0001
1000
0100
0000
0010
0000
0001
1000
0001
1000
,
0010
0000
0100
0000
0001
0000
0100
0001
1000
0000
0100
0000
0100
0000
0010
0001
,
1000
0001
1000
0000
0010
0000
0100
0001
1000
0000
0100
0000
0010
0001
0010
0001
,
0100
0000
0010
1000
0100
0000
0010
0001
0100
0000
0010
1000
0100
0010
0100
0010
,
0001
1000
0010
0100
0000
0001
0000
0000
,
1000
0000
0100
0010
0000
0010
0001
0001
,
0100
0000
0010
1000
0000
0100
0000
0000
,
0010
0000
0000
0000
0001
0000
0001
0000
0000
0000
1000
0000
0001
0000
1000
0100
,
0010
0000
0001
0010
0000
0100
0000
0000
,
1000
0000
0001
0100
0000
0100
0010
0010
,
1000
0000
0100
0010
0000
0001
0000
0000
,
1000
0000
0010
0000
0100
0000
0100
0000
0000
0000
0001
0000
1000
0000
1000
0001
,
0010
0000
0100
1000
0000
0001
0000
0000
,
0100
0000
0010
1000
0000
1000
0001
0001
,
0010
0000
0100
1000
0000
0001
0000
0000
,
0100
0000
0000
0000
0010
0000
0010
0000
0000
0000
1000
0000
0010
0000
0100
0010
,
1000
0000
0001
1000
0000
0010
0000
0000
,
0100
0000
0001
1000
0000
1000
0100
0100
,
0010
0000
0001
0010
0000
0100
0000
0000
,
1000
0000
0100
1000
0001
0000
0001
0000
0000
0000
0100
0000
0010
1000
0010
1000
,
0001
0010
0200
1300
0200
0310
0200
1300
,
0200
0310
0200
1300
0020
0130
0002
1003
,
0001
0100
0020
1030
0020
0130
0020
1030
,
0020
0130
0020
1030
0200
0310
0002
1003
,
0010
0100
0002
1003
0002
0013
0002
1003
,
0002
0103
0002
1003
0200
0310
0002
1003
,
0010
0100
0001
0100
0010
1000
0100
1000
,
0010
0100
0001
0010
0100
1000
1000
1000
,
0010
0100
0002
1003
0002
0103
0002
1003
,
0002
0013
0002
1003
0020
0130
0002
1003
,
0100
1000
0020
0130
0020
1030
0020
0130
,
0020
1030
0020
0130
0002
1003
0200
0310
,
0001
1000
0200
0310
0200
1300
0200
0310
,
0200
1300
0200
0310
0002
0103
0020
1030
,
0001
0010
0100
0010
0001
1000
0010
1000
,
0001
0000
0010
0000
0100
0000
1000
0000
0010
0000
0100
0001
0100
0001
0100
0001
,
1000
0000
0010
0000
0100
0000
0001
1000
0001
0000
1000
0000
0100
0010
0100
0010
,
0001
0000
1000
0000
0100
0000
1000
0001
0100
0000
0010
0000
0010
0000
0100
0000
,
0001
0000
1000
0000
0100
0000
0010
0100
1000
0000
0001
0000
1000
0100
1000
0100
,
0010
0000
0001
0000
0100
0000
0001
0100
0001
0000
1000
0000
0001
0000
1000
0001
,
0010
0000
0100
0000
1000
0000
0001
1000
0010
0000
0100
0000
0001
1000
0001
1000
,
0100
0000
0010
0000
0001
0000
0010
0001
1000
0000
0010
0000
0010
0000
0100
0001
,
1000
0001
1000
0000
0100
0000
0010
0001
1000
0000
0010
0000
0100
0001
0100
0001
,
1000
0000
0100
0000
0010
0000
0100
1000
0001
0000
1000
0001
1000
0100
0010
0001
,
1000
0000
0010
0000
0100
0000
0001
1000
0001
0000
1000
0000
0100
0010
0100
0010
,
0001
0000
1000
0000
0100
0000
1000
0001
0100
0000
0010
0000
0010
0000
0100
0000
,
0001
0000
1000
0000
0100
0000
0010
0100
1000
0000
0001
0000
1000
0100
1000
0100
,
0010
0000
0001
0000
0100
0000
0001
0100
0001
0000
1000
0000
0001
0000
1000
0001
,
0010
0000
0100
0000
1000
0000
0001
1000
0010
0000
0100
0000
0001
1000
0001
1000
,
0100
0000
0010
0000
0001
0000
0010
0001
1000
0000
0010
0000
0010
0000
0100
0001
,
1000
0001
1000
0000
0010
0000
0100
0001
1000
0000
0100
0000
0010
0001
0010
0001
,
0100
0000
0010
1000
0100
0000
0010
0001
0100
0000
0010
1000
0100
0010
0100
0010
,
0001
0000
0100
0000
0010
0000
1000
0001
1000
0000
0001
0000
0010
0100
0010
0100
,
1000
0000
0001
0000
0010
0000
0001
1000
0010
0000
0100
0000
0100
0000
0010
0000
,
1000
0000
0001
0000
0010
0000
0100
0010
0001
0000
1000
0000
0001
0010
0001
0010
,
0100
0000
1000
0000
0010
0000
1000
0010
1000
0000
0001
0000
1000
0000
0001
1000
,
0100
0000
0010
0000
0001
0000
1000
0001
0100
0000
0010
0000
1000
0001
1000
0001
,
0010
0000
0100
0000
1000
0000
0100
1000
0001
0000
0100
0000
0100
0000
0010
1000
,
0001
1000
0001
0000
0010
0000
0100
1000
0001
0000
0100
0000
0010
1000
0010
1000
,
0001
0000
0010
0000
0100
0000
0010
0001
1000
0000
0001
1000
0001
0010
0100
1000
,
0001
0000
0100
0000
0010
0000
1000
0001
1000
0000
0001
0000
0010
0100
0010
0100
,
1000
0000
0001
0000
0010
0000
0001
1000
0010
0000
0100
0000
0100
0000
0010
0000
,
1000
0000
0001
0000
0010
0000
0100
0010
0001
0000
1000
0000
0001
0010
0001
0010
,
0100
0000
1000
0000
0010
0000
1000
0010
1000
0000
0001
0000
1000
0000
0001
1000
,
0100
0000
0010
0000
0001
0000
1000
0001
0100
0000
0010
0000
1000
0001
1000
0001
,
0010
0000
0100
0000
1000
0000
0100
1000
0001
0000
0100
0000
0100
0000
0010
1000
,
0001
1000
0001
0000
0100
0000
0010
1000
0001
0000
0010
0000
0100
1000
0100
1000
,
0010
0000
0100
0001
0010
0000
0100
1000
0010
0000
0100
0001
0010
0100
0010
0100
,
1000
0001
0100
0010
0000
1000
0000
0000
,
0001
0000
0010
0100
0000
0100
1000
1000
,
0010
0000
0100
0001
0000
0010
0000
0000
,
0100
0000
0000
0000
1000
0000
1000
0000
0000
0000
0001
0000
1000
0000
0001
0010
,
0100
0000
1000
0100
0000
0010
0000
0000
,
0001
0000
1000
0010
0000
0010
0100
0100
,
0001
0000
0010
0100
0000
1000
0000
0000
,
0001
0000
0100
0000
0010
0000
0010
0000
0000
0000
1000
0000
0001
0000
0001
1000
,
0100
0000
0010
0001
0000
1000
0000
0000
,
0010
0000
0100
0001
0000
0001
1000
1000
,
0100
0000
0010
0001
0000
1000
0000
0000
,
0010
0000
0000
0000
0100
0000
0100
0000
0000
0000
0001
0000
0100
0000
0010
0100
,
0001
0000
1000
0001
0000
0100
0000
0000
,
0010
0000
1000
0001
0000
0001
0010
0010
,
0100
0000
1000
0100
0000
0010
0000
0000
,
0001
0000
0010
0001
1000
0000
1000
0000
0000
0000
0010
0000
0100
0001
0100
0001
,
1000
0001
0020
0130
2000
3001
0020
0000
,
0130
0000
0010
0001
0000
0001
0100
0100
,
0010
1000
0002
1003
0200
1300
0002
0000
,
0103
0000
0001
0001
2000
3100
0020
0130
,
2000
0001
3200
0301
2000
0000
3000
0000
,
2000
3200
0000
0320
,
0000
0000
0000
0000
,
0000
0000
0000
0030
,
0000
0002
2003
3002
,
0000
0003
0000
0000
,
0000
0200
0320
0230
,
0000
0300
0020
2030
,
3002
0000
0023
0000
0032
0000
0000
0003
,
0002
0203
0000
0320
,
0000
0000
0000
0000
,
0000
0000
0000
0000
,
0030
0000
0000
0000
;

//---------------dance-single - T. Moore----------------
#NOTES:
     dance-single:
     T. Moore:
     Easy:
     10:
     1.000,1.000,0.000,1.000,0.159,1001.000,0.000,238.000,0.000,0.000:
0000
0000
0000
0000
,
0000
0000
0000
0000
,
0000
0000
0000
0000
,
0000
0000
0000
0000
,
0000
0000
0000
0000
,
0000
0000
0000
0000
,
0000
0000
0000
0000
,
0000
0000
0000
0000
,
0001
0000
0000
0001
0000
0000
0000
0000
,
0001
0000
0000
0001
0000
0001
0100
0100
,
0010
0000
0000
0010
0000
0000
0000
0000
,
0010
0000
1000
0010
0000
0010
0100
0100
,
0001
0000
0000
0001
0000
0000
0000
0000
,
0001
0000
0000
0001
0000
0001
1000
1000
,
0100
0000
0000
0100
0000
0000
0000
0000
,
0100
0000
0010
0001
0010
0000
0001
1000
0010
0000
0100
0000
0001
1000
0001
1000
,
0100
0000
0010
0100
0000
1000
0000
0000
,
0010
0000
1000
0010
0000
0010
0100
0100
,
0001
0000
1000
0001
0000
0010
0000
0000
,
0001
0000
0000
0000
1000
0000
1000
0000
0000
0000
0010
0000
1000
0000
0010
0100
,
0001
0000
1000
0001
0000
0010
0000
0000
,
0100
0000
1000
0100
0000
0100
0010
0010
,
0001
0000
1000
0001
0000
1000
0000
0000
,
0001
0000
1000
0010
0100
0000
0100
0000
0000
0000
0001
0000
0100
0000
0100
0010
,
1000
0000
0001
1000
0000
0001
0000
0000
,
0010
0000
0100
0010
0000
0010
0001
0001
,
1000
0000
0010
1000
0000
0001
0000
0000
,
0010
0000
0000
0000
0100
0000
0100
0000
0000
0000
1000
0000
0100
0000
0010
0001
,
1000
0000
0001
1000
0000
0100
0000
0000
,
0010
0000
0001
0010
0000
0010
0100
0100
,
1000
0000
0001
1000
0000
0001
0000
0000
,
1000
0000
0001
1000
0010
0000
0010
0000
0000
0000
1000
0000
0010
0000
0100
0001
,
1000
0100
0020
0031
0020
0130
0020
0031
,
0020
0130
0020
0031
0200
0310
2000
3001
,
1000
0010
0200
0301
0200
0310
0200
0301
,
0200
0310
0200
0301
0020
0130
2000
3001
,
0100
0010
2000
3001
2000
3100
2000
3001
,
2000
3010
2000
3001
0020
0130
2000
3001
,
0100
0010
1000
0010
0100
0001
0010
0001
,
0100
0010
1000
0100
0010
0001
0001
0001
,
0100
0010
2000
3001
2000
3010
2000
3001
,
2000
3100
2000
3001
0200
0310
2000
3001
,
0010
0001
0200
0310
0200
0301
0200
0310
,
0200
0301
0200
0310
2000
3001
0020
0130
,
1000
0001
0020
0130
0020
0031
0020
0130
,
0020
0031
0020
0130
2000
3010
0200
0301
,
1000
0100
0010
0100
1000
0001
0100
0001
,
1000
0000
0100
0000
0010
0000
0001
0000
0100
0000
0010
1000
0010
1000
0010
1000
,
0002
0013
0200
1300
0002
0103
0020
1030
,
0002
1003
0020
0130
0002
0013
0200
1300
,
0020
0130
2000
3100
0010
1000
0200
0310
,
0001
0010
0200
1300
0002
0103
0020
1030
,
0002
0013
0200
0310
0001
1000
0020
0130
,
0001
0100
0020
1030
0002
0013
0200
1300
,
0002
0103
0010
1000
0001
0010
0100
0010
,
0001
0000
1000
0000
0010
0000
0100
0001
1000
0000
0001
1000
0100
0010
0100
0010
,
0002
0103
0020
1030
0002
0013
0200
1300
,
0002
1003
0200
0310
0002
0103
0020
1030
,
0200
0310
2000
3010
0100
1000
0020
0130
,
0001
0100
0020
1030
0002
0013
0200
1300
,
0002
0103
0020
0130
0001
1000
0200
0310
,
0001
0010
0200
1300
0002
0103
0020
1030
,
0002
0013
0100
1000
0001
0100
0010
0100
,
0001
0000
1000
0000
0100
0000
0010
0001
1000
0000
0001
1000
0010
0100
0010
0100
,
0001
0000
1000
0001
0000
0010
0000
0000
,
0100
0000
1000
0100
0000
0100
0010
0010
,
0001
0000
1000
0001
0000
0100
0000
0000
,
0010
0000
0000
0000
1000
0000
1000
0000
0000
0000
0001
0000
1000
0000
0001
1000
,
0100
0000
0010
0001
0000
1000
0000
0000
,
0010
0000
1000
0010
0000
0010
0100
0100
,
0001
0000
1000
0001
0000
0010
0000
0000
,
0100
0000
0010
0001
1000
0000
1000
0000
0000
0000
0010
0000
1000
0000
1000
0001
,
0010
0000
0100
1000
0000
0001
0000
0000
,
1000
0000
0010
0100
0000
0100
0001
0001
,
0010
0000
0100
0010
0000
0001
0000
0000
,
1000
0000
0000
0000
0010
0000
0010
0000
0000
0000
1000
0000
0010
0000
0100
0001
,
1000
0000
0001
1000
0000
0100
0000
0000
,
0010
0000
0001
1000
0000
1000
0010
0010
,
0100
0000
0001
1000
0000
0100
0000
0000
,
0010
0000
0001
1000
0010
0000
0010
0000
0000
0000
0100
0000
0001
1000
0001
1000
,
0001
0010
0200
1300
0200
0310
0200
1300
,
0200
0310
0200
1300
0020
0130
0002
1003
,
0001
0100
0020
1030
0020
0130
0020
1030
,
0020
0130
0020
1030
0200
0310
0002
1003
,
0010
0100
0002
1003
0002
0013
0002
1003
,
0002
0103
0002
1003
0200
0310
0002
1003
,
0010
0100
0001
0100
0010
1000
0100
1000
,
0010
0100
0001
0010
0100
1000
1000
1000
,
0010
0100
0002
1003
0002
0103
0002
1003
,
0002
0013
0002
1003
0020
0130
0002
1003
,
0100
1000
0020
0130
0020
1030
0020
0130
,
0020
1030
0020
0130
0002
1003
0200
0310
,
0001
1000
0200
0310
0200
1300
0200
0310
,
0200
1300
0200
0310
0002
0103
0020
1030
,
0001
0010
0100
0010
0001
1000
0010
1000
,
0001
0000
0010
0000
0100
0000
1000
0000
0010
0000
0100
0001
0100
0001
0100
0001
,
2000
3100
0020
0031
2000
3010
0200
0301
,
2000
3001
0200
0310
2000
3100
0020
0031
,
0200
0310
0002
0013
0100
0001
0020
0130
,
1000
0100
0020
0031
2000
3010
0200
0301
,
2000
3100
0020
0130
1000
0001
0200
0310
,
1000
0010
0200
0301
2000
3100
0020
0031
,
2000
3010
0100
0001
1000
0100
0010
0100
,
1000
0000
0001
0000
0100
0000
0010
1000
0001
0000
1000
0001
0010
0100
0010
0100
,
2000
3010
0200
0301
2000
3100
0020
0031
,
2000
3001
0020
0130
2000
3010
0200
0301
,
0020
0130
0002
0103
0010
0001
0200
0310
,
1000
0010
0200
0301
2000
3100
0020
0031
,
2000
3010
0200
0310
1000
0001
0020
0130
,
1000
0100
0020
0031
2000
3010
0200
0301
,
2000
3100
0010
0001
1000
0010
0100
0010
,
1000
0000
0001
0000
0010
0000
0100
1000
0001
0000
1000
0001
0100
0010
0100
0010
,
2000
3001
0020
0031
2000
3010
0200
0301
,
2000
3001
0200
0310
2000
3100
0020
0031
,
0200
0310
0002
0013
0100
0001
0020
0130
,
1000
0100
0020
0031
2000
3010
0200
0301
,
2000
3100
0020
0130
1000
0010
0002
0013
,
0100
0001
0020
0130
2000
3100
0002
0103
,
0020
0031
1000
0010
0100
0001
0010
0001
,
1000
0000
0010
0000
0100
0000
0001
1000
0001
0000
0100
0010
1000
0001
1000
0001
,
0020
0130
2000
3001
0200
0310
2000
3010
,
0200
0301
0020
0130
2000
3010
0200
0301
,
0020
0130
0002
0103
0010
0001
0200
0310
,
1000
0010
0200
0301
2000
3100
0020
0031
,
2000
3010
0200
0310
1000
0100
0002
0103
,
0010
0001
0200
0310
2000
3100
0002
0103
,
0020
0031
0100
0010
1000
0010
0100
0001
,
1000
0000
0100
0000
0010
0000
0001
1000
0001
0000
1000
0010
0100
0001
0100
0001
,
1000
0000
0100
0010
0000
0001
0000
0000
,
1000
0000
0010
0100
0000
0100
0001
0001
,
1000
0000
0001
1000
0000
0100
0000
0000
,
0010
0000
0000
0000
0001
0000
0001
0000
0000
0000
1000
0000
0001
0000
1000
0001
,
0100
0000
0001
0100
0000
0010
0000
0000
,
1000
0000
0001
1000
0000
1000
0100
0100
,
0010
0000
0001
1000
0000
0001
0000
0000
,
0100
0000
0010
1000
0001
0000
0001
0000
0000
0000
1000
0000
0001
0000
0001
1000
,
0100
0000
0010
0100
0000
1000
0000
0000
,
0001
0000
1000
0001
0000
0001
0100
0100
,
0010
0000
1000
0010
0000
0100
0000
0000
,
0001
0000
0000
0000
1000
0000
1000
0000
0000
0000
0100
0000
1000
0000
0100
0010
,
0001
0000
1000
0001
0000
0010
0000
0000
,
0100
0000
1000
0100
0000
0100
0010
0010
,
0001
0000
1000
0001
0000
0100
0000
0000
,
0001
0000
1000
0100
0010
0000
0010
0000
0000
0000
0001
0000
1000
0001
1000
0001
,
1000
0020
2030
3020
,
0000
0030
0000
0000
,
0000
0200
0302
0203
,
0000
0300
0002
2003
,
3002
0023
0032
0000
,
2003
3020
0000
0230
,
0000
0000
0000
0000
,
0000
0000
0000
0300
,
0000
0002
2003
3002
,
0000
0003
0000
0000
,
0000
0200
0320
0230
,
0000
0300
0020
2030
,
3002
0023
0032
0000
,
0203
0320
0000
2030
,
0000
0000
0000
0000
,
0000
0000
0000
0000
,
3000
0000
0000
0000
;
