#TITLE:I'M AFRAID YOU SAS!;
#SUBTITLE:;
#ARTIST:Algorithm Dude;
#TITLETRANSLIT:;
#SUBTITLETRANSLIT:;
#ARTISTTRANSLIT:;
#CREDIT:;
#BANNER:../ban - Jawn2.png;
#BACKGROUND:../Jawn2 - bg.png;
#LYRICSPATH:;
#CDTITLE:../CDa.png;
#MUSIC:I'M AFRAID YOU SAS!.ogg;
#OFFSET:0.009;
#SAMPLESTART:24.000;
#SAMPLELENGTH:16.000;
#SELECTABLE:YES;
#BPMS:0.000=240.000;
#STOPS:;
#BGCHANGES:;
// cache tags:
#FIRSTBEAT:32.000;
#LASTBEAT:426.000;
#SONGFILENAME:Songs/Jimmy Jawns 2/I'M AFRAID YOU SAS! - [Aoreo]/I'M AFRAID YOU SAS!.sm;
#HASMUSIC:1;
#HASBANNER:1;
#MUSICLENGTH:108.500;
// end cache tags

//---------------dance-single - J. Nero----------------
#NOTES:
     dance-single:
     J. Nero:
     Challenge:
     15:
     1.000,1.000,0.028,0.212,1.000,870.000,3.000,23.000,1.000,0.000:
0000
0000
0000
0000
,
0000
0000
0000
0000
,
0000
0000
0000
0000
,
0000
0000
0000
0000
,
0000
0000
0000
0000
,
0000
0000
0000
0000
,
0000
0000
0000
0000
,
0000
0000
0000
0000
,
2002
0000
0000
0000
0000
0000
0000
3003
,
0000
0000
0000
0000
0001
0000
0100
0000
0010
1000
0001
1000
0100
0010
0001
1000
,
0002
0000
0000
0000
0000
0000
0000
0003
,
0000
0000
0000
0000
1000
0000
0010
0000
1000
0001
1000
0100
0040
0000
0000
0030
,
0002
0003
0002
0003
0002
0000
0000
0003
,
0000
0000
0000
0000
1000
0000
0000
0000
0001
0000
0100
0000
0001
0010
0100
1000
,
0001
0000
0000
0000
1000
0000
0000
0000
0010
0100
0010
0000
1000
0000
0001
0000
,
0000
0000
0000
0000
,
1001
0000
1000
0000
0001
1000
0001
0010
0000
0000
0100
0000
0000
0000
1000
0000
,
0000
0000
0001
0000
0100
0000
0010
0000
0100
0001
1000
0001
0010
0100
1000
0001
,
1000
0000
0010
0000
1000
0001
1000
0100
0000
0000
0010
0000
0001
0000
1000
0000
,
0000
0000
0001
0000
0100
0000
0010
0000
0100
0001
1000
0001
0400
0000
0000
0300
,
0001
0000
1000
0000
0001
0100
0001
1000
0000
0000
0100
0000
0010
0000
0001
0000
,
0000
0000
1000
0000
0010
0000
0100
0000
0010
0000
1000
0000
0001
1000
0001
0010
,
0100
1000
0010
0100
0010
1000
0100
0010
,
0001
1000
0001
0010
0100
1000
0001
1000
0010
0100
0010
1000
0001
0100
0001
1000
,
0200
0000
0000
0000
0000
0000
0000
0300
,
0000
0000
0000
0000
,
0000
0000
0000
0000
,
0000
0000
0000
0000
0000
0000
2000
3000
,
0001
1000
0001
0100
0010
0100
0001
1000
0100
0010
0001
0100
0001
1000
0010
0100
,
0010
0000
1000
0000
0001
0000
0100
0000
0010
0000
0100
0000
0001
0000
1000
0000
0001
0000
0010
0000
0100
0000
1000
0000
0004
0003
0000
0000
0400
0300
0000
0000
,
0010
1000
0010
0100
0002
0000
0003
0000
1000
0001
1000
0100
0010
0001
1000
0001
,
1000
0010
0100
0001
0100
0000
0010
1000
0010
0100
0001
0000
1000
0000
0010
0000
,
0100
0001
1000
0001
0100
0010
1000
0001
1000
0100
0010
0001
1000
0001
1000
0010
,
0100
0001
1000
0100
0010
0000
0000
0000
0001
1000
0001
0100
0010
0000
0100
0000
,
0001
1000
0001
0010
0100
0000
0000
0000
1000
0010
1000
0001
0100
0000
0001
0000
,
0010
0100
1000
0001
0100
0001
0010
0100
1000
0001
1000
0010
0100
0000
0001
0000
,
1000
0000
0010
0000
0100
0001
0010
0100
1000
0000
0001
0000
0100
0001
1000
0001
,
1000
0000
0100
0000
0010
0001
1000
0001
0100
0010
0100
0001
1000
0000
0100
0000
,
0010
0001
1000
0001
0100
0010
1000
0010
0100
0001
1000
0010
1000
0100
0010
0001
,
1000
0000
0100
0000
1000
0000
0001
0000
0010
0100
1000
0001
1000
0000
0001
0000
,
0100
0001
1000
0001
0010
0100
1000
0010
1000
0001
0100
0010
0100
0001
1000
0001
,
0400
0000
0000
0000
0000
0000
0000
0000
0000
0000
0000
0000
0000
0000
0000
0000
0000
0000
0000
0000
0000
0300
0000
0000
0001
0000
0000
0000
1000
0000
0000
0000
0001
0000
0000
0000
0010
0000
0000
0000
0100
0000
0000
0000
1000
0000
0000
0000
,
0010
0100
0001
1000
0100
0010
0100
1000
0010
0200
0000
0000
,
0301
0000
1000
0000
0001
0100
0001
1000
0100
0010
0001
1000
0000
0000
0000
0000
,
0000
0000
0000
0000
,
0000
0000
0000
0000
,
0001
0000
1000
0000
0100
0010
0001
0100
,
0000
0000
0010
0000
1000
0000
0000
0000
0001
1000
0001
0010
0100
1000
0001
0100
,
0010
0000
1000
0000
0100
0010
0100
1000
0001
0000
1000
0000
0001
0000
0100
0000
,
0010
0000
0100
0000
0001
0000
1000
0000
0100
0000
1000
0010
0100
0000
0010
0000
,
1000
0000
0001
0000
1000
0010
1000
0100
0010
0000
0001
0000
1000
0000
0010
0000
,
0100
0000
0010
0000
1000
0000
0001
0000
0010
0000
0001
1000
0100
0000
0010
0000
,
0001
0000
1000
0000
0001
0100
0001
1000
0010
0000
0100
0000
0001
0000
0010
0000
,
0100
0000
1000
0000
0001
0000
1000
0000
0010
0000
0100
0001
0010
0000
0100
0000
,
1000
0000
0001
0000
0100
0001
1000
0001
0010
0000
0100
0000
1000
0000
0010
0000
,
1000
0001
1000
0100
0010
0001
1000
0010
0100
0010
1000
0001
0000
0000
0000
0000
,
1000
0000
0001
0000
1000
0010
1000
0100
0010
0000
0001
0000
1000
0000
0010
0000
,
1000
0000
0100
0000
0010
0000
0001
0000
0100
0000
0001
0010
0100
0000
1000
0000
,
0001
1000
0020
0030
0100
0001
0020
0030
,
0100
0000
1000
0000
0001
0000
0100
0000
0001
1000
0001
0010
0200
0000
0300
0000
,
1000
0000
0010
0000
1000
0001
1000
0100
0010
0000
0001
0000
0100
0000
0001
0000
,
1000
0000
0010
0000
1000
0000
0100
0000
0010
0000
0001
1000
0100
0000
1000
0000
,
0010
0000
0100
0000
0001
1000
0001
0010
0100
0000
1000
0000
0010
0000
0100
0000
,
0002
0003
0000
0000
,
1000
0100
1000
0010
0100
0001
0010
0100
,
1000
0001
0100
0001
1000
0010
1000
0100
,
0010
0001
1000
0001
0010
0100
0010
0001
,
0100
0000
0010
0000
1000
0000
0010
0000
0100
0001
1000
0100
1000
0000
0000
0000
,
0001
1000
0001
0010
0100
1000
0001
1000
0010
0100
0001
0100
0010
1000
0001
1000
,
0100
0010
0100
1000
0001
0100
0001
1000
0010
0100
0010
1000
0001
1000
0010
0000
,
0100
0001
0010
0001
0100
0010
1000
0100
,
0010
0001
1000
0001
0200
0000
0000
0300
,
0202
0000
0000
0000
0000
0000
0000
0303
,
0000
0000
0000
0000
0001
0000
1000
0000
0001
0100
0001
1000
0100
0010
0001
1000
,
0020
0000
0000
0000
0000
0000
0000
0030
,
0000
0000
0000
0000
1000
0000
0100
0000
1000
0010
1000
0100
0040
0000
0000
0030
,
0002
0003
0002
0003
0002
0000
0000
0003
,
0000
0000
0000
0000
1000
0000
0000
0000
0001
0000
0100
0000
0001
1000
0001
0010
,
0100
0000
0000
0000
1000
0000
0000
0000
0010
0100
0010
0000
1000
0000
0001
0000
,
0000
0000
0001
0000
0000
0000
1000
0000
0001
0100
0010
1000
0001
0010
0100
1000
,
0001
0000
1000
0000
0001
0100
0001
1000
0000
0000
0001
0000
0010
0000
0100
0000
,
0000
0000
1000
0000
0010
0000
0100
0000
0010
1000
0001
1000
0100
0010
0001
1000
,
0001
0000
1000
0000
0001
0100
0001
0010
0000
0000
0100
0000
1000
0000
0010
0000
,
0000
0000
0100
0000
0001
0000
1000
0000
0100
1000
0010
0100
0040
0000
0000
0030
,
1000
0000
0001
0000
0100
0001
1000
0001
0000
0000
0010
0000
0100
0000
1000
0000
,
0000
0000
0001
0000
0100
0000
0001
0000
1000
0000
0010
0000
0100
0010
1000
0001
,
1000
0001
0100
0001
0010
0100
1000
0010
,
0100
0001
1000
0001
0010
0100
1000
0001
4000
0000
0000
0000
3040
0000
0000
0030
,
1000
0001
1000
0010
0100
0010
1000
0001
0010
0100
1000
0010
1000
0001
0100
0010
,
0100
0000
0001
0000
1000
0000
0010
0000
0100
0000
0010
0000
1000
0000
0001
0000
1000
0000
0100
0000
0010
0000
0001
0000
4000
3000
0000
0000
0040
0030
0000
0000
,
0100
0001
0100
0010
2000
0000
3000
0000
0001
1000
0001
0010
0100
1000
0001
1000
,
0001
0100
0010
1000
0010
0000
0100
0001
0100
0010
1000
0000
0001
0000
0100
0000
,
0010
1000
0001
1000
0010
0100
0001
1000
0001
0010
0100
1000
0001
1000
0001
0100
,
0010
1000
0001
0010
0100
0000
0000
0000
1000
0001
1000
0010
0100
0000
0010
0000
,
1000
0001
1000
0100
0010
0000
0000
0000
0001
0100
0001
1000
0010
0000
1000
0000
,
0100
0010
0001
1000
0010
1000
0100
0010
0001
1000
0001
0100
0010
0000
1000
0000
,
0001
0000
0100
0000
0010
1000
0100
0010
0001
0000
1000
0000
0010
1000
0001
1000
,
0001
0000
0010
0000
0100
1000
0001
1000
0010
0100
0010
1000
0001
0000
0010
0000
,
0100
1000
0001
1000
0010
0100
0001
0100
0010
1000
0001
0100
0001
0010
0100
1000
,
0001
0000
0010
0000
0001
0000
1000
0000
0100
0010
0001
1000
0001
0000
1000
0000
,
0010
1000
0001
1000
0100
0010
0001
0100
0001
1000
0010
0100
0010
1000
0001
1000
,
0010
0000
0000
0100
0000
0000
0001
0000
0000
1000
0000
0000
0001
0000
0000
0010
0000
0000
0100
0000
0000
1000
0000
0000
0001
0000
0000
0000
0100
0000
0000
0000
0001
0000
0000
0000
0010
0000
0000
0000
0100
0000
0000
0000
1000
0000
0000
0000
,
0010
0000
1000
0000
0001
0100
0001
0010
0100
0000
1000
0000
0001
1000
0001
0100
,
0010
0000
1000
0000
0100
0000
0010
0000
0001
1000
0001
0100
0010
0000
1000
0000
,
0002
0000
0000
0000
,
0000
0000
0000
0000
0000
0003
0000
0000
,
0000
0000
00M0
0000
;
