#TITLE:Blue Army;
#SUBTITLE:;
#ARTIST:DJ Sharpnel;
#TITLETRANSLIT:;
#SUBTITLETRANSLIT:;
#ARTISTTRANSLIT:;
#CREDIT:;
#BANNER:bluearmybn.png;
#BACKGROUND:bluearmybg.png;
#LYRICSPATH:;
#CDTITLE:;
#MUSIC:bluearmy.ogg;
#OFFSET:-0.701;
#SAMPLESTART:200.271;
#SAMPLELENGTH:21.073;
#SELECTABLE:YES;
#DISPLAYBPM:182.000;
#BPMS:0.000=182.200,136.000=91.100,168.000=182.200,304.000=91.100,376.000=182.200,1056.000=91.100,1060.000=182.200,1156.000=91.100,1188.000=182.200;
#STOPS:;
#BGCHANGES:;
// cache tags:
#FIRSTBEAT:8.000;
#LASTBEAT:1069.500;
#SONGFILENAME:Songs/SHARPNELSTREAMZ v2/Blue Army/bluearmy.sm;
#HASMUSIC:1;
#HASBANNER:1;
#MUSICLENGTH:396.225;
// end cache tags

//---------------dance-single - 16 (Archi)----------------
#NOTES:
     dance-single:
     16 (Archi):
     Challenge:
     16:
     1.000,1.000,0.119,0.560,1.000,3493.000,47.000,222.000,4.000,0.000:
0000
0000
0000
0000
,
0000
0000
0000
0000
,
0002
0000
1000
0003
0010
0000
0000
0000
1010
0000
0000
0000
0001
0000
0000
0000
1000
0000
0000
0000
0100
0000
0000
0000
0110
0000
0000
0000
0000
0000
0000
0000
,
0001
0100
0110
0000
1000
0100
0110
0000
,
2000
0000
0001
3000
0010
0000
0000
0000
0011
0000
0000
0000
1000
0000
0000
0000
0001
0000
0000
0000
0100
0000
0000
0000
0110
0000
0000
0000
0000
0000
0000
0000
,
1000
0100
0110
0000
0001
0100
0110
0000
,
2000
0000
0001
3000
0100
0000
0000
0000
0101
0000
0000
0000
1000
0000
0000
0000
0001
0000
0000
0000
0010
0000
0000
0000
0110
0000
0000
0000
0000
0000
0000
0000
,
1000
0010
0110
0000
0001
0010
0110
0000
,
0002
0000
1000
0003
0100
0000
0000
0000
1100
0000
0000
0000
0001
0000
0000
0000
1000
0000
0000
0000
0010
0000
0000
0000
0110
0000
0000
0000
0000
0000
0000
0000
,
0001
0010
0110
0000
1000
1000
0011
1000
,
0002
0000
0010
0003
0100
0000
0000
0000
0110
0000
0000
0000
1000
0000
0000
0000
0001
0000
0000
0000
0100
0000
0000
0000
0110
0000
0000
0000
0000
0000
0000
0000
,
1000
0100
0110
0000
0001
0100
0110
0000
,
2000
0000
0010
3000
0100
0000
0000
0000
0110
0000
0000
0000
0001
0000
0000
0000
1000
0000
0000
0000
0100
0000
0000
0000
0110
0000
0000
0000
0000
0000
0000
0000
,
0001
0100
0110
0000
1000
0100
0110
0000
,
0020
0000
0001
0030
1000
0000
0000
0000
1001
0000
0000
0000
0001
0000
0000
0000
1000
0000
0000
0000
0010
0000
0000
0000
0110
0000
0000
0000
0000
0000
0000
0000
,
0001
0010
0110
0000
1000
0010
0110
0000
,
0200
0000
0001
0300
1000
0000
0000
0000
1001
0000
0000
0000
0001
0000
0000
0000
0100
0000
0000
0000
0010
0000
0000
0000
1010
0000
0000
0000
0001
0000
0000
0000
,
1000
0001
0010
0100
1000
0001
0100
0010
1000
0100
1000
0001
0010
0001
1000
0001
,
1000
0100
1000
0001
0010
0000
0001
0010
0001
0100
0010
1000
0001
0000
0100
0010
,
1000
0001
0010
0100
1000
0000
0001
0010
0001
1000
0100
0010
0001
0100
0010
1000
,
0001
0100
0001
1000
0010
0000
1000
0010
1000
0100
0010
0001
1000
0000
0100
0010
,
0001
1000
0010
0100
0001
0000
1000
0010
1000
0001
0100
0010
1000
0100
0010
0001
,
1000
0010
1000
0001
0100
0000
0001
0100
0001
0010
0100
1000
0001
0000
0010
0100
,
1000
0001
0100
0010
1000
0000
0001
0100
0001
1000
0010
0100
0001
0010
0100
1000
,
0001
0010
0001
1000
0100
0000
1000
0100
1000
0010
0100
0001
1000
0000
0010
0100
,
0001
1000
0100
0010
0001
0000
0100
0010
1000
0000
1000
0000
0101
0000
1000
0000
,
0100
0010
0001
1000
0010
0000
0100
0010
1000
0001
0010
0001
1000
0000
0010
0100
,
0010
1000
0001
0010
0100
0000
0010
0100
0010
0001
0100
0010
1000
0001
0010
0001
,
0100
0010
1000
0001
0010
0000
0100
0010
0001
1000
0010
1000
0001
0000
0010
0100
,
0010
0001
1000
0010
0100
0000
0010
0100
0010
1000
0100
0010
0001
1000
0010
1000
,
0001
1000
0100
0010
0001
1000
0010
0100
0001
0010
0001
1000
0100
1000
0001
0100
,
0001
1000
0010
0100
0001
1000
0100
0010
0001
0100
0001
1000
0010
1000
0001
0100
,
0001
0010
0100
1000
0001
0010
0100
1000
0001
0010
0100
1000
0001
0010
0100
1000
,
0020
0000
0000
0000
0000
0000
0000
0030
0000
0000
0000
0000
0000
0000
0000
0000
,
2000
0000
0100
3000
0010
0000
0000
0000
0001
0000
0000
0000
0200
0000
0000
0300
0010
0000
0000
0000
0200
0000
0300
0000
0001
0000
0000
0000
0200
0300
0000
0000
0010
0000
0000
0000
1000
0000
0000
0000
0001
0000
0000
0000
0010
0000
0000
0000
0100
0000
0000
0000
1000
0000
0000
0000
0010
0000
0000
0000
0100
0000
0000
0000
,
0002
0000
0100
0003
0010
0000
0000
0000
1000
0000
0000
0000
0200
0000
0000
0300
0010
0000
0000
0000
0200
0000
0300
0000
1000
0000
0000
0000
0200
0300
0000
0000
0010
0000
0000
0000
0001
0000
0000
0000
1000
0000
0000
0000
0010
0000
0000
0000
0100
0000
0000
0000
0001
0000
0000
0000
0010
0000
0000
0000
0100
0000
0000
0000
,
2000
0000
0010
3000
0100
0000
0000
0000
0001
0000
0000
0000
0020
0000
0000
0030
0100
0000
0000
0000
0020
0000
0030
0000
0001
0000
0000
0000
0020
0030
0000
0000
0100
0000
0000
0000
1000
0000
0000
0000
0001
0000
0000
0000
0100
0000
0000
0000
0010
0000
0000
0000
1000
0000
0000
0000
0100
0000
0000
0000
0010
0000
0000
0000
,
0002
0000
0010
0003
0100
0000
0000
0000
1000
0000
0000
0000
0020
0000
0000
0030
0100
0000
0000
0000
0020
0000
0030
0000
1000
0000
0000
0000
0020
0030
0000
0000
0100
0000
0000
0000
0001
0000
0000
0000
1000
0000
0000
0000
0100
0000
0000
0000
0010
0000
0000
0000
0001
0000
0000
0000
0100
0000
0000
0000
0010
0000
0000
0000
,
0200
0000
0001
0300
1000
0000
0000
0000
0010
0000
0000
0000
0200
0000
0000
0300
0001
0000
0000
0000
0200
0000
0300
0000
0010
0000
0000
0000
0200
0300
0000
0000
0001
0000
0000
0000
1000
0000
0000
0000
0100
0000
0000
0000
0010
0000
0000
0000
0001
0000
0000
0000
0100
0000
0000
0000
0010
0000
0000
0000
1000
0000
0000
0000
,
0200
0000
1000
0300
0001
0000
0000
0000
0010
0000
0000
0000
0200
0000
0000
0300
1000
0000
0000
0000
0200
0000
0300
0000
0010
0000
0000
0000
0200
0300
0000
0000
1000
0000
0000
0000
0001
0000
0000
0000
0010
0000
0000
0000
0100
0000
0000
0000
1000
0000
0000
0000
0010
0000
0000
0000
0100
0000
0000
0000
0001
0000
0000
0000
,
0020
0000
0001
0030
1000
0000
0000
0000
0100
0000
0000
0000
0020
0000
0000
0030
0001
0000
0000
0000
0020
0000
0030
0000
0100
0000
0000
0000
0020
0030
0000
0000
0001
0000
0000
0000
1000
0000
0000
0000
0010
0000
0000
0000
0100
0000
0000
0000
0001
0000
0000
0000
0010
0000
0000
0000
0100
0000
0000
0000
1000
0000
0000
0000
,
0020
0000
1000
0030
0001
0000
0000
0000
0100
0000
0000
0000
0020
0000
0000
0030
1000
0000
0000
0000
0020
0000
0030
0000
0100
0000
0000
0000
0020
0030
0000
0000
1000
0000
0001
0000
0100
0000
0010
0000
1000
0000
0100
0000
1000
0000
0001
0000
0010
0000
0001
0000
1000
0000
0010
0000
1000
0000
0001
0000
0100
0000
0010
0000
,
1000
0001
0100
0010
0100
0001
0010
0100
1000
0100
0010
0001
1000
0001
0010
0100
,
1000
0001
0010
0001
0100
0010
0100
0001
1000
0010
1000
0100
0010
0001
1000
0100
,
1000
0001
0010
0100
0010
0001
0100
0010
1000
0010
0100
0001
1000
0001
0100
0010
,
1000
0001
0100
0001
0010
0100
0010
0001
1000
0100
1000
0010
0100
0001
1000
0010
,
1000
0100
0010
0001
1000
0001
0100
0010
1000
0010
0100
0001
1000
0001
0100
0010
,
1000
0001
0100
0001
0010
0100
0010
0001
1000
0100
1000
0001
0100
0001
1000
0010
,
1000
0010
0100
0001
1000
0001
0010
0100
1000
0100
0010
0001
1000
0001
0010
0100
,
1000
0001
0010
0001
0100
0010
0100
0001
1000
0000
1000
0000
0101
0000
1000
0000
,
0001
1000
0010
0100
0010
1000
0100
0010
0001
0010
0100
1000
0001
1000
0100
0010
,
0001
1000
0001
0010
0100
1000
0100
0010
0100
1000
0010
0100
0001
1000
0100
1000
,
0001
1000
0100
0010
0100
1000
0010
0100
0001
0100
0010
1000
0001
1000
0010
0100
,
0001
1000
0001
0100
0010
1000
0010
0100
0010
1000
0100
0010
0001
1000
0010
1000
,
0001
0010
0100
1000
0001
1000
0010
0100
0001
0100
0010
1000
0001
1000
0010
0100
,
0001
1000
0001
0010
0100
1000
0100
0010
0100
1000
0010
0100
0001
1000
0100
1000
,
0001
0100
0010
1000
0001
1000
0100
0010
0001
0010
0100
1000
0001
1000
0100
0010
,
0100
0000
0000
0000
0000
0000
1000
0000
0010
0000
1000
0000
0002
0000
0000
0003
0000
0000
1000
0000
0010
0000
1000
0000
0002
0000
0000
1003
0000
0000
0100
0000
0000
0000
0000
0000
1000
0000
0000
0000
0000
0000
0001
0000
0000
0000
0000
0000
,
1000
0001
0100
0010
0100
0001
0010
0100
1000
0100
0010
0001
1000
0001
0010
0100
,
1000
0001
0010
0001
0100
0010
0100
0001
1000
0010
1000
0100
0010
0001
1000
0100
,
1000
0001
0010
0100
0010
0001
0100
0010
1000
0010
0100
0001
1000
0001
0100
0010
,
1000
0001
0100
0001
0010
0100
0010
0001
1000
0100
1000
0010
0100
0001
1000
0010
,
1000
0100
0010
0001
1000
0001
0100
0010
1000
0010
0100
0001
1000
0001
0100
0010
,
1000
0001
0100
0001
0010
0100
0010
0001
1000
0100
1000
0001
0100
0001
1000
0010
,
1000
0010
0100
0001
1000
0001
0010
0100
1000
0100
0010
0001
1000
0001
0010
0100
,
1000
0001
0010
0001
0100
0010
0100
0001
1000
0000
1000
0000
0101
0000
1000
0000
,
0001
1000
0010
0100
0010
1000
0100
0010
0001
0010
0100
1000
0001
1000
0100
0010
,
0001
1000
0001
0010
0100
1000
0100
0010
0100
1000
0010
0100
0001
1000
0100
1000
,
0001
1000
0100
0010
0100
1000
0010
0100
0001
0100
0010
1000
0001
1000
0010
0100
,
0001
1000
0001
0100
0010
1000
0010
0100
0010
1000
0100
0010
0001
1000
0010
1000
,
0001
1000
0010
0100
0001
1000
0100
0010
0001
0100
0001
1000
0010
1000
0001
0010
,
0001
1000
0100
0010
0001
1000
0010
0100
0001
0010
0001
1000
0100
1000
0001
0010
,
0001
0100
0010
1000
0001
0100
0010
1000
0001
0100
0010
1000
0001
0100
0010
1000
,
0200
0000
0000
0000
0000
0000
0000
0300
0000
0000
0000
0000
0000
0000
0000
0000
,
2001
0000
0000
0000
,
3000
0000
0000
0000
,
0002
0000
0000
0000
,
0200
0000
0000
0000
0000
0000
0000
0000
0000
0000
0000
0000
0000
0000
0000
0003
,
0020
0000
0000
0000
0000
0000
0000
0000
0000
0000
0000
0000
0000
0000
0000
0300
,
2000
0000
0000
0000
0000
0000
0000
0000
0000
0000
0000
0000
0000
0000
0000
3030
,
0002
0000
0000
0000
,
0200
0000
0000
0000
0000
0000
0000
0000
0000
0000
0000
0000
0000
0000
0000
0003
,
0020
0000
0000
0000
0000
0000
0000
0000
0000
0000
0000
0000
0000
0000
0000
0300
,
2000
0000
0000
0000
0000
0000
0000
0000
0000
0000
0000
3030
0001
0100
0010
1000
,
0002
0000
0003
0000
0010
0100
1000
0001
2000
0000
3000
0000
0010
0100
0010
1000
,
0002
0003
0020
0030
0200
0300
2000
3000
0020
0000
0000
0130
0001
1000
0001
0010
,
0200
0000
0300
0010
0001
1000
0001
0100
0020
0000
0000
0030
0200
0300
0002
0003
,
0020
0030
0200
0300
2000
3000
0002
0003
0200
0000
0000
0300
0001
0010
0100
1000
,
0002
0000
0000
0003
0100
0010
1000
0001
2000
0000
0000
3000
0100
0010
0100
1000
,
0002
0003
0200
0300
0020
0030
2000
3000
0200
0000
0000
0310
0001
1000
0001
0100
,
0020
0000
0000
0130
0001
1000
0001
0010
0200
0000
0000
0300
0020
0030
0002
0003
,
2000
3000
0020
0030
0200
0300
0002
0003
2000
3000
0200
0300
0020
0030
0200
0300
,
0020
0000
0030
0000
0002
0000
0003
0000
0200
0000
0300
0000
0020
0030
0000
0000
00M0
0000
0000
0000
0000
0000
0020
0000
0030
0000
2000
0000
3000
0000
0002
0003
,
0000
0000
0000
000M
0000
0000
0002
0000
0000
0000
0000
0000
0000
0000
0000
0000
0000
0000
0000
0000
0000
0000
0000
0000
0003
0000
0000
0000
0000
0000
0000
0000
,
2000
0000
0000
0100
0000
0000
0002
3000
2003
0000
0000
0100
0000
0000
0002
3000
,
2003
0000
0000
0000
0000
0000
0000
0000
0000
0000
0000
0000
0100
0000
0000
0000
0000
0000
0000
0000
0000
0000
0000
0000
0002
0000
0000
0000
3000
0000
0000
0000
2003
0000
0000
0000
0000
0000
0000
0000
0000
0000
0000
0000
0100
0000
0000
0000
0000
0000
0000
0000
0000
0000
0000
0000
0002
0000
0000
0000
3000
0000
0000
0003
,
0002
0000
0000
0100
0000
0003
0002
0000
0023
0000
0000
0100
0000
0000
0002
0030
,
0023
0000
0000
0100
0000
0000
0002
0030
0023
0000
0000
0100
0000
0000
0002
0030
,
0203
0000
0000
0010
0000
0000
0002
0300
0203
0000
0000
0010
0000
0000
0002
0300
,
0023
0000
0000
0100
0000
0000
0002
0030
0023
0000
0000
0100
0000
0000
0002
0030
,
2003
0000
0000
0010
0000
0000
0002
3000
2003
0000
0000
0010
0000
0000
0002
3000
,
0203
0000
0000
0000
0000
0000
0000
0000
0000
0000
0000
0000
0010
0000
0000
0000
0000
0000
0000
0000
0000
0000
0000
0000
0002
0000
0000
0000
0300
0000
0000
0000
0023
0000
0000
0000
0000
0000
0000
0000
0000
0000
0000
0000
0100
0000
0000
0000
0000
0000
0000
0000
0030
0000
0000
0000
2000
0000
0000
0000
0000
0000
0000
3000
,
2000
0000
0000
0100
0000
0000
0002
3000
2003
0000
0000
0100
0000
0000
0002
3000
,
2003
0000
0000
0000
0000
0000
0000
0000
0000
0000
0000
0000
0100
0000
0000
0000
0000
0000
0000
0000
0000
0000
0000
0000
0002
0000
0000
0000
3000
0000
0000
0000
2003
0000
0000
0000
0000
0000
0000
0000
0000
0000
0000
0000
0100
0000
0000
0000
0000
0000
0000
0000
0000
0000
0000
0000
0002
0000
0000
0000
3000
0000
0000
0003
,
0002
0000
0000
0100
0000
0003
0002
0000
0023
0000
0000
0100
0000
0000
0002
0030
,
0023
0000
0000
0100
0000
0000
0002
0030
0023
0000
0000
0100
0000
0000
0002
0030
,
0203
0000
0000
0010
0000
0000
0002
0300
0203
0000
0000
0010
0000
0000
0002
0300
,
0023
0000
0000
0100
0000
0000
0002
0030
0023
0000
0000
0100
0000
0000
0002
0030
,
2003
0000
0000
0010
0000
0000
0002
3000
2003
0000
0000
0010
0000
0000
0002
3000
,
0203
0000
0000
0000
0000
0000
0000
0000
0000
0000
0000
0000
0010
0000
0000
0000
0000
0000
0000
0000
0000
0000
0000
0000
0002
0000
0000
0000
0300
0000
0000
0000
0023
0000
0000
0000
0000
0000
0000
0000
0000
0000
0000
0000
0100
0000
0000
0000
0000
0000
0000
0000
0030
0000
0000
0000
2000
0000
0000
0000
0000
0000
0000
3000
,
2001
0000
3000
0000
0001
0000
1000
0000
0001
0000
1000
0000
0020
0030
0000
0000
2000
0000
3000
0000
0100
0000
0010
0000
0100
0000
0010
0000
0002
0003
0000
0000
,
0200
0000
0300
0000
0010
0000
1000
0000
0010
0000
1000
0000
0002
0003
0000
0000
0020
0000
0030
0000
0100
0000
1000
0000
0100
0000
1000
0000
0002
0003
0000
0000
,
2000
0000
3000
0000
0010
0000
0100
0000
0010
0000
0100
0000
0002
0003
0000
0000
2000
0000
3000
0000
0001
0000
0010
0000
0001
0000
0010
0000
0200
0300
0000
0000
,
2000
0000
3000
0000
0001
0000
1000
0000
0001
0000
1000
0000
0200
0300
0000
0000
2000
0000
3000
0000
0010
0000
0100
0000
0010
0000
0100
0000
0002
0003
0000
0000
,
0020
0000
0030
0000
0100
0000
1000
0000
0100
0000
1000
0000
0002
0003
0000
0000
0200
0000
0300
0000
0010
0000
1000
0000
0010
0000
1000
0000
0002
0003
0000
0000
,
2000
0000
3000
0000
0100
0000
0010
0000
0100
0000
0010
0000
0002
0003
0000
0000
2000
0000
3000
0000
0001
0000
0100
0000
0001
0000
0100
0000
0020
0030
0000
0000
,
2000
0000
3000
0000
0001
0000
1000
0000
0001
0000
1000
0000
0020
0030
0000
0000
2000
0000
3000
0000
0100
0000
0010
0000
0100
0000
0010
0000
0002
0003
0000
0000
,
0200
0000
0300
0000
0010
0000
1000
0000
0010
0000
1000
0000
0002
0003
0000
0000
0020
0000
0030
0000
0100
0000
1000
0000
0100
0000
1000
0000
0002
0003
0000
0000
,
1000
0001
0101
0001
1000
0100
1100
1000
,
0001
0100
0101
0001
1000
0100
1100
1000
,
0001
0100
0101
0001
1000
0100
1100
1000
,
0001
0100
0101
0001
1000
0100
1100
1000
,
0001
1000
0100
0010
0001
1000
0010
0100
0001
0010
0001
1000
0100
1000
0001
0100
,
0001
1000
0010
0100
0001
1000
0100
0010
0001
0100
0001
1000
0010
1000
0001
0100
,
0001
0010
0100
1000
0001
0010
0100
1000
0001
0010
0100
1000
0001
0010
0100
1000
,
0020
0000
0000
0000
0000
0000
0000
0030
0200
0000
0302
0000
0203
0000
0320
0000
,
1030
0001
0100
0010
1000
0001
0100
0010
1000
0100
1000
0010
0100
0001
0010
0001
,
1000
0001
0010
0100
1000
0001
0010
0100
1000
0010
1000
0100
0010
0001
0100
0001
,
1000
0100
0010
0001
1000
0001
0010
0100
1000
0010
0100
0001
1000
0001
0100
0010
,
1000
0001
0010
0001
1000
0010
0100
0001
0100
0010
1000
0100
0010
0100
1000
0001
,
0100
0010
1000
0001
0100
0010
1000
0001
0100
0010
1000
0100
0010
0001
1000
0100
,
1000
0001
0010
0001
1000
0001
0010
0100
0010
0001
0100
0010
1000
0100
0010
0100
,
1000
0010
0100
0001
1000
0001
0100
0010
1000
0100
0010
0001
1000
0001
0010
0100
,
1000
0001
0100
0001
1000
0010
0100
0001
1000
0010
1000
0001
0010
0100
0010
0001
,
1000
0001
0010
0100
1000
0001
0010
0100
1000
0010
1000
0100
0010
0001
0100
0001
,
1000
0001
0100
0010
1000
0001
0100
0010
1000
0100
1000
0010
0100
0001
0010
0001
,
1000
0010
0100
0001
1000
0001
0100
0010
1000
0100
0010
0001
1000
0001
0010
0100
,
1000
0001
0100
0001
1000
0100
0010
0001
0010
0100
1000
0010
0100
0010
1000
0001
,
0010
0100
1000
0001
0010
0100
1000
0001
0010
0100
1000
0010
0100
0001
1000
0010
,
1000
0001
0100
0001
1000
0001
0100
0010
0100
0001
0010
0100
1000
0010
0100
0010
,
1000
0100
0010
0001
1000
0001
0010
0100
1000
0010
0100
0001
1000
0001
0100
0010
,
1000
0001
0010
0001
1000
0100
0010
0001
1000
0100
1000
0000
0001
0100
0010
1000
,
0001
1000
0010
0100
0001
1000
0010
0100
0001
0010
0001
0100
0010
1000
0100
1000
,
0001
1000
0100
0010
0001
1000
0100
0010
0001
0100
0001
0010
0100
1000
0010
1000
,
0001
0010
0100
1000
0001
1000
0100
0010
0001
0100
0010
1000
0001
1000
0010
0100
,
0001
1000
0100
1000
0001
0100
0010
1000
0010
0100
0001
0010
0100
0010
0001
1000
,
0010
0100
0001
1000
0010
0100
0001
1000
0010
0100
0001
0010
0100
1000
0001
0010
,
0001
1000
0100
1000
0001
1000
0100
0010
0100
1000
0010
0100
0001
0010
0100
0010
,
0001
0100
0010
1000
0001
1000
0010
0100
0001
0010
0100
1000
0001
1000
0100
0010
,
0001
1000
0010
1000
0001
0100
0010
1000
0001
0100
0001
1000
0100
0010
0100
1000
,
0001
1000
0100
0010
0001
1000
0100
0010
0001
0100
0001
0010
0100
1000
0010
1000
,
0001
1000
0010
0100
0001
1000
0010
0100
0001
0010
0001
0100
0010
1000
0100
1000
,
0001
0100
0010
1000
0001
1000
0010
0100
0001
0010
0100
1000
0001
1000
0100
0010
,
0001
1000
0010
1000
0001
0010
0100
1000
0100
0010
0001
0100
0010
0100
0001
1000
,
0100
0010
0001
1000
0100
0010
0001
1000
0100
0010
0001
0100
0010
1000
0001
0100
,
0001
1000
0010
1000
0001
1000
0010
0100
0010
1000
0100
0010
0001
0100
0010
0100
,
0001
0010
0100
1000
0001
1000
0100
0010
0001
0100
0010
1000
0001
1000
0010
0100
,
0001
0010
0100
1000
0001
1000
0100
0010
0001
0100
0010
1000
0001
1000
0010
0100
,
0001
0100
0010
1000
0001
1000
0010
0100
0001
0010
0100
1000
0001
1000
0100
0010
,
0001
1000
0100
1000
0010
0100
0010
1000
0001
0010
0100
1000
0010
0100
0001
1000
,
0200
0000
0300
0000
0010
0000
0001
0000
0010
0000
0001
0000
2000
3000
0000
0000
0002
0000
0003
0000
1000
0000
0010
0000
1000
0000
0010
0000
0200
0300
0000
0000
,
0002
0000
0003
0000
0010
0000
0100
0000
0010
0000
0100
0000
2000
3000
0000
0000
0002
0000
0003
0000
0100
0000
0010
0000
0100
0000
0010
0000
2000
3000
0000
0000
,
0001
1000
0010
0100
0001
1000
0010
0100
0001
0010
0001
1000
0010
1000
0100
1000
,
0001
1000
0100
0010
0001
1000
0100
0010
0001
1000
0001
0010
0100
1000
0010
1000
,
0001
0010
0100
1000
0001
1000
0100
0010
0001
1000
0010
1000
0001
1000
0010
0100
,
0001
1000
0100
1000
0001
0100
0010
1000
0010
1000
0001
0010
0100
0010
0001
1000
,
0010
0100
0001
1000
0010
0100
0001
1000
0010
1000
0001
0010
0100
1000
0001
0010
,
0001
1000
0100
1000
0001
1000
0100
0010
0100
1000
0001
0100
0001
0010
0100
0010
,
0001
0100
0010
1000
0001
1000
0010
1000
0001
0010
0100
1000
0001
1000
0100
0010
,
0001
1000
0010
1000
0001
0100
0010
1000
0001
0100
0001
1000
0100
0010
0100
1000
,
0001
1000
0100
0010
0001
1000
0100
0010
0001
1000
0001
0010
0100
1000
0010
1000
,
0001
1000
0010
0100
0001
1000
0010
0100
0001
1000
0001
0100
0010
1000
0100
1000
,
0001
0100
0010
1000
0001
1000
0010
1000
0001
0010
0100
1000
0001
1000
0100
0010
,
0001
1000
0010
1000
0001
0010
0100
1000
0100
0010
0001
1000
0010
0100
0001
1000
,
0100
0010
0001
1000
0100
0010
0001
1000
0100
0010
0001
1000
0010
1000
0001
0100
,
0001
1000
0010
1000
0001
1000
0010
0100
0001
1000
0100
0010
0001
0100
0010
0100
,
0001
0010
0100
1000
0001
1000
0100
0010
0001
1000
0010
1000
0001
1000
0010
0100
,
0001
1000
0100
1000
0001
0010
0100
1000
0001
0010
0001
0000
1000
0001
0100
0010
,
1000
0001
0100
0010
1000
0100
1000
0001
0100
0001
0010
0001
1000
0001
0010
0100
,
1000
0001
0010
0100
1000
0001
1000
0100
0010
0001
0100
0001
1000
0100
0010
0001
,
1000
0001
0010
0100
1000
0001
0100
0001
1000
0001
0100
0010
1000
0001
0010
0001
,
1000
0010
0100
0001
0100
0001
1000
0100
0010
0100
1000
0001
0100
0010
1000
0001
,
0100
0010
1000
0001
0100
0001
1000
0100
0010
0001
1000
0100
1000
0001
0010
0001
,
1000
0001
0010
0100
0010
0001
1000
0010
1000
0100
0010
0100
1000
0010
0100
0001
,
1000
0001
0100
0001
1000
0100
0010
0001
1000
0001
0010
0100
1000
0001
0100
0001
,
1000
0010
0100
0001
1000
0010
1000
0001
0010
0100
0010
0001
1000
0001
0010
0100
,
1000
0001
0010
0100
1000
0001
1000
0100
0010
0001
0100
0001
1000
0001
0100
0010
,
1000
0001
0100
0010
1000
0001
1000
0010
0100
0001
0010
0001
1000
0010
0100
0001
,
1000
0001
0100
0001
1000
0100
0010
0001
1000
0001
0010
0100
1000
0001
0100
0001
,
1000
0100
0010
0001
0010
0100
1000
0001
0100
0010
1000
0001
0010
0100
1000
0001
,
0010
0100
1000
0001
0010
0100
1000
0001
0100
0001
1000
0010
1000
0001
0100
0001
,
1000
0001
0100
0010
1000
0001
0010
0100
1000
0010
0100
0010
1000
0100
0010
0001
,
1000
0001
0010
0100
1000
0001
0100
0010
1000
0100
1000
0001
0010
0001
1000
0010
,
1000
0001
0100
0010
1000
0001
0010
0100
1000
0010
1000
0001
0100
0001
1000
0010
,
1000
0100
0010
0001
1000
0100
0010
0001
1000
0100
0010
0001
1000
0100
0010
0001
,
4000
0000
0400
0000
0000
0000
0000
0000
0000
0000
0000
0000
0000
0000
0000
0000
0000
0000
3300
0000
0000
0000
0000
0000
0001
0000
0000
0010
0000
0000
0001
0000
0000
0000
0000
0000
1000
0000
0000
0001
0000
0000
0010
0000
0000
0001
0000
0000
,
2000
0000
3000
0000
0100
0000
0010
0000
0100
0000
0010
0000
0002
0003
0000
0000
2000
0000
3000
0000
0001
0000
0100
0000
0001
0000
0100
0000
0020
0030
0000
0000
,
2000
0000
3000
0000
0010
0000
0100
0000
0010
0000
0100
0000
0002
0003
0000
0000
1000
0000
0010
0000
0100
0000
0001
0000
1000
0000
0010
0000
0100
0000
0001
0000
,
1000
0100
1000
0001
0010
0000
0001
0010
0001
0100
0010
1000
0001
0000
0100
0010
,
1000
0001
0010
0100
1000
0000
0001
0010
0001
1000
0100
0010
0001
0100
0010
1000
,
0001
0100
0001
1000
0010
0000
1000
0010
1000
0100
0010
0001
1000
0000
0100
0010
,
0001
1000
0010
0100
0001
0000
1000
0010
1000
0001
0100
0010
1000
0100
0010
0001
,
1000
0010
1000
0001
0100
0000
0001
0100
0001
0010
0100
1000
0001
0000
0010
0100
,
1000
0001
0100
0010
1000
0000
0001
0100
0001
1000
0010
0100
0001
0010
0100
1000
,
0001
0010
0001
1000
0100
0000
1000
0100
1000
0010
0100
0001
1000
0000
0010
0100
,
0001
1000
0100
0010
0001
0000
0100
0010
1000
0000
1000
0000
0101
0000
1000
0000
,
0100
0010
0001
1000
0010
0000
0100
0010
1000
0001
0010
0001
1000
0000
0010
0100
,
0010
1000
0001
0010
0100
0000
0010
0100
0010
0001
0100
0010
1000
0001
0010
0001
,
0100
0010
1000
0001
0010
0000
0100
0010
0001
1000
0010
1000
0001
0000
0010
0100
,
0010
0001
1000
0010
0100
0000
0010
0100
0010
1000
0100
0010
0001
1000
0010
1000
,
0100
0010
0001
1000
0010
0000
0100
0010
1000
0001
0010
0001
1000
0000
0010
0100
,
0010
1000
0001
0010
0100
0000
0010
0100
0010
0001
0100
0010
1000
0001
0010
0001
,
0100
0010
1000
0001
0010
0000
0100
0010
0001
1000
0010
1000
0001
0000
0010
0100
,
1000
0000
0000
0000
0000
0000
0001
0000
0010
0000
0001
0000
1000
0000
0000
0000
0000
0000
0001
0000
0010
0000
0001
0000
1000
0000
0000
0001
0000
0000
0100
0000
0000
0000
0000
0000
0001
0000
0000
0000
0000
0000
1000
0000
0000
0000
0000
0000
,
0001
1000
0010
0100
0010
1000
0100
0010
0001
0010
0100
1000
0001
1000
0100
0010
,
0001
1000
0100
1000
0010
0100
0010
1000
0001
0100
0001
0010
0100
1000
0001
0010
,
0001
1000
0100
0010
0100
1000
0010
0100
0001
0100
0010
1000
0001
1000
0010
0100
,
0001
1000
0010
1000
0100
0010
0100
1000
0001
0010
0001
0100
0010
1000
0001
0100
,
0001
0010
0100
1000
0001
1000
0010
0100
0001
0100
0010
1000
0001
1000
0010
0100
,
0001
1000
0010
1000
0100
0010
0100
1000
0001
0010
0001
1000
0010
1000
0001
0100
,
0001
0100
0010
1000
0001
1000
0100
0010
0001
0010
0100
1000
0001
1000
0100
0010
,
0001
1000
0100
1000
0010
0100
0010
1000
0001
0000
0001
0000
1010
0000
0001
0000
,
1000
0001
0100
0010
0100
0001
0010
0100
1000
0100
0010
0001
1000
0001
0010
0100
,
1000
0001
1000
0100
0010
0001
0010
0100
0010
0001
0100
0010
1000
0001
0010
0001
,
1000
0001
0010
0100
0010
0001
0100
0010
1000
0010
0100
0001
1000
0001
0100
0010
,
1000
0001
1000
0010
0100
0001
0100
0010
0100
0001
0010
0100
1000
0001
0100
0001
,
1000
0001
0100
0010
1000
0001
0010
0100
1000
0010
1000
0001
0100
0001
1000
0100
,
1000
0001
0010
0100
1000
0001
0100
0010
1000
0100
1000
0001
0010
0001
1000
0100
,
1000
0010
0100
0001
1000
0010
0100
0001
1000
0010
0100
0001
1000
0010
0100
0001
,
0020
0000
0000
0000
0000
0000
0000
0030
0200
0000
2300
0000
3200
0000
0320
0000
,
0031
1000
0100
0010
0001
1000
0100
0010
0001
0100
0001
0010
0100
1000
0010
1000
,
0001
1000
0010
0100
0001
1000
0010
0100
0001
0010
0001
0100
0010
1000
0100
1000
,
0001
0100
0010
1000
0001
1000
0010
0100
0001
0010
0100
1000
0001
1000
0100
0010
,
0001
1000
0010
1000
0001
0010
0100
1000
0100
0010
0001
0100
0010
0100
0001
1000
,
0100
0010
0001
1000
0100
0010
0001
1000
0100
0010
0001
0100
0010
1000
0001
0100
,
0001
1000
0010
1000
0001
1000
0010
0100
0010
1000
0100
0010
0001
0100
0010
0100
,
0001
0010
0100
1000
0001
1000
0100
0010
0001
0100
0010
1000
0001
1000
0010
0100
,
0001
1000
0100
1000
0001
0010
0100
1000
0001
0010
0001
1000
0010
0100
0010
1000
,
0001
1000
0010
0100
0001
1000
0010
0100
0001
0010
0001
0100
0010
1000
0100
1000
,
0001
1000
0100
0010
0001
1000
0100
0010
0001
0100
0001
0010
0100
1000
0010
1000
,
0001
0010
0100
1000
0001
1000
0100
0010
0001
0100
0010
1000
0001
1000
0010
0100
,
0001
1000
0100
1000
0001
0100
0010
1000
0010
0100
0001
0010
0100
0010
0001
1000
,
0010
0100
0001
1000
0010
0100
0001
1000
0010
0100
0001
0010
0100
1000
0001
0010
,
0001
1000
0100
1000
0001
1000
0100
0010
0100
1000
0010
0100
0001
0010
0100
0010
,
0001
0100
0010
1000
0001
1000
0010
0100
0001
0010
0100
1000
0001
1000
0100
0010
,
0001
1000
0010
1000
0001
0100
0010
1000
0001
0100
0001
0000
1000
0100
0010
0001
,
1000
0001
0010
0100
1000
0001
0010
0100
1000
0010
1000
0100
0010
0001
0100
0001
,
1000
0001
0100
0010
1000
0001
0100
0010
1000
0100
1000
0010
0100
0001
0010
0001
,
1000
0010
0100
0001
1000
0001
0100
0010
1000
0100
0010
0001
1000
0001
0010
0100
,
1000
0001
0100
0001
1000
0100
0010
0001
0010
0100
1000
0010
0100
0010
1000
0001
,
0010
0100
1000
0001
0010
0100
1000
0001
0010
0100
1000
0010
0100
0001
1000
0010
,
1000
0001
0100
0001
1000
0001
0100
0010
0100
0001
0010
0100
1000
0010
0100
0010
,
1000
0100
0010
0001
1000
0001
0010
0100
1000
0010
0100
0001
1000
0001
0100
0010
,
1000
0001
0010
0001
1000
0100
0010
0001
1000
0100
1000
0001
0100
0010
0100
0001
,
1000
0001
0100
0010
1000
0001
0100
0010
1000
0100
1000
0010
0100
0001
0010
0001
,
1000
0001
0010
0100
1000
0001
0010
0100
1000
0010
1000
0100
0010
0001
0100
0001
,
1000
0100
0010
0001
1000
0001
0010
0100
1000
0010
0100
0001
1000
0001
0100
0010
,
1000
0001
0010
0001
1000
0010
0100
0001
0100
0010
1000
0100
0010
0100
1000
0001
,
0100
0010
1000
0001
0100
0010
1000
0001
0100
0010
1000
0100
0010
0001
1000
0100
,
1000
0001
0010
0001
1000
0001
0010
0100
0010
0001
0100
0010
1000
0100
0010
0100
,
1000
0001
0100
0010
1000
0001
0010
0100
1000
0010
1000
0001
0100
0001
1000
0100
,
1000
0001
0010
0100
1000
0001
0100
0010
1000
0100
1000
0001
0010
0001
1000
0100
,
1000
0010
0100
0001
1000
0010
0100
0001
1000
0010
0100
0001
1000
0010
0100
0001
,
4000
0000
0004
0000
0000
0000
0000
0000
0000
0000
0000
0000
0000
0000
0000
0000
0000
0000
3003
0000
0000
0000
0000
0000
1000
0000
0000
0100
0000
0000
0010
0000
0000
0001
0000
0000
1000
0000
0000
0100
0000
0000
0010
0000
0000
0001
0000
0000
,
0200
0000
0300
0000
,
0MM2
0000
1000
0003
0010
0000
0000
0000
1000
0000
0000
0000
0200
0000
0000
0300
0010
0000
0000
0000
0200
0000
0300
0000
1000
0000
0000
0000
0200
0300
0000
0000
,
0010
0001
0100
0010
0100
0001
1000
0200
,
0000
0300
0000
0000
0000
0000
0000
0000
;

//---------------dance-single - 15- (TYLRchi)----------------
#NOTES:
     dance-single:
     15- (TYLRchi):
     Hard:
     15:
     1.000,1.000,0.025,0.654,1.000,3140.000,10.000,259.000,2.000,0.000:
0000
0000
0000
0000
,
0000
0000
0000
0000
,
0002
1003
0010
0000
0100
0000
0100
0000
0001
0000
0100
0000
0010
0000
0100
0000
,
0001
1000
0100
0000
1000
0001
0100
0000
,
0020
1030
0001
0000
0010
0000
0010
0000
0100
0000
0010
0000
0001
0000
0010
0000
,
0100
1000
0010
0000
1000
0001
0010
0000
,
0002
1003
0010
0000
0100
0000
0100
0000
0001
0000
0100
0000
0010
0000
0100
0000
,
0001
1000
0100
0000
1000
0001
0100
0000
,
0020
1030
0001
0000
0010
0000
0010
0000
0100
0000
0010
0000
0001
0000
0010
0000
,
0100
1000
0010
0000
1000
1000
0100
0010
,
0002
1003
0010
0000
0100
0000
0100
0000
0001
0000
0100
0000
0010
0000
0100
0000
,
0001
1000
0100
0000
1000
0001
0100
0000
,
0020
1030
0001
0000
0010
0000
0010
0000
0100
0000
0010
0000
0001
0000
0010
0000
,
0100
1000
0010
0000
1000
0001
0010
0000
,
0002
1003
0010
0000
0100
0000
0100
0000
0001
0000
0100
0000
0010
0000
0100
0000
,
0001
1000
0100
0000
1000
0001
0100
0000
,
0020
1030
0001
0000
0010
0000
0010
0000
0100
0000
0010
0000
0001
0000
0010
0000
,
0100
1000
0100
0010
0001
1000
0100
1000
0001
1000
0010
0100
0001
1000
0001
0010
,
0200
1300
0001
0000
0100
0000
0010
0000
0100
0001
1000
0000
0010
0000
1000
0000
,
0001
0010
0100
0000
1000
0000
0100
0000
0010
0001
1000
0000
0010
0000
0100
0000
,
0002
1003
0100
0000
0010
0000
0001
0000
1000
0001
0010
0000
0100
0000
1000
0000
,
0001
1000
0010
0000
0100
0000
0001
0000
0100
0010
1000
0000
0001
0000
0010
0000
,
0200
1300
0001
0000
1000
0000
0010
0000
0100
0001
1000
0000
0010
0000
1000
0000
,
0001
0010
0100
0000
1000
0000
0100
0000
0010
0001
1000
0000
0010
0000
1000
0000
,
0002
0103
0010
0000
1000
0000
0001
0000
1000
0010
0100
0000
0001
0000
1000
0000
,
0001
0010
0100
0000
1000
0000
0001
0000
1000
0000
1000
0000
0010
0000
1000
0000
,
0200
0310
0001
0000
1000
0000
0010
0000
1000
0001
0100
0000
0010
0000
1000
0000
,
0001
0010
0100
0000
1000
0000
0100
0000
0010
0001
1000
0000
0010
0000
0100
0000
,
0002
1003
0100
0000
0010
0000
0001
0000
1000
0001
0010
0000
0100
0000
1000
0000
,
0001
1000
0010
0000
0100
0000
0001
0000
0100
0010
1000
0000
0001
0000
0010
0000
,
0200
1300
0001
0000
1000
0000
0010
0000
0100
0000
0001
0000
0100
0000
0010
0000
,
1000
0001
0010
0100
1000
0010
0100
0001
,
1000
0001
0010
0100
1000
0100
0010
0001
0100
0010
1000
0100
0010
0001
1000
0010
,
0200
0000
0000
0300
0000
0000
0000
0000
,
0002
0000
0010
0003
0100
0000
0000
0000
1000
0000
0000
0000
0020
0000
0000
0030
0100
0000
0000
0000
0020
0000
0030
0000
1000
0000
0000
0000
0020
0030
0000
0000
0100
0000
0000
0000
0001
0000
0000
0000
1000
0000
0000
0000
0100
0000
0000
0000
0010
0000
0000
0000
0001
0000
0000
0000
0100
0000
0000
0000
0010
0000
0000
0000
,
2000
0000
0010
3000
0100
0000
0000
0000
0001
0000
0000
0000
0020
0000
0000
0030
0100
0000
0000
0000
0020
0000
0030
0000
0001
0000
0000
0000
0020
0030
0000
0000
0100
0000
0000
0000
1000
0000
0000
0000
0001
0000
0000
0000
0100
0000
0000
0000
0010
0000
0000
0000
1000
0000
0000
0000
0100
0000
0000
0000
0010
0000
0000
0000
,
0002
0000
0100
0003
0010
0000
0000
0000
1000
0000
0000
0000
0200
0000
0000
0300
0010
0000
0000
0000
0200
0000
0300
0000
1000
0000
0000
0000
0200
0300
0000
0000
0010
0000
0000
0000
0001
0000
0000
0000
1000
0000
0000
0000
0010
0000
0000
0000
0100
0000
0000
0000
0001
0000
0000
0000
0010
0000
0000
0000
0100
0000
0000
0000
,
2000
0000
0100
3000
0010
0000
0000
0000
0001
0000
0000
0000
0200
0000
0000
0300
0010
0000
0000
0000
0200
0000
0300
0000
0001
0000
0000
0000
0200
0300
0000
0000
0010
0000
0000
0000
1000
0000
0000
0000
0001
0000
0000
0000
0010
0000
0000
0000
0100
0000
0000
0000
1000
0000
0000
0000
0010
0000
0000
0000
0100
0000
0000
0000
,
0020
0000
1000
0030
0001
0000
0000
0000
0100
0000
0000
0000
0020
0000
0000
0030
1000
0000
0000
0000
0020
0000
0030
0000
0100
0000
0000
0000
0020
0030
0000
0000
1000
0000
0000
0000
0001
0000
0000
0000
0010
0000
0000
0000
0100
0000
0000
0000
1000
0000
0000
0000
0010
0000
0000
0000
0100
0000
0000
0000
0001
0000
0000
0000
,
0020
0000
0001
0030
1000
0000
0000
0000
0100
0000
0000
0000
0020
0000
0000
0030
0001
0000
0000
0000
0020
0000
0030
0000
0100
0000
0000
0000
0020
0030
0000
0000
0001
0000
0000
0000
1000
0000
0000
0000
0100
0000
0000
0000
0010
0000
0000
0000
0001
0000
0000
0000
0100
0000
0000
0000
0010
0000
0000
0000
1000
0000
0000
0000
,
0200
0000
1000
0300
0001
0000
0000
0000
0010
0000
0000
0000
0200
0000
0000
0300
1000
0000
0000
0000
0200
0000
0300
0000
0010
0000
0000
0000
0200
0300
0000
0000
1000
0000
0000
0000
0001
0000
0000
0000
0100
0000
0000
0000
0010
0000
0000
0000
1000
0000
0000
0000
0100
0000
0000
0000
0010
0000
0000
0000
0001
0000
0000
0000
,
0200
0000
0001
0300
1000
0000
0000
0000
0010
0000
0000
0000
0200
0000
0000
0300
0001
0000
0000
0000
0200
0000
0300
0000
0010
0000
0000
0000
0200
0300
0000
0000
0001
0000
1000
0000
0010
0000
0100
0000
0001
0000
0010
0000
0001
0000
1000
0000
0100
0000
1000
0000
0001
0000
0100
0000
0001
0000
1000
0000
0010
0000
0100
0000
,
0001
0010
0001
1000
0100
0000
1000
0001
1000
0010
0100
0001
1000
0000
0001
0100
,
0010
1000
0001
1000
0100
0000
1000
0001
0100
0001
1000
0010
1000
0001
0010
0001
,
1000
0100
0010
0001
1000
0000
0001
0010
0100
1000
0001
1000
0010
0000
1000
0001
,
0100
0010
1000
0001
0100
0000
0001
1000
0100
0010
0001
0010
0100
1000
0001
1000
,
0010
0100
0001
1000
0010
0000
1000
0001
1000
0100
0010
0001
1000
0000
0001
0010
,
0100
1000
0001
1000
0100
0000
0010
0001
1000
0010
0100
0001
1000
0001
0100
0010
,
1000
0100
0010
0001
1000
0000
0001
0010
0100
1000
0001
1000
0001
0000
0010
0100
,
1000
0010
0100
0001
1000
0000
0001
0100
0010
0000
0010
0000
1000
0000
0010
0000
,
0100
0001
1000
0001
0010
0000
0001
1000
0001
0100
0010
1000
0001
0000
1000
0010
,
0100
0001
1000
0001
0010
0000
0100
1000
0001
1000
0100
0010
0001
1000
0010
0100
,
0001
1000
0001
0100
0010
0000
1000
0001
1000
0100
0010
0001
1000
0000
0001
0010
,
0001
1000
0010
0100
0001
0000
1000
0010
1000
0001
0100
0010
1000
0100
0010
0001
,
1000
0010
1000
0001
0100
0000
0001
0100
0001
0010
0100
1000
0001
0000
0010
0100
,
1000
0001
0100
0010
1000
0000
0001
0100
0001
1000
0010
0100
0001
0010
0100
1000
,
0001
0010
0001
1000
0100
0000
1000
0100
1000
0010
0100
0001
1000
0000
0010
0100
,
0001
0000
0000
0000
0000
0000
1000
0000
0001
0000
1000
0000
0001
0000
0000
0000
0000
0000
1000
0000
0001
0000
1000
0000
0001
0000
0000
1000
0000
0000
0001
0000
0000
0000
0000
0000
0010
0000
0000
0000
0000
0000
0001
0000
0000
0000
0000
0000
,
1000
0010
1000
0001
0100
0000
0001
0100
0001
0010
0100
1000
0001
0000
0010
0100
,
1000
0001
0100
0010
1000
0000
0001
0100
0001
1000
0010
0100
0001
0010
0100
1000
,
0001
0010
0001
1000
0100
0000
1000
0100
1000
0010
0100
0001
1000
0000
0010
0100
,
0001
1000
0100
0010
0001
0000
1000
0100
1000
0001
0010
0100
1000
0010
0100
0001
,
1000
0100
1000
0001
0010
0000
0001
0010
0001
0100
0010
1000
0001
0000
0100
0010
,
1000
0001
0010
0100
1000
0000
0001
0010
0001
1000
0100
0010
0001
0100
0010
1000
,
0001
0100
0001
1000
0010
0000
1000
0010
1000
0100
0010
0001
1000
0000
0100
0010
,
0001
1000
0010
0100
0001
0000
0010
0100
1000
0000
1000
0000
0001
0000
1000
0000
,
0010
0100
0001
1000
0100
0000
0010
0100
1000
0001
0100
0001
1000
0000
0100
0010
,
0100
1000
0001
0100
0010
0000
0100
0010
0100
0001
0010
0100
1000
0001
0100
0001
,
0010
0100
1000
0001
0100
0000
0010
0100
0001
1000
0100
1000
0001
0000
0100
0010
,
0100
0001
1000
0100
0010
0000
0100
0010
0100
1000
0010
0100
0001
1000
0100
1000
,
0001
1000
0010
0100
0001
1000
0100
0010
0001
0100
0001
1000
0010
1000
0001
0010
,
0001
1000
0100
0010
0001
1000
0010
0100
0001
0010
0001
1000
0100
1000
0001
0010
,
0001
0100
0010
1000
0001
0100
0010
1000
0001
0100
0010
1000
0001
0100
0010
1000
,
0002
0000
0000
0003
0000
0000
0000
0000
,
1002
0000
0000
0000
,
0003
0000
0000
0000
,
2000
0000
0000
0000
,
0020
0000
0000
0000
0000
0000
0000
0000
0000
0000
0000
0000
0000
0000
0000
3000
,
0200
0000
0000
0000
0000
0000
0000
0000
0000
0000
0000
0000
0000
0000
0000
0030
,
0002
0000
0000
0000
0000
0000
0000
0000
0000
0000
0000
0000
0000
0000
0000
0303
,
2000
0000
0000
0000
,
0020
0000
0000
0000
0000
0000
0000
0000
0000
0000
0000
0000
0000
0000
0000
3000
,
0200
0000
0000
0000
0000
0000
0000
0000
0000
0000
0000
0000
0000
0000
0000
0030
,
0002
0000
0000
0000
0000
0000
0000
0000
0000
0000
0000
0303
1000
0010
0100
0001
,
2000
0000
3000
0000
0100
0010
0001
1000
0002
0000
0003
0000
0100
0010
0100
0001
,
2000
3000
0200
0300
0020
0030
0002
0003
0200
0000
0000
0310
1000
0001
1000
0100
,
0020
0000
0030
0100
1000
0001
1000
0010
0200
0000
0000
0300
0020
0030
2000
3000
,
0200
0300
0020
0030
0002
0003
2000
3000
0020
0000
0000
0030
1000
0100
0010
0001
,
2000
0000
0000
3000
0010
0100
0001
1000
0002
0000
0000
0003
0010
0100
0010
0001
,
2000
3000
0020
0030
0200
0300
0002
0003
0020
0000
0000
0130
1000
0001
1000
0010
,
0200
0000
0000
0310
1000
0001
1000
0100
0020
0000
0000
0030
0200
0300
2000
3000
,
0002
0003
0200
0300
0020
0030
2000
3000
0002
0003
0020
0030
0200
0300
0020
0030
,
0200
0000
0300
0000
2000
0000
3000
0000
0020
0000
0030
0000
0200
0300
0000
0000
0M00
0000
0000
0000
0000
0000
0200
0000
0300
0000
0002
0000
0003
0000
2000
3000
,
0000
0000
0000
M000
0000
0000
2000
0000
0000
0000
0000
0000
0000
0000
0000
0000
0000
0000
0000
0000
0000
0000
0000
0000
3000
0000
0000
0000
0000
0000
0000
0000
,
0002
0000
0000
0010
0000
0000
2000
0003
3002
0000
0000
0010
0000
0000
2000
0003
,
3002
0000
0000
0000
0000
0000
0000
0000
0000
0000
0000
0000
0010
0000
0000
0000
0000
0000
0000
0000
0000
0000
0000
0000
2000
0000
0000
0000
0003
0000
0000
0000
3002
0000
0000
0000
0000
0000
0000
0000
0000
0000
0000
0000
0010
0000
0000
0000
0000
0000
0000
0000
0000
0000
0000
0000
2000
0000
0000
0000
0003
0000
0000
3000
,
2000
0000
0000
0010
0000
3000
2000
0000
3200
0000
0000
0010
0000
0000
2000
0300
,
3200
0000
0000
0010
0000
0000
2000
0300
3200
0000
0000
0010
0000
0000
2000
0300
,
3020
0000
0000
0100
0000
0000
2000
0030
3020
0000
0000
0100
0000
0000
2000
0030
,
3200
0000
0000
0010
0000
0000
2000
0300
3200
0000
0000
0010
0000
0000
2000
0300
,
3002
0000
0000
0100
0000
0000
2000
0003
3002
0000
0000
0100
0000
0000
2000
0003
,
3020
0000
0000
0000
0000
0000
0000
0000
0000
0000
0000
0000
0100
0000
0000
0000
0000
0000
0000
0000
0000
0000
0000
0000
2000
0000
0000
0000
0030
0000
0000
0000
3200
0000
0000
0000
0000
0000
0000
0000
0000
0000
0000
0000
0010
0000
0000
0000
0000
0000
0000
0000
0300
0000
0000
0000
0002
0000
0000
0000
0000
0000
0000
0003
,
0002
0000
0000
0010
0000
0000
2000
0003
3002
0000
0000
0010
0000
0000
2000
0003
,
3002
0000
0000
0000
0000
0000
0000
0000
0000
0000
0000
0000
0010
0000
0000
0000
0000
0000
0000
0000
0000
0000
0000
0000
2000
0000
0000
0000
0003
0000
0000
0000
3002
0000
0000
0000
0000
0000
0000
0000
0000
0000
0000
0000
0010
0000
0000
0000
0000
0000
0000
0000
0000
0000
0000
0000
2000
0000
0000
0000
0003
0000
0000
3000
,
2000
0000
0000
0010
0000
3000
2000
0000
3200
0000
0000
0010
0000
0000
2000
0300
,
3200
0000
0000
0010
0000
0000
2000
0300
3200
0000
0000
0010
0000
0000
2000
0300
,
3020
0000
0000
0100
0000
0000
2000
0030
3020
0000
0000
0100
0000
0000
2000
0030
,
3200
0000
0000
0010
0000
0000
2000
0300
3200
0000
0000
0010
0000
0000
2000
0300
,
3002
0000
0000
0100
0000
0000
2000
0003
3002
0000
0000
0100
0000
0000
2000
0003
,
3020
0000
0000
0000
0000
0000
0000
0000
0000
0000
0000
0000
0100
0000
0000
0000
0000
0000
0000
0000
0000
0000
0000
0000
2000
0000
0000
0000
0030
0000
0000
0000
3200
0000
0000
0000
0000
0000
0000
0000
0000
0000
0000
0000
0010
0000
0000
0000
0000
0000
0000
0000
0300
0000
0000
0000
0002
0000
0000
0000
0000
0000
0000
0003
,
1002
0000
0003
0000
1000
0000
0001
0000
1000
0000
0001
0000
0200
0300
0000
0000
0002
0000
0003
0000
0010
0000
0100
0000
0010
0000
0100
0000
2000
3000
0000
0000
,
0020
0000
0030
0000
0100
0000
0001
0000
0100
0000
0001
0000
2000
3000
0000
0000
0200
0000
0300
0000
0010
0000
0001
0000
0010
0000
0001
0000
2000
3000
0000
0000
,
0002
0000
0003
0000
0100
0000
0010
0000
0100
0000
0010
0000
2000
3000
0000
0000
0002
0000
0003
0000
1000
0000
0100
0000
1000
0000
0100
0000
0020
0030
0000
0000
,
0002
0000
0003
0000
1000
0000
0001
0000
1000
0000
0001
0000
0020
0030
0000
0000
0002
0000
0003
0000
0100
0000
0010
0000
0100
0000
0010
0000
2000
3000
0000
0000
,
0200
0000
0300
0000
0010
0000
0001
0000
0010
0000
0001
0000
2000
3000
0000
0000
0020
0000
0030
0000
0100
0000
0001
0000
0100
0000
0001
0000
2000
3000
0000
0000
,
0002
0000
0003
0000
0010
0000
0100
0000
0010
0000
0100
0000
2000
3000
0000
0000
0002
0000
0003
0000
1000
0000
0010
0000
1000
0000
0010
0000
0200
0300
0000
0000
,
0002
0000
0003
0000
1000
0000
0001
0000
1000
0000
0001
0000
0200
0300
0000
0000
0002
0000
0003
0000
0010
0000
0100
0000
0010
0000
0100
0000
2000
3000
0000
0000
,
0020
0000
0030
0000
0100
0000
0001
0000
0100
0000
0001
0000
2000
3000
0000
0000
0200
0000
0300
0000
0010
0000
0001
0000
0010
0000
0001
0000
2000
3000
0000
0000
,
0001
1000
1010
1000
0001
0010
0011
0001
,
1000
0010
1010
1000
0001
0010
0011
0001
,
1000
0010
1010
1000
0001
0010
0011
0001
,
1000
0010
1010
1000
0001
0010
0011
0001
,
1000
0001
0010
0100
1000
0001
0100
0010
1000
0100
1000
0001
0010
0001
1000
0010
,
1000
0001
0100
0010
1000
0001
0010
0100
1000
0010
1000
0001
0100
0001
1000
0010
,
1000
0100
0010
0001
1000
0100
0010
0001
1000
0100
0010
0001
1000
0100
0010
0001
,
0200
0000
0000
0000
0000
0000
0000
0300
0020
0000
2030
0000
3020
0000
0230
0000
,
0301
1000
0010
0100
0001
1000
0010
0100
0001
0010
0001
0100
0010
1000
0100
1000
,
0001
1000
0100
0010
0001
1000
0100
0010
0001
0100
0001
0010
0100
1000
0010
1000
,
0001
0010
0100
1000
0001
1000
0100
0010
0001
0100
0010
1000
0001
1000
0010
0100
,
0001
1000
0100
1000
0001
0100
0010
1000
0010
0100
0001
0010
0100
0010
0001
1000
,
0010
0100
0001
1000
0010
0100
0001
1000
0010
0100
0001
0010
0100
1000
0001
0010
,
0001
1000
0100
1000
0001
1000
0100
0010
0100
1000
0010
0100
0001
0010
0100
0010
,
0001
0100
0010
1000
0001
1000
0010
0100
0001
0010
0100
1000
0001
1000
0100
0010
,
0001
1000
0010
1000
0001
0100
0010
1000
0001
0100
0001
1000
0100
0010
0100
1000
,
0001
1000
0100
0010
0001
1000
0100
0010
0001
0100
0001
0010
0100
1000
0010
1000
,
0001
1000
0010
0100
0001
1000
0010
0100
0001
0010
0001
0100
0010
1000
0100
1000
,
0001
0100
0010
1000
0001
1000
0010
0100
0001
0010
0100
1000
0001
1000
0100
0010
,
0001
1000
0010
1000
0001
0010
0100
1000
0100
0010
0001
0100
0010
0100
0001
1000
,
0100
0010
0001
1000
0100
0010
0001
1000
0100
0010
0001
0100
0010
1000
0001
0100
,
0001
1000
0010
1000
0001
1000
0010
0100
0010
1000
0100
0010
0001
0100
0010
0100
,
0001
0010
0100
1000
0001
1000
0100
0010
0001
0100
0010
1000
0001
1000
0010
0100
,
0001
1000
0100
1000
0001
0010
0100
1000
0001
0010
0001
0000
1000
0010
0100
0001
,
1000
0001
0100
0010
1000
0001
0100
0010
1000
0100
1000
0010
0100
0001
0010
0001
,
1000
0001
0010
0100
1000
0001
0010
0100
1000
0010
1000
0100
0010
0001
0100
0001
,
1000
0100
0010
0001
1000
0001
0010
0100
1000
0010
0100
0001
1000
0001
0100
0010
,
1000
0001
0010
0001
1000
0010
0100
0001
0100
0010
1000
0100
0010
0100
1000
0001
,
0100
0010
1000
0001
0100
0010
1000
0001
0100
0010
1000
0100
0010
0001
1000
0100
,
1000
0001
0010
0001
1000
0001
0010
0100
0010
0001
0100
0010
1000
0100
0010
0100
,
1000
0010
0100
0001
1000
0001
0100
0010
1000
0100
0010
0001
1000
0001
0010
0100
,
1000
0001
0100
0001
1000
0010
0100
0001
1000
0010
1000
0001
0010
0100
0010
0001
,
1000
0001
0010
0100
1000
0001
0010
0100
1000
0010
1000
0100
0010
0001
0100
0001
,
1000
0001
0100
0010
1000
0001
0100
0010
1000
0100
1000
0010
0100
0001
0010
0001
,
1000
0010
0100
0001
1000
0001
0100
0010
1000
0100
0010
0001
1000
0001
0010
0100
,
1000
0001
0100
0001
1000
0100
0010
0001
0010
0100
1000
0010
0100
0010
1000
0001
,
0010
0100
1000
0001
0010
0100
1000
0001
0010
0100
1000
0010
0100
0001
1000
0010
,
1000
0001
0100
0001
1000
0001
0100
0010
0100
0001
0010
0100
1000
0010
0100
0010
,
1000
0100
0010
0001
1000
0001
0010
0100
1000
0010
0100
0001
1000
0001
0100
0010
,
1000
0100
0010
0001
1000
0001
0010
0100
1000
0010
0100
0001
1000
0001
0100
0010
,
1000
0010
0100
0001
1000
0001
0100
0010
1000
0100
0010
0001
1000
0001
0010
0100
,
1000
0001
0010
0001
0100
0010
0100
0001
1000
0100
0010
0001
0100
0010
1000
0001
,
0020
0000
0000
0100
0000
0000
0032
0003
0020
0000
0000
0100
0000
0000
0032
0003
,
2000
0000
0000
0000
0000
0000
0010
0000
0000
0000
0000
0000
3002
0003
0000
0000
2000
0000
0000
0000
0000
0000
0010
0000
0000
0000
0000
0000
3002
0003
0000
0000
,
0010
0000
0100
1000
0100
1000
0001
0000
0010
0000
0100
1000
0100
1000
0001
0000
,
0010
0000
0100
1000
0100
1000
0001
0000
0010
0000
0100
1000
0100
1000
0010
0000
,
0100
0000
0001
1000
0001
1000
0010
0000
0100
0000
0001
1000
0001
1000
0010
0000
,
0100
0000
0001
1000
0001
1000
0010
0000
0100
0000
0001
1000
0001
1000
0100
0000
,
1000
0000
0001
0010
0001
0010
0100
0000
1000
0000
0001
0010
0001
0010
0100
0000
,
1000
0000
0001
0100
0001
0100
0010
0000
1000
0000
0001
0100
0001
0100
0010
0000
,
0100
0000
0001
1000
0001
1000
0010
0000
0100
0000
0001
1000
0001
1000
0100
0000
,
0010
0000
0001
0100
0001
0100
0010
0000
1000
0000
0100
0010
0100
0010
0001
0000
,
1000
0000
0001
0100
0001
0100
0010
0000
1000
0000
0001
0100
0001
0100
0010
0000
,
1000
0000
0001
0100
0001
0100
0010
0000
1000
0000
0001
0100
0001
0100
0010
0000
,
1000
0000
0001
0010
0001
0010
0100
0000
1000
0000
0001
0010
0001
0010
0100
0000
,
1000
0000
0001
0010
0001
0010
0100
0000
1000
0000
0001
0010
0001
0010
0100
0000
,
1000
0000
0010
0100
0010
0100
0001
0000
1000
0000
0010
0100
0010
0100
0001
0000
,
1000
0000
0100
0010
0100
0010
0001
0000
1000
0000
0100
0010
0100
0010
0001
0000
,
0100
0000
0001
1000
0001
1000
0010
0000
0100
0000
0001
1000
0001
1000
0100
0000
,
0010
0000
0001
0100
0001
0100
0010
0000
1000
0001
0010
0000
0100
1000
0010
0100
,
0001
0000
0010
0001
0010
0001
1000
0000
0100
0000
0010
0001
0010
0001
1000
0000
,
0100
0000
0010
0001
0010
0001
1000
0000
0100
0000
0010
0001
0010
0001
0100
0000
,
0010
0000
1000
0001
1000
0001
0100
0000
0010
0000
1000
0001
1000
0001
0100
0000
,
0010
0000
1000
0001
1000
0001
0100
0000
0010
0000
1000
0001
1000
0001
0010
0000
,
0001
0000
1000
0100
1000
0100
0010
0000
0001
0000
1000
0100
1000
0100
0010
0000
,
0001
0000
1000
0010
1000
0010
0100
0000
0001
0000
1000
0010
1000
0010
0100
0000
,
0010
0000
1000
0001
1000
0001
0100
0000
0010
0000
1000
0001
1000
0001
0010
0000
,
0100
0000
1000
0010
1000
0010
0100
0000
0001
0000
0010
0100
0010
0100
1000
0000
,
0001
0000
1000
0010
1000
0010
0100
0000
0001
0000
1000
0010
1000
0010
0100
0000
,
0001
0000
1000
0010
1000
0010
0100
0000
0001
0000
1000
0010
1000
0010
0100
0000
,
0001
0000
1000
0100
1000
0100
0010
0000
0001
0000
1000
0100
1000
0100
0010
0000
,
0001
0000
1000
0100
1000
0100
0010
0000
0001
0000
1000
0100
1000
0100
0010
0000
,
0001
0000
0100
0010
0100
0010
1000
0000
0001
0000
0100
0010
0100
0010
1000
0000
,
0001
0000
0010
0100
0010
0100
1000
0000
0001
0000
0010
0100
0010
0100
1000
0000
,
0010
0100
0001
0100
0010
1000
0001
0010
,
0100
1000
0001
1000
0100
0010
0001
1000
,
0001
0010
0100
1000
0001
0010
0100
1000
0001
0010
0100
1000
0001
0010
0100
1000
,
0001
1000
0001
1000
0001
1000
0001
1000
0001
0010
0100
0000
1000
0001
1000
0001
,
2000
0000
0000
0010
0000
0000
3002
0003
2000
0000
0000
0010
0000
0000
3002
0003
,
0020
0000
0000
0100
0000
0000
0032
0003
0020
0000
0000
0100
0000
0000
0032
0003
,
2000
0000
0000
0000
3001
0000
0000
0000
0100
0000
0000
0000
0000
0000
0000
0000
0010
0000
0000
0000
0000
0000
0000
0000
0020
0000
0000
0000
0030
0000
0000
0000
1000
0000
0000
0000
0000
0000
0000
0000
0020
0000
0030
0000
0000
0000
0000
0000
0100
0000
0000
0000
0000
0000
0000
0000
0020
0030
0000
0000
0000
0000
0000
0000
,
1000
0001
0010
0100
0010
0001
1000
0010
,
0200
0000
0000
0000
0001
0000
0300
0000
1000
0000
0000
0000
0000
0000
0000
0000
0100
0000
0000
0000
0000
0000
0000
0000
0200
0000
0000
0000
0300
0000
0000
0000
0010
0000
0000
0000
0000
0000
0000
0000
0200
0000
0300
0000
0000
0000
0000
0000
1000
0000
0000
0000
0000
0000
0000
0000
0200
0300
0000
0000
0000
0000
0000
0000
,
0010
0001
0100
0010
0100
0001
0010
0001
,
2000
0000
0000
0000
0001
0000
3000
0000
0100
0000
0000
0000
0000
0000
0000
0000
0010
0000
0000
0000
0000
0000
0000
0000
0020
0000
0000
0000
0030
0000
0000
0000
1000
0000
0000
0000
0000
0000
0000
0000
0020
0000
0030
0000
0000
0000
0000
0000
0100
0000
0000
0000
0000
0000
0000
0000
0020
0030
0000
0000
0000
0000
0000
0000
,
1000
0001
0010
0001
1000
0010
0100
0010
,
2000
0000
0000
0000
0001
0000
3000
0000
0010
0000
0000
0000
0000
0000
0000
0000
0100
0000
0000
0000
0000
0000
0000
0000
0200
0000
0000
0000
0300
0000
0000
0000
1000
0000
0000
0000
0000
0000
0000
0000
0200
0000
0300
0000
0000
0000
0000
0000
0010
0000
0000
0000
0000
0000
0000
0000
0200
0300
0000
0000
0000
0000
0000
0000
,
1000
0010
0100
0010
1000
1000
0100
1000
,
0002
0000
0000
0000
1003
0000
0000
0000
0010
0000
0000
0000
0000
0000
0000
0000
0100
0000
0000
0000
0000
0000
0000
0000
0200
0000
0000
0000
0300
0000
0000
0000
0001
0000
0000
0000
0000
0000
0000
0000
0200
0000
0300
0000
0000
0000
0000
0000
0010
0000
0000
0000
0000
0000
0000
0000
0200
0300
0000
0000
0000
0000
0000
0000
,
0001
1000
0100
0010
0100
1000
0001
0100
,
0020
0000
0000
0000
1000
0000
0030
0000
0001
0000
0000
0000
0000
0000
0000
0000
0010
0000
0000
0000
0000
0000
0000
0000
0020
0000
0000
0000
0030
0000
0000
0000
0100
0000
0000
0000
0000
0000
0000
0000
0020
0000
0030
0000
0000
0000
0000
0000
0001
0000
0000
0000
0000
0000
0000
0000
0020
0030
0000
0000
0000
0000
0000
0000
,
0100
1000
0010
0100
0010
1000
0100
1000
,
0002
0000
0000
0000
1000
0000
0003
0000
0010
0000
0000
0000
0000
0000
0000
0000
0100
0000
0000
0000
0000
0000
0000
0000
0200
0000
0000
0000
0300
0000
0000
0000
0001
0000
0000
0000
0000
0000
0000
0000
0200
0000
0300
0000
0000
0000
0000
0000
0010
0000
0000
0000
0000
0000
0000
0000
0200
0300
0000
0000
0000
0000
0000
0000
,
0001
1000
0100
1000
0001
0100
0010
0100
,
0002
0000
0000
0000
1000
0000
0003
0000
0100
0000
0000
0000
0000
0000
0000
0000
0010
0000
0000
0000
0000
0000
0000
0000
0020
0000
0000
0000
0030
0000
0000
0000
0001
0000
0000
0000
0000
0000
0000
0000
0020
0000
0030
0000
0000
0000
0000
0000
0100
0000
0000
0000
0000
0000
0000
0000
0020
0030
0000
0000
0000
0000
0000
0000
,
0001
0000
1000
0010
0100
0000
0010
1000
0001
1000
0100
0000
0010
0000
0001
0000
,
1000
0010
1000
0001
0100
0000
0001
1000
0001
0010
0100
1000
0001
0000
1000
0100
,
0010
0001
1000
0001
0100
0000
0001
1000
0100
1000
0001
0010
0001
1000
0010
1000
,
0001
0100
0010
1000
0001
0000
1000
0010
0100
0001
1000
0001
0010
0000
0001
1000
,
0100
0010
0001
1000
0100
0000
1000
0001
0100
0010
1000
0010
0100
0001
1000
0001
,
0010
0100
1000
0001
0010
0000
0001
1000
0001
0100
0010
1000
0001
0000
1000
0010
,
0100
0001
1000
0001
0100
0000
0010
1000
0001
0010
0100
1000
0001
1000
0100
0010
,
0001
0100
0010
1000
0001
0000
1000
0010
0100
0001
1000
0001
1000
0000
0010
0100
,
0001
0010
0100
1000
0001
0000
1000
0100
0010
0000
0010
0000
0001
0000
0010
0000
,
0100
1000
0001
1000
0010
0000
1000
0001
1000
0100
0010
0001
1000
0000
0001
0010
,
0100
1000
0001
1000
0010
0000
0100
0001
1000
0001
0100
0010
1000
0001
0010
0100
,
1000
0001
1000
0100
0010
0000
0001
1000
0001
0100
0010
1000
0001
0000
1000
0010
,
1000
0001
0010
0100
1000
0000
0001
0010
0001
1000
0100
0010
0001
0100
0010
1000
,
0001
0010
0001
1000
0100
0000
1000
0100
1000
0010
0100
0001
1000
0000
0010
0100
,
0001
1000
0100
0010
0001
0000
1000
0100
1000
0001
0010
0100
1000
0010
0100
0001
,
1000
0100
0010
0001
1000
0100
0010
0001
1000
0100
0010
0001
1000
0100
0010
0001
,
1000
0000
0000
0000
0200
2300
3020
0230
,
0301
1000
0100
0010
0001
1000
0100
0010
0001
0100
0001
0010
0100
1000
0010
1000
,
0001
1000
0010
0100
0001
1000
0010
0100
0001
0010
0001
0100
0010
1000
0100
1000
,
0001
0100
0010
1000
0001
1000
0010
0100
0001
0010
0100
1000
0001
1000
0100
0010
,
0001
1000
0010
1000
0001
0010
0100
1000
0100
0010
0001
0100
0010
0100
0001
1000
,
0100
0010
0001
1000
0100
0010
0001
1000
0100
0010
0001
0100
0010
1000
0001
0100
,
0001
1000
0010
1000
0001
1000
0010
0100
0010
1000
0100
0010
0001
0100
0010
0100
,
0001
0010
0100
1000
0001
1000
0100
0010
0001
0100
0010
1000
0001
1000
0010
0100
,
0001
1000
0100
1000
0001
0010
0100
1000
0001
0010
0001
1000
0010
0100
0010
1000
,
0001
1000
0010
0100
0001
1000
0010
0100
0001
0010
0001
0100
0010
1000
0100
1000
,
0001
1000
0100
0010
0001
1000
0100
0010
0001
0100
0001
0010
0100
1000
0010
1000
,
0001
0010
0100
1000
0001
1000
0100
0010
0001
0100
0010
1000
0001
1000
0010
0100
,
0001
1000
0100
1000
0001
0100
0010
1000
0010
0100
0001
0010
0100
0010
0001
1000
,
0010
0100
0001
1000
0010
0100
0001
1000
0010
0100
0001
0010
0100
1000
0001
0010
,
0001
1000
0100
1000
0001
1000
0100
0010
0100
1000
0010
0100
0001
0010
0100
0010
,
0001
0100
0010
1000
0001
1000
0010
0100
0001
0010
0100
1000
0001
1000
0100
0010
,
0001
1000
0010
1000
0001
0100
0010
1000
0001
0100
0001
0000
1000
0100
0010
0001
,
1000
0001
0010
0100
1000
0001
0010
0100
1000
0010
1000
0100
0010
0001
0100
0001
,
1000
0001
0100
0010
1000
0001
0100
0010
1000
0100
1000
0010
0100
0001
0010
0001
,
1000
0010
0100
0001
1000
0001
0100
0010
1000
0100
0010
0001
1000
0001
0010
0100
,
1000
0001
0100
0001
1000
0100
0010
0001
0010
0100
1000
0010
0100
0010
1000
0001
,
0010
0100
1000
0001
0010
0100
1000
0001
0010
0100
1000
0010
0100
0001
1000
0010
,
1000
0001
0100
0001
1000
0001
0100
0010
0100
0001
0010
0100
1000
0010
0100
0010
,
1000
0100
0010
0001
1000
0001
0010
0100
1000
0010
0100
0001
1000
0001
0100
0010
,
1000
0001
0010
0001
1000
0100
0010
0001
1000
0100
1000
0001
0100
0010
0100
0001
,
1000
0001
0100
0010
1000
0001
0100
0010
1000
0100
1000
0010
0100
0001
0010
0001
,
1000
0001
0010
0100
1000
0001
0010
0100
1000
0010
1000
0100
0010
0001
0100
0001
,
1000
0100
0010
0001
1000
0001
0010
0100
1000
0010
0100
0001
1000
0001
0100
0010
,
1000
0001
0010
0001
1000
0010
0100
0001
0100
0010
1000
0100
0010
0100
1000
0001
,
0100
0010
1000
0001
0100
0010
1000
0001
0100
0010
1000
0100
0010
0001
1000
0100
,
1000
0001
0010
0001
1000
0001
0010
0100
0010
0001
0100
0010
1000
0100
0010
0100
,
1000
0001
0100
0010
1000
0001
0010
0100
1000
0010
1000
0001
0100
0001
1000
0100
,
1000
0001
0010
0100
1000
0001
0100
0010
1000
0100
1000
0001
0010
0001
1000
0100
,
1000
0010
0100
0001
1000
0010
0100
0001
1000
0010
0100
0001
1000
0010
0100
0001
,
1000
0001
1000
0001
1000
0001
1000
0001
1000
0100
0010
0000
0100
1000
0001
0100
,
0020
0000
0000
0030
,
2000
0000
0001
3000
0010
0000
0000
0000
0001
0000
0000
0000
0200
0000
0000
0300
0010
0000
0000
0000
0200
0000
0300
0000
0001
0000
0000
0000
0200
0300
0000
0000
,
0010
1000
0100
0010
0100
1000
0001
0010
;

//---------------dance-single - 16+ (Zaia)----------------
#NOTES:
     dance-single:
     16+ (Zaia):
     Edit:
     16:
     1.000,1.000,0.096,0.520,1.000,3551.000,38.000,206.000,0.000,0.000:
0000
0000
0000
0000
,
0000
0000
0000
0000
,
0001
1000
0010
0000
0110
0000
0100
0000
0001
0000
1000
0000
1100
0000
0000
0000
,
1000
0001
0101
0000
0001
1000
1100
0000
,
1000
0001
0010
0000
0110
0000
0100
0000
1000
0000
0001
0000
0011
0000
0000
0000
,
0001
1000
1010
0000
1000
0001
0011
0000
,
0010
0100
1000
0000
1001
0000
0001
0000
0100
0000
0010
0000
1010
0000
0000
0000
,
1000
0001
0101
0000
0001
1000
1100
0000
,
0100
0010
0001
0000
1001
0000
1000
0000
0010
0000
0100
0000
0101
0000
0000
0000
,
0001
1000
1100
0000
1000
0001
1001
1000
,
0001
0010
0100
0000
0110
0000
0010
0000
0001
0000
1000
0000
0110
0000
0000
0000
,
1000
0001
0011
0000
0001
1000
1010
0000
,
1000
0001
0100
0000
0110
0000
0010
0000
1000
0000
0001
0000
0101
0000
0000
0000
,
0001
1000
1100
0000
1000
0001
0101
0000
,
0100
0010
1000
0000
1001
0000
0001
0000
0010
0000
0100
0000
1100
0000
0000
0000
,
1000
0001
0011
0000
0001
1000
1010
0000
,
0010
0100
0001
0000
1001
0000
1000
0000
0100
0000
0010
0000
0001
1000
0100
1000
,
0001
0100
0010
0100
0001
1000
0100
1000
0001
1000
0010
0100
0001
1000
0100
0010
,
0001
1000
0010
1000
0100
1000
0001
0100
0010
0100
0001
1000
0100
1000
0001
0010
,
0100
1000
0010
1000
0001
0100
0001
1000
0100
1000
0001
0010
0001
1000
0010
0100
,
0001
1000
0010
1000
0100
1000
0001
0100
0010
0100
0001
1000
0100
1000
0001
0010
,
0100
1000
0010
1000
0001
0100
0001
1000
0100
1000
0001
0010
0001
1000
0010
0100
,
0001
1000
0010
1000
0100
1000
0001
0100
0010
0100
0001
1000
0100
1000
0001
0010
,
0100
1000
0010
1000
0001
0100
0001
1000
0100
1000
0001
0010
0001
1000
0010
0100
,
0001
1000
0010
1000
0100
1000
0001
0100
0010
0100
0001
1000
0100
1000
0001
0010
,
0100
1000
0010
1000
0001
0100
0001
1000
0100
0000
0010
0000
0100
0000
0010
0000
,
0001
1000
0100
1000
0010
1000
0001
0010
0100
0010
0001
1000
0010
1000
0001
0100
,
0010
1000
0100
1000
0001
0010
0001
1000
0010
1000
0001
0100
0001
1000
0100
0010
,
0001
1000
0100
1000
0010
1000
0001
0010
0100
0010
0001
1000
0010
1000
0001
0100
,
0010
1000
0100
1000
0001
0010
0001
1000
0010
1000
0001
0100
0001
1000
0100
0010
,
0100
1000
0001
0010
0001
1000
0010
0100
0001
1000
0010
1000
0100
1000
0001
0100
,
0010
0100
0001
1000
0100
1000
0001
0010
0100
1000
0010
1000
0001
0010
0001
0100
,
0010
1000
0100
1000
0010
1000
0001
0010
0100
0010
0001
1000
0010
1000
0001
0100
,
0020
0000
0030
0000
,
1000
0000
0100
0000
0010
0000
0000
0000
0001
0000
0000
0000
2000
0000
0000
3000
0001
0000
0000
0000
2000
0000
3000
0000
0001
0000
0000
0000
2000
3000
0000
0000
0001
0000
0000
0000
0100
0000
0000
0000
0001
0000
0000
0000
0100
0000
0000
0000
0010
0000
0000
0000
1000
0000
0000
0000
0001
0000
0000
0000
0010
0000
0000
0000
,
0100
0000
1000
0000
0010
0000
0000
0000
0100
0000
0000
0000
0002
0000
0000
0003
0010
0000
0000
0000
0002
0000
0003
0000
0010
0000
0000
0000
0002
0003
0000
0000
0010
0000
0000
0000
0100
0000
0000
0000
0010
0000
0000
0000
0100
0000
0000
0000
1000
0000
0000
0000
0001
0000
0000
0000
0100
0000
0000
0000
0010
0000
0000
0000
,
1000
0000
0000
0000
0000
0000
0001
0000
0000
0000
0000
0000
0010
0000
0000
0000
0000
0000
0000
0000
0000
0000
0000
0000
0001
0000
0000
0000
0000
0000
0000
0000
0000
0000
0000
0000
0200
0000
0000
0000
0000
0000
0300
0000
0000
0000
0000
0000
0010
0000
0000
0000
0000
0000
0000
0000
0000
0000
0000
0000
0200
0000
0000
0000
0300
0000
0000
0000
0000
0000
0000
0000
0010
0000
0000
0000
0000
0000
0000
0000
0000
0000
0000
0000
0200
0000
0300
0000
0000
0000
0000
0000
0000
0000
0000
0000
0010
0000
0000
0000
0000
0000
0000
0000
0000
0000
0000
0000
1000
0000
0000
0000
0000
0000
0000
0000
0000
0000
0000
0000
0001
0000
0000
0000
0000
0000
0000
0000
0000
0000
0000
0000
1000
0000
0000
0000
0000
0000
0000
0000
0000
0000
0000
0000
0001
0000
0000
0000
0000
0000
0000
0000
0000
0000
0000
0000
0010
0000
0000
0000
0000
0000
0000
0000
0000
0000
0000
0000
0100
0000
0000
0000
0000
0000
0000
0000
0000
0000
0000
0000
1000
0000
0000
0000
0000
0000
0000
0000
0000
0000
0000
0000
,
0001
0000
0000
0000
0000
0000
0100
0000
0000
0000
0000
0000
0010
0000
0000
0000
0000
0000
0000
0000
0000
0000
0000
0000
0100
0000
0000
0000
0000
0000
0000
0000
0000
0000
0000
0000
0002
0000
0000
0000
0000
0000
0003
0000
0000
0000
0000
0000
1000
0000
0000
0000
0000
0000
0000
0000
0000
0000
0000
0000
0002
0000
0000
0000
0003
0000
0000
0000
0000
0000
0000
0000
1000
0000
0000
0000
0000
0000
0000
0000
0000
0000
0000
0000
0002
0000
0003
0000
0000
0000
0000
0000
0000
0000
0000
0000
0010
0000
0000
0000
0000
0000
0000
0000
0000
0000
0000
0000
0100
0000
0000
0000
0000
0000
0000
0000
0000
0000
0000
0000
0010
0000
0000
0000
0000
0000
0000
0000
0000
0000
0000
0000
0100
0000
0000
0000
0000
0000
0000
0000
0000
0000
0000
0000
1000
0000
0000
0000
0000
0000
0000
0000
0000
0000
0000
0000
0001
0000
0000
0000
0000
0000
0000
0000
0000
0000
0000
0000
0100
0000
0000
0000
0000
0000
0000
0000
0000
0000
0000
0000
0010
0000
0000
0000
0000
0000
0000
0000
0000
0000
0000
0000
,
1000
0000
0001
0000
0010
0000
0000
0000
0100
0000
0000
0000
2000
0000
0000
3000
0010
0000
0000
0000
2000
0000
3000
0000
0010
0000
0000
0000
2000
3000
0000
0000
0010
0000
0000
0000
0100
0000
0000
0000
0010
0000
0000
0000
0100
0000
0000
0000
0001
0000
0000
0000
0010
0000
0000
0000
0100
0000
0000
0000
1000
0000
0000
0000
,
0001
0000
0000
0000
0000
0000
0100
0000
0000
0000
0000
0000
0010
0000
0000
0000
0000
0000
0000
0000
0000
0000
0000
0000
1000
0000
0000
0000
0000
0000
0000
0000
0000
0000
0000
0000
0002
0000
0000
0000
0000
0000
0003
0000
0000
0000
0000
0000
0010
0000
0000
0000
0000
0000
0000
0000
0000
0000
0000
0000
0002
0000
0000
0000
0003
0000
0000
0000
0000
0000
0000
0000
0010
0000
0000
0000
0000
0000
0000
0000
0000
0000
0000
0000
0002
0000
0003
0000
0000
0000
0000
0000
0000
0000
0000
0000
0010
0000
0000
0000
0000
0000
0000
0000
0000
0000
0000
0000
0100
0000
0000
0000
0000
0000
0000
0000
0000
0000
0000
0000
1000
0000
0000
0000
0000
0000
0000
0000
0000
0000
0000
0000
0100
0000
0000
0000
0000
0000
0000
0000
0000
0000
0000
0000
0010
0000
0000
0000
0000
0000
0000
0000
0000
0000
0000
0000
0001
0000
0000
0000
0000
0000
0000
0000
0000
0000
0000
0000
0100
0000
0000
0000
0000
0000
0000
0000
0000
0000
0000
0000
0010
0000
0000
0000
0000
0000
0000
0000
0000
0000
0000
0000
,
1000
0000
0000
0000
0000
0000
0001
0000
0000
0000
0000
0000
0100
0000
0000
0000
0000
0000
0000
0000
0000
0000
0000
0000
0010
0000
0000
0000
0000
0000
0000
0000
0000
0000
0000
0000
2000
0000
0000
0000
3000
0000
0000
0000
0000
0000
0000
0000
0010
0000
0000
0000
0000
0000
0000
0000
0000
0000
0000
0000
2000
0000
0000
3000
0000
0000
0000
0000
0000
0000
0000
0000
0010
0000
0000
0000
0000
0000
0000
0000
0000
0000
0000
0000
2000
3000
0000
0000
0000
0000
0000
0000
0000
0000
0000
0000
0001
0000
0000
0000
0000
0000
0000
0000
0000
0000
0000
0000
0010
0000
0000
0000
0000
0000
0000
0000
0000
0000
0000
0000
0001
0000
0000
0000
0000
0000
0000
0000
0000
0000
0000
0000
0010
0000
0000
0000
0000
0000
0000
0000
0000
0000
0000
0000
0100
0000
0000
0000
0000
0000
0000
0000
0000
0000
0000
0000
1000
0000
0000
0000
0000
0000
0000
0000
0000
0000
0000
0000
0001
0000
0000
0000
0000
0000
0000
0000
0000
0000
0000
0000
0100
0000
0000
0000
0000
0000
0000
0000
0000
0000
0000
0000
,
0010
0000
0000
0000
0000
0000
1000
0000
0000
0000
0000
0000
0100
0000
0000
0000
0000
0000
0000
0000
0000
0000
0000
0000
0010
0000
0000
0000
0000
0000
0000
0000
0000
0000
0000
0000
0002
0000
0000
0000
0003
0000
0000
0000
0000
0000
0000
0000
1000
0000
0000
0000
0000
0000
0000
0000
0000
0000
0000
0000
0002
0000
0000
0003
0000
0000
0000
0000
0000
0000
0000
0000
1000
0000
0000
0000
0000
0000
0000
0000
0000
0000
0000
0000
0002
0003
0000
0000
0000
0000
0000
0000
0000
0000
0000
0000
1000
0000
0000
0000
0000
0000
0100
0000
0000
0000
0000
0000
0010
0000
0000
0000
0000
0000
0001
0000
0000
0000
0000
0000
1000
0000
0000
0000
0000
0000
0001
0000
0000
0000
0000
0000
0100
0000
0000
0000
0000
0000
0001
0000
0000
0000
0000
0000
1000
0000
0000
0000
0000
0000
0001
0000
0000
0000
0000
0000
0010
0000
0000
0000
0000
0000
0100
0000
0000
0000
0000
0000
1000
0000
0000
0000
0000
0000
0001
0000
0000
0000
0000
0000
0100
0000
0000
0000
0000
0000
0010
0000
0000
0000
0000
0000
,
1000
0001
0010
0001
0100
0001
1000
0100
0010
0001
1000
0010
0100
0001
1000
0100
,
0010
0001
1000
0010
1000
0001
0100
0001
1000
0100
0010
0001
1000
0001
0100
0010
,
1000
0001
0010
0001
0100
0001
1000
0100
0010
0001
1000
0010
0100
0001
1000
0100
,
0010
0001
1000
0010
1000
0001
0100
0001
1000
0100
0010
0001
1000
0001
0100
0010
,
1000
0001
0010
0001
0100
0001
1000
0100
0010
0001
1000
0010
0100
0001
1000
0100
,
0010
0001
1000
0010
1000
0001
0100
0001
1000
0100
0010
0001
1000
0001
0100
0010
,
1000
0001
0010
0001
0100
0001
1000
0100
0010
0001
1000
0010
0100
0001
1000
0100
,
0010
0001
1000
0010
1000
0001
0100
0001
1000
0000
0001
0000
1000
0000
0001
0000
,
1000
0001
0100
0001
0010
0001
1000
0010
0100
0001
1000
0100
0010
0001
1000
0010
,
0100
0001
1000
0100
1000
0001
0010
0001
1000
0010
0100
0001
1000
0001
0010
0100
,
1000
0001
0100
0001
0010
0001
1000
0010
0100
0001
1000
0100
0010
0001
1000
0010
,
0100
0001
1000
0100
1000
0001
0010
0001
1000
0010
0100
0001
1000
0001
0010
0100
,
1000
0001
0100
0001
0010
0001
1000
0010
0100
0001
1000
0100
0010
0001
1000
0010
,
0100
0001
1000
0100
1000
0001
0010
0001
1000
0010
0100
0001
1000
0001
0010
0100
,
1000
0001
0100
0001
0010
0001
1000
0010
0100
0001
1000
0100
0010
0001
1000
0010
,
0100
0000
0000
0000
0000
0000
0001
0000
0100
0000
0001
0000
1000
0000
0000
0000
0000
0000
0001
0000
0100
0000
0001
0000
1000
0000
0000
0010
0000
0000
0100
0000
0000
0000
0000
0000
0001
0000
0000
0000
0000
0000
1000
0000
0000
0000
0000
0000
,
0001
1000
0010
1000
0100
1000
0001
0100
0010
0100
0001
0010
0100
0010
0001
0100
,
0010
0100
0001
0010
0001
1000
0100
1000
0001
0100
0010
1000
0001
1000
0100
0010
,
0001
1000
0100
1000
0010
1000
0001
0100
0010
0100
0001
0010
0100
0010
0001
0100
,
0010
0100
0001
0010
0001
1000
0100
1000
0001
0100
0010
1000
0001
1000
0100
0010
,
0001
1000
0010
1000
0100
1000
0001
0100
0010
0100
0001
0010
0100
0010
0001
0100
,
0010
0100
0001
0010
0001
1000
0100
1000
0001
0100
0010
1000
0001
1000
0100
0010
,
0001
1000
0100
1000
0010
1000
0001
0100
0010
0100
0001
0010
0100
0010
0001
0100
,
0010
0100
0001
0010
0001
1000
0100
1000
0001
0100
0010
1000
0001
1000
0001
0010
,
0001
1000
0010
1000
0100
1000
0001
0010
0100
0010
0001
0100
0010
0100
0001
0010
,
0100
0010
0001
0100
0001
1000
0100
1000
0001
0100
0010
1000
0001
1000
0100
0010
,
0001
1000
0010
1000
0100
1000
0001
0010
0100
0010
0001
0100
0010
0100
0001
0010
,
0100
0010
0001
0100
0001
1000
0100
1000
0001
0100
0010
1000
0001
1000
0100
0010
,
0001
0100
0010
1000
0100
1000
0010
1000
,
0001
0010
0100
0010
0001
0100
0001
1000
,
0010
1000
0100
1000
0010
1000
0001
0010
0100
0010
0001
1000
0010
1000
0001
0100
,
0020
0000
0030
0000
,
1002
0000
0000
0000
,
0000
0000
0000
0000
0000
0000
0000
0003
,
2000
0000
0000
0000
,
0200
3000
0000
0000
,
0020
0300
0000
0000
,
0002
0030
0000
0000
,
2000
0003
0000
0000
,
0020
3000
0000
0000
,
0200
0030
0000
0000
,
0002
0000
0000
0000
0300
0000
0000
0000
0000
0000
0000
0000
0013
0100
1000
0001
,
0200
0000
0300
0000
0010
1000
0100
0010
0002
0000
0003
0000
0100
0001
0010
0001
,
2000
0000
3100
0010
0002
0000
2003
0000
3020
0000
0030
0100
0001
0100
0010
1000
,
0002
0000
0000
0013
0100
1000
0010
0100
0002
0000
0003
0000
2000
0000
3002
0000
,
0203
0000
0320
0000
2030
0000
3002
0000
0023
0000
0030
0000
0100
1000
0010
0100
,
0002
0000
0003
0000
0100
0010
1000
0001
0020
0000
0030
0100
1000
0001
1000
0010
,
0100
0000
0001
0100
0020
0000
2030
0000
3002
0000
0003
1000
0001
0010
0100
0010
,
0002
0000
0003
0100
0010
0100
0001
1000
0200
0000
0300
0000
0020
0000
0230
0000
,
2300
3002
0023
0032
2003
3020
0230
0320
,
2030
0000
3002
0000
0023
0000
0230
0000
0300
0000
0000
2000
0000
3002
0000
0203
,
0000
0300
0000
0000
0002
0000
0000
0000
0000
0000
0000
0000
0000
0000
0000
0000
,
2003
0000
0000
0100
0000
0000
3002
0000
2003
0000
0000
0100
0000
0000
3002
0000
,
2003
0000
0000
0100
0000
0000
3002
0000
2003
0000
0000
0100
0000
0000
3002
0000
,
0023
0000
0000
0100
0000
0000
0032
0000
0023
0000
0000
0100
0000
0000
0032
0000
,
0023
0000
0000
0100
0000
0000
0032
0000
0023
0000
0000
0100
0000
0000
2030
0000
,
3002
0000
0000
0010
0000
0000
2003
0000
3002
0000
0000
0010
0000
0000
2003
0000
,
3020
0000
0000
0100
0000
0000
2030
0000
3020
0000
0000
0100
0000
0000
2030
0000
,
3002
0000
0000
0100
0000
0000
2003
0000
3002
0000
0000
0100
0000
0000
2003
0000
,
3020
0000
0000
0100
0000
0000
0032
0000
0023
0000
0000
0230
0000
0000
2300
0000
,
3002
0000
0000
0100
0000
0000
2003
0000
3002
0000
0000
0100
0000
0000
2003
0000
,
3002
0000
0000
0100
0000
0000
2003
0000
3002
0000
0000
0100
0000
0000
2003
0000
,
3020
0000
0000
0100
0000
0000
2030
0000
3020
0000
0000
0100
0000
0000
2030
0000
,
3020
0000
0000
0100
0000
0000
2030
0000
3020
0000
0000
0100
0000
0000
0032
0000
,
2003
0000
0000
0010
0000
0000
3002
0000
2003
0000
0000
0010
0000
0000
3002
0000
,
0023
0000
0000
0100
0000
0000
0032
0000
0023
0000
0000
0100
0000
0000
0032
0000
,
2003
0000
0000
0100
0000
0000
3002
0000
2003
0000
0000
0100
0000
0000
3002
0000
,
0023
0000
0000
0100
0000
0000
2030
0000
3020
0000
0000
0230
0000
0000
0302
0000
,
1003
0000
0100
1000
0100
1000
0002
0003
2000
3000
0010
0100
0010
0100
0002
0003
,
0200
0300
0010
1000
0010
1000
0002
0003
0020
0030
0100
1000
0100
1000
0002
0003
,
2000
3000
0010
0100
0010
0100
0002
0003
2000
3000
0001
0010
0001
0010
0200
0300
,
2000
3000
0001
1000
0001
1000
0200
0300
2000
3000
0010
0100
0010
0100
0002
0003
,
0020
0030
0100
1000
0100
1000
0002
0003
0200
0300
0010
1000
0010
1000
0002
0003
,
2000
3000
0100
0010
0100
0010
0002
0003
2000
3000
0001
0100
0001
0100
0020
0030
,
2000
3000
0001
1000
0001
1000
0020
0030
2000
3000
0100
0010
0100
0010
0002
0003
,
0200
0300
0010
1000
0010
1000
0002
0003
0020
0030
0100
1000
0100
1000
0002
0003
,
1000
0001
0101
0100
0010
1000
1100
0100
,
0010
0001
0011
0010
0100
1000
1001
0001
,
0100
0010
1010
1000
0001
0010
0011
0001
,
1000
0100
1100
1000
0001
0100
0101
0001
,
1000
0100
0010
0100
1000
0001
0100
0001
1000
0001
0010
0100
1000
0001
0100
0010
,
1000
0001
0010
0100
1000
0100
0010
0001
1000
0001
0100
0010
0100
0001
1000
0100
,
1000
0001
1000
0001
0100
0010
0100
0001
1000
0010
0100
0001
1000
0001
0100
0010
,
2000
0000
0000
3200
0320
0032
0023
0230
,
1300
0010
0100
0001
1000
0100
1000
0001
0010
0100
1000
0001
1000
0010
0100
0001
,
0010
0100
1000
0001
1000
0100
1000
0001
0100
0010
1000
0001
1000
0100
0010
0100
,
1000
0001
1000
0010
0100
0001
1000
0100
1000
0001
0010
0001
1000
0010
0100
0001
,
1000
0100
1000
0001
0100
0001
1000
0010
1000
0001
0010
0100
1000
0100
0010
0001
,
0100
0010
0100
0010
1000
0001
1000
0100
1000
0001
0100
0010
1000
0010
0100
0001
,
0010
0100
0010
0100
1000
0001
0100
0001
1000
0100
0010
0001
1000
0010
0100
0001
,
1000
0010
1000
0001
1000
0001
0010
0001
1000
0100
1000
0001
0100
0010
1000
0001
,
1000
0100
0010
0001
1000
0001
1000
0010
0100
0001
0010
0100
1000
0001
1000
0001
,
0010
0100
0010
0001
1000
0010
1000
0001
0100
0010
1000
0001
1000
0100
0010
0001
,
0100
0010
1000
0001
1000
0010
1000
0001
0010
0100
1000
0001
1000
0010
0100
0010
,
1000
0001
1000
0100
0010
0001
1000
0010
1000
0001
0100
0001
1000
0100
0010
0001
,
1000
0010
1000
0001
0010
0001
1000
0100
1000
0001
0100
0010
1000
0010
0100
0001
,
0010
0100
0010
0100
1000
0001
1000
0010
1000
0001
0010
0100
1000
0100
0010
0001
,
0100
0010
0100
0010
1000
0001
0010
0001
1000
0010
0100
0001
1000
0100
0010
0001
,
1000
0100
1000
0001
1000
0001
0100
0001
1000
0010
1000
0001
0010
0100
1000
0001
,
1000
0010
0100
0001
1000
0001
1000
0100
0010
0001
0100
0010
1000
0001
1000
0001
,
0100
0010
0100
0001
1000
0100
1000
0001
0010
0100
1000
0001
1000
0010
0100
0001
,
0010
0100
1000
0001
1000
0100
1000
0001
0100
0010
1000
0001
1000
0100
0010
0100
,
1000
0001
1000
0010
0100
0001
1000
0100
1000
0001
0010
0001
1000
0010
0100
0001
,
1000
0100
1000
0001
0100
0001
1000
0010
1000
0001
0010
0100
1000
0100
0010
0001
,
0100
0010
0100
0010
1000
0001
1000
0100
1000
0001
0100
0010
1000
0010
0100
0001
,
0010
0100
0010
0100
1000
0001
0100
0001
1000
0100
0010
0001
1000
0010
0100
0001
,
1000
0010
1000
0001
1000
0001
0010
0001
1000
0100
1000
0001
0100
0010
1000
0001
,
1000
0100
0010
0001
1000
0001
1000
0010
0100
0001
1000
0100
1000
0001
1000
0001
,
0010
0100
0010
0001
1000
0010
1000
0001
0100
0010
1000
0001
1000
0100
0010
0001
,
0100
0010
1000
0001
1000
0010
1000
0001
0010
0100
1000
0001
1000
0010
0100
0010
,
1000
0001
1000
0100
0010
0001
1000
0010
1000
0001
0100
0001
1000
0100
0010
0001
,
1000
0010
1000
0001
0010
0001
1000
0100
1000
0001
0100
0010
1000
0010
0100
0001
,
0010
0100
0010
0100
1000
0001
1000
0010
1000
0001
0010
0100
1000
0100
0010
0001
,
0100
0010
0100
0010
1000
0001
0010
0001
1000
0010
0100
0001
1000
0100
0010
0001
,
1000
0010
0100
0010
1000
0001
0010
0001
1000
0100
0010
0100
1000
0001
0100
0001
,
1000
0010
0100
0001
1000
0001
0010
0001
1000
0100
0010
0100
1000
0001
0100
0001
,
1000
0010
0100
0010
1000
0001
0010
0001
1000
0100
0010
0001
1000
0001
0100
0010
,
1000
0001
0100
0001
1000
0001
0010
0100
1000
0100
0010
0001
1000
0001
0100
0010
,
2000
3000
0001
0100
0001
0100
0020
0030
2000
3000
0001
0010
0001
0010
0200
0300
,
2000
3000
0100
0010
0100
0010
0002
0003
2000
3000
0010
1000
0010
1000
0002
0003
,
0010
0100
1000
0010
0100
0001
1000
0001
0010
0100
1000
0010
0100
0001
1000
0001
,
0010
0100
1000
0010
0100
0001
1000
0001
0010
0100
1000
0010
0100
0001
1000
0001
,
0100
0010
1000
0100
0010
0001
1000
0001
0100
0010
1000
0100
0010
0001
1000
0001
,
0100
0010
1000
0100
0010
0001
1000
0001
0100
0010
1000
0100
0010
0001
1000
0001
,
0100
0010
0100
0001
0010
0100
1000
0001
0100
0010
0100
0001
0010
0100
1000
0001
,
0010
0100
0010
0001
0100
0010
1000
0001
0010
0100
0010
0001
0100
0010
1000
0001
,
0010
0100
1000
0010
1000
0001
1000
0001
0010
0100
1000
0010
1000
0001
0010
0001
,
0100
0010
1000
0001
1000
0001
0010
0001
0100
0010
1000
0001
0100
0001
1000
0001
,
0010
0100
1000
0010
0100
0001
1000
0001
0010
0100
1000
0010
0100
0001
1000
0001
,
0010
0100
1000
0010
0100
0001
1000
0001
0010
0100
1000
0010
0100
0001
1000
0001
,
0100
0010
1000
0100
0010
0001
1000
0001
0100
0010
1000
0100
0010
0001
1000
0001
,
0100
0010
1000
0100
0010
0001
1000
0001
0100
0010
1000
0100
0010
0001
1000
0001
,
0100
0010
0100
0001
0010
0100
1000
0001
0100
0010
0100
0001
0010
0100
1000
0001
,
0010
0100
0010
0001
0100
0010
1000
0001
0010
0100
0010
0001
0100
0010
1000
0001
,
0010
0100
1000
0010
1000
0001
1000
0001
0010
0100
1000
0010
1000
0001
0010
0001
,
0100
0010
1000
0001
1000
0001
0010
0001
0100
0010
1000
0001
0010
0001
1000
0001
,
0100
0010
1000
0100
0010
0001
1000
0001
0100
0010
1000
0100
0010
0001
1000
0001
,
0100
0010
1000
0100
0010
0001
1000
0001
0100
0010
1000
0100
0010
0001
1000
0001
,
0010
0100
1000
0010
0100
0001
1000
0001
0010
0100
1000
0010
0100
0001
1000
0001
,
0010
0100
1000
0010
0100
0001
1000
0001
0010
0100
1000
0010
0100
0001
1000
0001
,
0010
0100
0010
0001
0100
0010
1000
0001
0010
0100
0010
0001
0100
0010
1000
0001
,
0100
0010
0100
0001
0010
0100
1000
0001
0100
0010
0100
0001
0010
0100
1000
0001
,
0100
0010
1000
0100
1000
0001
1000
0001
0100
0010
1000
0100
1000
0001
0100
0001
,
0010
0100
1000
0001
1000
0001
0100
0001
0010
0100
1000
0001
0010
0001
1000
0001
,
0100
0010
1000
0100
0010
0001
1000
0001
0100
0010
1000
0100
0010
0001
1000
0001
,
0100
0010
1000
0100
0010
0001
1000
0001
0100
0010
1000
0100
0010
0001
1000
0001
,
0010
0100
1000
0010
0100
0001
1000
0001
0010
0100
1000
0010
0100
0001
1000
0001
,
0010
0100
1000
0010
0100
0001
1000
0001
0010
0100
1000
0010
0100
0001
1000
0001
,
0010
0100
0010
0001
0100
0010
1000
0001
0010
0100
0010
0001
0100
0010
1000
0001
,
0100
0010
0100
0001
0010
0100
1000
0001
0100
0010
0100
0001
0010
0100
1000
0001
,
0100
0010
1000
0100
1000
0001
1000
0001
0100
0010
1000
0100
1000
0001
0100
0001
,
0010
0100
1000
0001
1000
0001
0100
0001
0010
0100
1000
0001
0100
0001
1000
0001
,
0010
0100
1000
0010
1000
0001
1000
0001
0010
0100
1000
0010
1000
0001
0010
0001
,
0100
0010
1000
0001
1000
0001
0010
0001
0100
0010
1000
0001
0100
0001
1000
0001
,
0020
0000
0030
0000
0000
0000
0100
0000
0000
1000
0000
0000
0100
0000
0000
1000
0000
0000
0002
0000
0003
0000
0000
0000
0200
0000
0300
0000
0000
0000
0010
0000
0000
1000
0000
0000
0010
0000
0000
1000
0000
0000
0002
0000
0003
0000
0000
0000
,
2000
0000
3000
0000
0000
0000
0100
0000
0000
0010
0000
0000
0100
0000
0000
0010
0000
0000
0002
0000
0003
0000
0000
0000
2000
0000
3000
0000
0000
0000
0010
0000
0000
0100
0000
0000
0010
0000
0000
0100
0000
0000
0002
0000
0003
0000
0000
0000
,
1000
0001
0100
0001
0010
0001
1000
0010
0100
0001
1000
0100
0010
0001
1000
0010
,
0100
0001
1000
0100
1000
0001
0010
0001
1000
0010
0100
0001
1000
0001
0010
0100
,
1000
0001
0100
0001
0010
0001
1000
0010
0100
0001
1000
0100
0010
0001
1000
0010
,
0100
0001
1000
0100
1000
0001
0010
0001
1000
0010
0100
0001
1000
0001
0010
0100
,
1000
0001
0100
0001
0010
0001
1000
0010
0100
0001
1000
0100
0010
0001
1000
0010
,
0100
0001
1000
0100
1000
0001
0010
0001
1000
0010
0100
0001
1000
0001
0010
0100
,
1000
0001
0100
0001
0010
0001
1000
0010
0100
0001
1000
0100
0010
0001
1000
0010
,
0100
0001
1000
0100
1000
0001
0010
0001
1000
0000
0001
0000
1000
0000
0001
0000
,
1000
0001
0010
0001
0100
0001
1000
0100
0010
0001
1000
0010
0100
0001
1000
0100
,
0010
0001
1000
0010
1000
0001
0100
0001
1000
0100
0010
0001
1000
0001
0100
0010
,
1000
0001
0010
0001
0100
0001
1000
0100
0010
0001
1000
0010
0100
0001
1000
0100
,
0010
0001
1000
0010
1000
0001
0100
0001
1000
0100
0010
0001
1000
0001
0100
0010
,
1000
0001
0010
0001
0100
0001
1000
0100
0010
0001
1000
0010
0100
0001
1000
0100
,
0010
0001
1000
0010
1000
0001
0100
0001
1000
0100
0010
0001
1000
0001
0100
0010
,
1000
0001
0010
0001
0100
0001
1000
0100
0010
0001
1000
0010
0100
0001
1000
0100
,
0010
0000
0000
0000
0000
0000
0001
0000
0010
0000
0001
0000
1000
0000
0000
0000
0000
0000
0001
0000
0010
0000
0001
0000
1000
0000
0000
0100
0000
0000
0010
0000
0000
0000
0000
0000
0001
0000
0000
0000
0000
0000
1000
0000
0000
0000
0000
0000
,
0001
1000
0100
1000
0010
1000
0001
0010
0100
0010
0001
0100
0010
0100
0001
0010
,
0100
0010
0001
0100
0001
1000
0010
1000
0001
0010
0100
1000
0001
1000
0010
0100
,
0001
1000
0010
1000
0100
1000
0001
0010
0100
0010
0001
0100
0010
0100
0001
0010
,
0100
0010
0001
0100
0001
1000
0010
1000
0001
0010
0100
1000
0001
1000
0010
0100
,
0001
1000
0100
1000
0010
1000
0001
0010
0100
0010
0001
0100
0010
0100
0001
0010
,
0100
0010
0001
0100
0001
1000
0010
1000
0001
0010
0100
1000
0001
1000
0010
0100
,
0001
1000
0010
1000
0100
1000
0001
0010
0100
0010
0001
0100
0010
0100
0001
0010
,
0100
0010
0001
0100
0001
1000
0010
1000
0100
0000
0010
0000
0100
0000
0010
0000
,
0001
0010
0100
1000
0001
0100
0010
1000
0001
1000
0010
1000
0001
1000
0010
1000
,
0001
0100
0001
1000
0100
0010
0100
1000
0001
0100
0010
0100
0001
1000
0100
1000
,
0001
0100
0010
1000
0001
0010
0100
1000
0001
1000
0100
1000
0001
1000
0100
1000
,
0001
0010
0001
1000
0010
0100
0010
1000
0001
0010
0100
0010
0001
1000
0010
1000
,
0001
0010
0100
1000
0001
1000
0010
0100
0001
0100
0010
0100
0001
0100
0010
0100
,
0001
1000
0100
1000
0001
0100
0010
0100
0001
1000
0100
0010
0100
1000
0001
1000
,
0010
0100
0010
1000
0001
0010
0100
1000
0100
0010
0100
1000
0100
0010
0100
1000
,
0002
0000
0000
0203
0320
2030
3002
0023
,
0130
1000
0010
1000
0001
0010
0001
1000
0100
0010
0001
1000
0001
0100
0010
1000
,
0100
0010
0001
1000
0001
0010
0001
1000
0010
0100
0001
1000
0001
0010
0100
0010
,
0001
1000
0001
0100
0010
1000
0001
0010
0001
1000
0100
1000
0001
0100
0010
1000
,
0001
0010
0001
1000
0010
1000
0001
0100
0001
1000
0100
0010
0001
0010
0100
1000
,
0010
0100
0010
0100
0001
1000
0001
0010
0001
1000
0010
0100
0001
0100
0010
1000
,
0100
0010
0100
0010
0001
1000
0010
1000
0001
0010
0100
1000
0001
0100
0010
1000
,
0001
0100
0001
1000
0001
1000
0100
1000
0001
0010
0001
1000
0010
0100
0001
1000
,
0001
0010
0100
1000
0001
1000
0001
0100
0010
1000
0100
0010
0001
1000
0001
1000
,
0100
0010
0100
1000
0001
0100
0001
1000
0010
0100
0001
1000
0001
0010
0100
1000
,
0010
0100
0001
1000
0001
0100
0001
1000
0100
0010
0001
1000
0001
0100
0010
0100
,
0001
1000
0001
0010
0100
1000
0001
0100
0001
1000
0010
1000
0001
0010
0100
1000
,
0001
0100
0001
1000
0100
1000
0001
0010
0001
1000
0010
0100
0001
0100
0010
1000
,
0100
0010
0100
0010
0001
1000
0001
0100
0001
1000
0100
0010
0001
0010
0100
1000
,
0010
0100
0010
0100
0001
1000
0100
1000
0001
0100
0010
1000
0001
0010
0100
1000
,
0001
0010
0001
1000
0001
1000
0010
1000
0001
0100
0001
1000
0100
0010
0001
1000
,
0001
0100
0010
1000
0001
1000
0001
0010
0100
1000
0010
0100
0001
1000
0001
1000
,
0010
0100
0010
1000
0001
0010
0001
1000
0100
0010
0001
1000
0001
0100
0010
1000
,
0100
0010
0001
1000
0001
0010
0001
1000
0010
0100
0001
1000
0001
0010
0100
0010
,
0001
1000
0001
0100
0010
1000
0001
0010
0001
1000
0100
1000
0001
0100
0010
1000
,
0001
0010
0001
1000
0010
1000
0001
0100
0001
1000
0100
0010
0001
0010
0100
1000
,
0010
0100
0010
0100
0001
1000
0001
0010
0001
1000
0010
0100
0001
0100
0010
1000
,
0100
0010
0100
0010
0001
1000
0010
1000
0001
0010
0100
1000
0001
0100
0010
1000
,
0001
0100
0001
1000
0001
1000
0100
1000
0001
0010
0001
1000
0010
0100
0001
1000
,
0001
0010
0100
1000
0001
1000
0001
0100
0010
1000
0001
0010
0001
1000
0001
1000
,
0100
0010
0100
1000
0001
0100
0001
1000
0010
0100
0001
1000
0001
0010
0100
1000
,
0010
0100
0001
1000
0001
0100
0001
1000
0100
0010
0001
1000
0001
0100
0010
0100
,
0001
1000
0001
0010
0100
1000
0001
0100
0001
1000
0010
1000
0001
0010
0100
1000
,
0001
0100
0001
1000
0100
1000
0001
0010
0001
1000
0010
0100
0001
0100
0010
1000
,
0100
0010
0100
0010
0001
1000
0001
0100
0001
1000
0100
0010
0001
0010
0100
1000
,
0010
0100
0010
0100
0001
1000
0100
1000
0001
0100
0010
1000
0001
0010
0100
1000
,
0001
0100
0010
0100
0001
1000
0100
1000
0001
0010
0100
0010
0001
1000
0010
1000
,
0001
0100
0010
1000
0001
1000
0100
1000
0001
0010
0100
0010
0001
1000
0010
1000
,
0001
0100
0010
0100
0001
1000
0100
1000
0001
0010
0100
1000
0001
1000
0010
0100
,
0001
0010
0001
0100
0010
1000
0100
1000
0001
0100
0010
0000
1000
0001
0010
0100
,
2000
0000
3002
0000
0000
0000
0000
0003
,
2000
0000
0001
3000
0010
0000
0000
0000
0001
0000
0000
0000
2000
0000
0000
3000
0010
0000
0000
0000
2000
0000
3000
0000
0001
0000
0000
0000
2000
3000
0000
0000
,
0010
0100
0001
1000
0100
0010
0001
0100
,
0010
0100
0010
0100
0000
0000
0000
0000
;

//---------------dance-double - Zaia----------------
#NOTES:
     dance-double:
     Zaia:
     Challenge:
     17:
     1.000,1.000,0.068,0.386,1.000,3339.000,27.000,153.000,0.000,1.000:
00000000
00000000
00000000
00000000
,
00000000
00000000
00000000
00000000
,
10000000
01000000
10000000
00000000
00010000
00000000
01000000
00000000
00100000
00000000
01000000
00000000
00001000
00000000
00000000
00000000
,
01000000
00001000
00011000
00000000
00000100
00010000
00011000
00000000
,
00010000
00000010
00010000
00000000
00000010
00000000
00000100
00000000
00000010
00000000
00010000
00000000
00001000
00000000
00000000
00000000
,
00100000
00001000
00011000
00000000
00000010
00010000
00011000
00000000
,
00010000
00000100
00010000
00000000
00000001
00000000
00000100
00000000
00000010
00000000
00010000
00000000
00001000
00000000
00000000
00000000
,
01000000
00001000
00011000
00000000
00000100
00010000
00011000
00000000
,
00001000
00100000
00001000
00000000
00010000
00000000
00001000
00000000
01000000
00000000
00001000
00000000
00010000
00000000
00000000
00000000
,
00000010
00010000
00011000
00000000
00100000
00001000
00011000
00010000
,
00001000
00010000
00000010
00000000
00000100
00000000
00000001
00000000
00000100
00000000
00000010
00000000
00001000
00000000
00000000
00000000
,
00000100
00010000
00011000
00000000
01000000
00001000
00011000
00000000
,
00010000
00001000
00100000
00000000
01000000
00000000
10000000
00000000
01000000
00000000
00100000
00000000
00010000
00000000
00000000
00000000
,
01000000
00001000
00011000
00000000
00000100
00010000
00011000
00000000
,
00001000
00100000
00001000
00000000
10000000
00000000
00100000
00000000
01000000
00000000
00001000
00000000
00010000
00000000
00000000
00000000
,
00000010
00010000
00011000
00000000
00100000
00001000
00011000
00000000
,
00010000
00000100
00010000
00000000
00001000
00000000
00010000
00000000
00000010
00000000
00010000
00000000
00001000
00000000
00000000
00000000
,
00010000
00001000
00010000
00001000
01000000
00010000
01000000
00010000
10000000
00100000
10000000
00010000
01000000
00001000
00010000
00001000
,
00010000
00001000
01000000
00001000
01000000
00000000
00100000
10000000
00010000
10000000
00010000
00100000
01000000
00000000
00100000
00010000
,
10000000
01000000
10000000
01000000
00100000
00000000
01000000
10000000
00010000
01000000
00001000
00010000
00001000
00010000
00000100
00000010
,
00000001
00001000
00000100
00001000
00000001
00000000
00000100
00000010
00001000
00000010
00001000
00000001
00000100
00000000
00000010
00000100
,
00000001
00001000
00000001
00001000
00000100
00000000
00001000
00000100
00000010
00000100
00010000
00001000
00100000
00001000
00100000
00010000
,
10000000
00010000
00100000
01000000
10000000
00000000
00010000
10000000
00010000
01000000
00010000
01000000
00100000
00000000
10000000
00010000
,
00100000
01000000
00100000
01000000
10000000
00000000
00010000
00100000
00001000
00010000
00000010
00010000
00000010
00001000
00000001
00000100
,
00000010
00001000
00000001
00001000
00000001
00000000
00000010
00000100
00001000
00000001
00001000
00000001
00000100
00000000
00000010
00001000
,
00000001
00000100
00000001
00000100
00000010
00000000
00001000
00000100
00010000
00000000
00001000
00000000
00011000
00000000
00010000
00000000
,
00001000
00010000
00000010
00010000
00000010
00000000
00000100
00000001
00001000
00000001
00001000
00000100
00000010
00000000
00000100
00001000
,
00000001
00000010
00000001
00000010
00000100
00000000
00000010
00000001
00001000
00000010
00010000
00001000
00010000
00001000
00100000
01000000
,
10000000
00010000
00100000
00010000
10000000
00000000
00100000
01000000
00010000
01000000
00010000
10000000
00100000
00000000
01000000
00100000
,
10000000
00010000
10000000
00010000
00100000
00000000
00010000
00100000
01000000
00100000
00001000
00010000
00000100
00010000
00000100
00001000
,
00000001
00000010
00000100
00001000
00000001
00000010
00000100
00001000
,
00000010
00010000
00001000
01000000
00100000
10000000
00010000
01000000
,
00100000
10000000
00010000
01000000
00010000
01000000
00001000
00010000
00001000
00010000
00000100
00000010
00000001
00001000
00000001
00000100
,
00000010
00000000
00000000
00000000
,
00100000
00000000
00000000
00000000
00000000
00000000
01000000
00000000
00000000
00000000
00000000
00000000
00010000
00000000
00000000
00000000
00000000
00000000
00000000
00000000
00000000
00000000
00000000
00000000
00100000
00000000
00000000
00000000
00000000
00000000
00000000
00000000
00000000
00000000
00000000
00000000
00002000
00000000
00000000
00000000
00000000
00000000
00003000
00000000
00000000
00000000
00000000
00000000
00010000
00000000
00000000
00000000
00000000
00000000
00000000
00000000
00000000
00000000
00000000
00000000
00002000
00000000
00000000
00000000
00003000
00000000
00000000
00000000
00000000
00000000
00000000
00000000
00100000
00000000
00000000
00000000
00000000
00000000
00000000
00000000
00000000
00000000
00000000
00000000
00002000
00000000
00000000
00003000
00000000
00000000
00000000
00000000
00000000
00000000
00000000
00000000
00010000
00000000
00000000
00000000
00000000
00000000
00000000
00000000
00000000
00000000
00000000
00000000
00000100
00000000
00000000
00000000
00000000
00000000
00000000
00000000
00000000
00000000
00000000
00000000
00000000
00000000
00000000
00000000
00000000
00000000
00000000
00000000
00000000
00000000
00000000
00000000
00000010
00000000
00000000
00000000
00000000
00000000
00000000
00000000
00000000
00000000
00000000
00000000
00000001
00000000
00000000
00000000
00000000
00000000
00000000
00000000
00000000
00000000
00000000
00000000
00001000
00000000
00000000
00000000
00000000
00000000
00000000
00000000
00000000
00000000
00000000
00000000
00000001
00000000
00000000
00000000
00000000
00000000
00000000
00000000
00000000
00000000
00000000
00000000
00000100
00000000
00000000
00000000
00000000
00000000
00000000
00000000
00000000
00000000
00000000
00000000
,
00000010
00000000
00000000
00000000
00000000
00000000
00010000
00000000
00000000
00000000
00000000
00000000
00001000
00000000
00000000
00000000
00000000
00000000
00000000
00000000
00000000
00000000
00000000
00000000
00010000
00000000
00000000
00000000
00000000
00000000
00000000
00000000
00000000
00000000
00000000
00000000
00000020
00000000
00000000
00000000
00000000
00000000
00000030
00000000
00000000
00000000
00000000
00000000
00010000
00000000
00000000
00000000
00000000
00000000
00000000
00000000
00000000
00000000
00000000
00000000
00002000
00000000
00000000
00000000
00003000
00000000
00000000
00000000
00000000
00000000
00000000
00000000
00010000
00000000
00000000
00000000
00000000
00000000
00000000
00000000
00000000
00000000
00000000
00000000
00000020
00000000
00000000
00000030
00000000
00000000
00000000
00000000
00000000
00000000
00000000
00000000
00010000
00000000
00000000
00000000
00000000
00000000
00000000
00000000
00000000
00000000
00000000
00000000
00001000
00000000
00000000
00000000
00000000
00000000
00000000
00000000
00000000
00000000
00000000
00000000
00000000
00000000
00000000
00000000
00000000
00000000
00000000
00000000
00000000
00000000
00000000
00000000
01000000
00000000
00000000
00000000
00000000
00000000
00000000
00000000
00000000
00000000
00000000
00000000
00100000
00000000
00000000
00000000
00000000
00000000
00000000
00000000
00000000
00000000
00000000
00000000
10000000
00000000
00000000
00000000
00000000
00000000
00000000
00000000
00000000
00000000
00000000
00000000
00010000
00000000
00000000
00000000
00000000
00000000
00000000
00000000
00000000
00000000
00000000
00000000
01000000
00000000
00000000
00000000
00000000
00000000
00000000
00000000
00000000
00000000
00000000
00000000
,
00001000
00000000
00000000
00000000
00000000
00000000
00010000
00000000
00000000
00000000
00000000
00000000
00000100
00000000
00000000
00000000
00000000
00000000
00000000
00000000
00000000
00000000
00000000
00000000
00010000
00000000
00000000
00000000
00000000
00000000
00000000
00000000
00000000
00000000
00000000
00000000
00002000
00000000
00000000
00000000
00000000
00000000
00003000
00000000
00000000
00000000
00000000
00000000
01000000
00000000
00000000
00000000
00000000
00000000
00000000
00000000
00000000
00000000
00000000
00000000
00002000
00000000
00000000
00000000
00003000
00000000
00000000
00000000
00000000
00000000
00000000
00000000
00010000
00000000
00000000
00000000
00000000
00000000
00000000
00000000
00000000
00000000
00000000
00000000
00002000
00000000
00000000
00003000
00000000
00000000
00000000
00000000
00000000
00000000
00000000
00000000
01000000
00000000
00000000
00000000
00000000
00000000
00000000
00000000
00000000
00000000
00000000
00000000
00001000
00000000
00000000
00000000
00000000
00000000
00000000
00000000
00000000
00000000
00000000
00000000
00000000
00000000
00000000
00000000
00000000
00000000
00000000
00000000
00000000
00000000
00000000
00000000
00010000
00000000
00000000
00000000
00000000
00000000
00000000
00000000
00000000
00000000
00000000
00000000
00000010
00000000
00000000
00000000
00000000
00000000
00000000
00000000
00000000
00000000
00000000
00000000
00000100
00000000
00000000
00000000
00000000
00000000
00000000
00000000
00000000
00000000
00000000
00000000
00000001
00000000
00000000
00000000
00000000
00000000
00000000
00000000
00000000
00000000
00000000
00000000
00000010
00000000
00000000
00000000
00000000
00000000
00000000
00000000
00000000
00000000
00000000
00000000
,
00000100
00000000
00000000
00000000
00000000
00000000
00010000
00000000
00000000
00000000
00000000
00000000
00001000
00000000
00000000
00000000
00000000
00000000
00000000
00000000
00000000
00000000
00000000
00000000
00100000
00000000
00000000
00000000
00000000
00000000
00000000
00000000
00000000
00000000
00000000
00000000
00020000
00000000
00000000
00000000
00000000
00000000
00030000
00000000
00000000
00000000
00000000
00000000
00100000
00000000
00000000
00000000
00000000
00000000
00000000
00000000
00000000
00000000
00000000
00000000
00002000
00000000
00000000
00000000
00003000
00000000
00000000
00000000
00000000
00000000
00000000
00000000
00100000
00000000
00000000
00000000
00000000
00000000
00000000
00000000
00000000
00000000
00000000
00000000
00020000
00000000
00000000
00030000
00000000
00000000
00000000
00000000
00000000
00000000
00000000
00000000
01000000
00000000
00000000
00000000
00000000
00000000
00000000
00000000
00000000
00000000
00000000
00000000
00001000
00000000
00000000
00000000
00000000
00000000
00000000
00000000
00000000
00000000
00000000
00000000
00000000
00000000
00000000
00000000
00000000
00000000
00000000
00000000
00000000
00000000
00000000
00000000
00010000
00000000
00000000
00000000
00000000
00000000
00000000
00000000
00000000
00000000
00000000
00000000
00000100
00000000
00000000
00000000
00000000
00000000
00000000
00000000
00000000
00000000
00000000
00000000
00001000
00000000
00000000
00000000
00000000
00000000
00000000
00000000
00000000
00000000
00000000
00000000
00000100
00000000
00000000
00000000
00000000
00000000
00000000
00000000
00000000
00000000
00000000
00000000
00010000
00000000
00000000
00000000
00000000
00000000
00000000
00000000
00000000
00000000
00000000
00000000
,
00001000
00000000
00000000
00000000
00000000
00000000
01000000
00000000
00000000
00000000
00000000
00000000
00010000
00000000
00000000
00000000
00000000
00000000
00000000
00000000
00000000
00000000
00000000
00000000
01000000
00000000
00000000
00000000
00000000
00000000
00000000
00000000
00000000
00000000
00000000
00000000
00002000
00000000
00000000
00000000
00000000
00000000
00003000
00000000
00000000
00000000
00000000
00000000
00010000
00000000
00000000
00000000
00000000
00000000
00000000
00000000
00000000
00000000
00000000
00000000
00002000
00000000
00000000
00000000
00003000
00000000
00000000
00000000
00000000
00000000
00000000
00000000
01000000
00000000
00000000
00000000
00000000
00000000
00000000
00000000
00000000
00000000
00000000
00000000
00002000
00000000
00000000
00003000
00000000
00000000
00000000
00000000
00000000
00000000
00000000
00000000
00010000
00000000
00000000
00000000
00000000
00000000
00000000
00000000
00000000
00000000
00000000
00000000
00000010
00000000
00000000
00000000
00000000
00000000
00000000
00000000
00000000
00000000
00000000
00000000
00000000
00000000
00000000
00000000
00000000
00000000
00000000
00000000
00000000
00000000
00000000
00000000
00000100
00000000
00000000
00000000
00000000
00000000
00000000
00000000
00000000
00000000
00000000
00000000
00000001
00000000
00000000
00000000
00000000
00000000
00000000
00000000
00000000
00000000
00000000
00000000
00001000
00000000
00000000
00000000
00000000
00000000
00000000
00000000
00000000
00000000
00000000
00000000
00000001
00000000
00000000
00000000
00000000
00000000
00000000
00000000
00000000
00000000
00000000
00000000
00000010
00000000
00000000
00000000
00000000
00000000
00000000
00000000
00000000
00000000
00000000
00000000
,
00000100
00000000
00000000
00000000
00000000
00000000
00010000
00000000
00000000
00000000
00000000
00000000
00001000
00000000
00000000
00000000
00000000
00000000
00000000
00000000
00000000
00000000
00000000
00000000
00010000
00000000
00000000
00000000
00000000
00000000
00000000
00000000
00000000
00000000
00000000
00000000
00000200
00000000
00000000
00000000
00000000
00000000
00000300
00000000
00000000
00000000
00000000
00000000
00010000
00000000
00000000
00000000
00000000
00000000
00000000
00000000
00000000
00000000
00000000
00000000
00002000
00000000
00000000
00000000
00003000
00000000
00000000
00000000
00000000
00000000
00000000
00000000
00010000
00000000
00000000
00000000
00000000
00000000
00000000
00000000
00000000
00000000
00000000
00000000
00000200
00000000
00000000
00000300
00000000
00000000
00000000
00000000
00000000
00000000
00000000
00000000
00010000
00000000
00000000
00000000
00000000
00000000
00000000
00000000
00000000
00000000
00000000
00000000
00001000
00000000
00000000
00000000
00000000
00000000
00000000
00000000
00000000
00000000
00000000
00000000
00000000
00000000
00000000
00000000
00000000
00000000
00000000
00000000
00000000
00000000
00000000
00000000
00100000
00000000
00000000
00000000
00000000
00000000
00000000
00000000
00000000
00000000
00000000
00000000
01000000
00000000
00000000
00000000
00000000
00000000
00000000
00000000
00000000
00000000
00000000
00000000
10000000
00000000
00000000
00000000
00000000
00000000
00000000
00000000
00000000
00000000
00000000
00000000
00010000
00000000
00000000
00000000
00000000
00000000
00000000
00000000
00000000
00000000
00000000
00000000
00100000
00000000
00000000
00000000
00000000
00000000
00000000
00000000
00000000
00000000
00000000
00000000
,
00001000
00000000
00000000
00000000
00000000
00000000
00010000
00000000
00000000
00000000
00000000
00000000
00000010
00000000
00000000
00000000
00000000
00000000
00000000
00000000
00000000
00000000
00000000
00000000
00010000
00000000
00000000
00000000
00000000
00000000
00000000
00000000
00000000
00000000
00000000
00000000
00002000
00000000
00000000
00000000
00000000
00000000
00003000
00000000
00000000
00000000
00000000
00000000
00100000
00000000
00000000
00000000
00000000
00000000
00000000
00000000
00000000
00000000
00000000
00000000
00002000
00000000
00000000
00000000
00003000
00000000
00000000
00000000
00000000
00000000
00000000
00000000
00010000
00000000
00000000
00000000
00000000
00000000
00000000
00000000
00000000
00000000
00000000
00000000
00002000
00000000
00000000
00003000
00000000
00000000
00000000
00000000
00000000
00000000
00000000
00000000
00100000
00000000
00000000
00000000
00000000
00000000
00000000
00000000
00000000
00000000
00000000
00000000
00001000
00000000
00000000
00000000
00000000
00000000
00000000
00000000
00000000
00000000
00000000
00000000
00000000
00000000
00000000
00000000
00000000
00000000
00000000
00000000
00000000
00000000
00000000
00000000
00010000
00000000
00000000
00000000
00000000
00000000
00000000
00000000
00000000
00000000
00000000
00000000
00000100
00000000
00000000
00000000
00000000
00000000
00000000
00000000
00000000
00000000
00000000
00000000
00000010
00000000
00000000
00000000
00000000
00000000
00000000
00000000
00000000
00000000
00000000
00000000
00000001
00000000
00000000
00000000
00000000
00000000
00000000
00000000
00000000
00000000
00000000
00000000
00000100
00000000
00000000
00000000
00000000
00000000
00000000
00000000
00000000
00000000
00000000
00000000
,
00000010
00000000
00000000
00000000
00000000
00000000
00010000
00000000
00000000
00000000
00000000
00000000
00001000
00000000
00000000
00000000
00000000
00000000
00000000
00000000
00000000
00000000
00000000
00000000
01000000
00000000
00000000
00000000
00000000
00000000
00000000
00000000
00000000
00000000
00000000
00000000
00020000
00000000
00000000
00000000
00000000
00000000
00030000
00000000
00000000
00000000
00000000
00000000
01000000
00000000
00000000
00000000
00000000
00000000
00000000
00000000
00000000
00000000
00000000
00000000
00002000
00000000
00000000
00000000
00003000
00000000
00000000
00000000
00000000
00000000
00000000
00000000
01000000
00000000
00000000
00000000
00000000
00000000
00000000
00000000
00000000
00000000
00000000
00000000
00020000
00000000
00000000
00030000
00000000
00000000
00000000
00000000
00000000
00000000
00000000
00000000
00100000
00000000
00000000
00000000
00000000
00000000
00000000
00000000
00000000
00000000
00000000
00000000
00001000
00000000
00000000
00000000
00000000
00000000
00000000
00000000
00000000
00000000
00000000
00000000
00000000
00000000
00000000
00000000
00000000
00000000
00000000
00000000
00000000
00000000
00000000
00000000
00010000
00000000
00000000
00000000
00000000
00000000
00000000
00000000
00000000
00000000
00000000
00000000
00000010
00000000
00000000
00000000
00000000
00000000
00000000
00000000
00000000
00000000
00000000
00000000
00001000
00000000
00000000
00000000
00000000
00000000
00000000
00000000
00000000
00000000
00000000
00000000
00000001
00000000
00000000
00000000
00000000
00000000
00000000
00000000
00000000
00000000
00000000
00000000
00000010
00000000
00000000
00000000
00000000
00000000
00000000
00000000
00000000
00000000
00000000
00000000
,
00000001
00001000
00000100
00001000
00000010
00001000
00000001
00000010
00000100
00001000
00000001
00000100
00000010
00001000
00000001
00000010
,
00000100
00010000
00001000
01000000
00001000
00010000
00001000
00010000
00000100
00010000
00001000
00010000
00000100
01000000
00000100
01000000
,
00001000
01000000
00010000
10000000
00100000
10000000
00010000
00100000
01000000
10000000
00010000
01000000
00100000
10000000
00010000
00100000
,
00010000
01000000
00001000
01000000
00001000
00010000
00001000
00100000
00001000
00010000
00001000
00100000
00000010
00100000
00000010
00010000
,
00001000
00010000
00000100
00001000
00000010
00001000
00000001
00000010
00000100
00001000
00000001
00000100
00000010
00001000
00000001
00000010
,
00000100
00010000
00001000
01000000
00001000
00010000
00001000
00010000
00000100
00010000
00001000
00010000
00000100
01000000
00000100
01000000
,
00001000
01000000
00010000
10000000
00100000
10000000
00010000
00100000
01000000
10000000
00010000
01000000
00100000
10000000
00010000
00100000
,
00010000
01000000
00001000
01000000
00001000
00010000
00001000
00100000
00001000
00000000
00010000
00000000
00001000
00000000
00010000
00000000
,
00000100
00001000
00000010
00001000
00000100
00001000
00000001
00000100
00000010
00001000
00000001
00000010
00000100
00001000
00000001
00000100
,
00000010
00010000
00001000
01000000
00001000
00010000
00001000
00010000
00000010
00010000
00001000
00010000
00000010
00100000
00000010
00100000
,
00001000
00100000
00010000
10000000
01000000
10000000
00010000
01000000
00100000
10000000
00010000
00100000
01000000
10000000
00010000
01000000
,
00010000
00100000
00001000
00100000
00001000
00010000
00001000
01000000
00001000
00010000
00001000
01000000
00000100
01000000
00000100
00010000
,
00001000
00010000
00000010
00001000
00000100
00001000
00000001
00000100
00000010
00001000
00000001
00000010
00000100
00001000
00000001
00000100
,
00000010
00010000
00001000
00100000
00001000
00010000
00001000
00010000
00000010
00010000
00001000
00010000
00000010
00100000
00000010
00100000
,
00001000
00100000
00010000
10000000
01000000
10000000
00010000
01000000
00100000
10000000
00010000
00100000
01000000
10000000
00010000
01000000
,
00001000
00000000
00000000
00000000
00000000
00000000
00010000
00000000
00001000
00000000
00010000
00000000
00000100
00000000
00000000
00000000
00000000
00000000
00010000
00000000
00001000
00000000
00010000
00000000
00000100
00000000
00000000
00010000
00000000
00000000
00001000
00000000
00000000
00000000
00000000
00000000
00010000
00000000
00000000
00000000
00000000
00000000
00001000
00000000
00000000
00000000
00000000
00000000
,
00100000
00010000
01000000
00010000
00100000
00010000
10000000
00100000
01000000
00010000
10000000
01000000
00100000
00010000
10000000
00100000
,
01000000
00001000
00010000
00000010
00010000
00001000
00010000
00001000
01000000
00001000
00010000
00001000
01000000
00000100
01000000
00000100
,
00010000
00000100
00001000
00000001
00000010
00000001
00001000
00000010
00000100
00000001
00001000
00000100
00000010
00000001
00001000
00000010
,
00001000
00000100
00010000
00000100
00010000
00001000
00010000
00000010
00010000
00001000
00010000
00000010
00100000
00000010
00100000
00001000
,
00010000
00001000
01000000
00010000
00100000
00010000
10000000
00100000
01000000
00010000
10000000
01000000
00100000
00010000
10000000
00100000
,
01000000
00001000
00010000
00000100
00010000
00001000
00010000
00001000
01000000
00001000
00010000
00001000
01000000
00000100
01000000
00000100
,
00010000
00000100
00001000
00000001
00000010
00000001
00001000
00000010
00000100
00000001
00001000
00000100
00000010
00000001
00001000
00000010
,
00001000
00000100
00010000
00000100
00010000
00001000
00010000
00000010
00010000
00000000
00001000
00000000
00010000
00000000
00001000
00000000
,
00100000
00001000
00100000
00010000
01000000
00010000
10000000
01000000
00100000
00010000
10000000
00100000
01000000
00010000
10000000
01000000
,
00100000
00001000
00010000
00000010
00010000
00001000
00010000
00001000
00100000
00001000
00010000
00001000
00100000
00000010
00100000
00000010
,
00010000
00000010
00001000
00000001
00000100
00000001
00001000
00000100
00000010
00000001
00001000
00000010
00000100
00000001
00001000
00000100
,
00001000
00000010
00010000
00000010
00010000
00001000
00010000
00000100
00010000
00001000
00010000
00000100
01000000
00000100
01000000
00001000
,
00010000
00000010
00000100
00000001
00010000
00000010
00000100
00000001
,
00000010
00000100
00010000
00001000
01000000
00100000
10000000
00001000
,
01000000
00100000
01000000
00010000
01000000
00001000
00010000
00001000
00010000
00000100
00000010
00000100
00010000
00001000
00010000
00000100
,
01000000
00000000
00000000
00000000
,
02022200
00000000
00000000
00000000
,
00000000
00000000
03033300
00000000
,
02000000
00000000
00000000
00000000
,
00020000
03000000
00000000
00000000
,
00200000
00030000
00000000
00000000
,
00002000
00300000
00000000
00000000
,
00020000
00003000
00000000
00000000
,
00000200
00030000
00000000
00000000
,
00000020
00000300
00000000
00000000
,
00000002
00000000
00000000
00000000
00000030
00000000
00000000
00000000
00000000
00000000
00000000
00000000
00000013
00000100
00001000
00000001
,
00000200
00000000
00000300
00000000
00000010
00001000
00000100
00000010
00000002
00000000
00000003
00000000
00000100
00000001
00000010
00000001
,
00002000
00000000
00003100
00010000
00002000
00000000
00023000
00000000
00030020
00000000
00000030
00010000
00001000
01000000
00100000
10000000
,
00020000
00000000
00000000
00130000
01000000
10000000
00100000
01000000
00020000
00000000
00030000
00000000
02000000
00000000
03000200
00000000
,
00020300
00000000
00030020
00000000
00002030
00000000
00003002
00000000
00000023
00000000
00000030
00000000
00000100
00001000
00000010
00000100
,
00000002
00000000
00000003
00000000
00000100
00000010
00001000
00000001
00000020
00000000
00000030
00000100
00010000
00001000
01000000
00010000
,
00100000
00000000
00010000
01000000
00200000
00000000
20300000
00000000
30020000
00000000
00030000
10000000
00010000
00100000
01000000
00100000
,
00002000
00000000
00000000
00103000
00001000
00100000
00010000
10000000
02000000
00000000
03000000
00000000
00200000
00000000
02300000
00000000
,
23000000
30020000
00230000
00302000
00023000
00030020
00000230
00000320
,
00002030
00000000
00003002
00000000
00000023
00000000
00000230
00000000
00000300
00000000
00000000
00020000
00000000
00032000
00000000
02003000
,
00000000
03000000
00000000
00000000
00002000
00000000
00000000
00000000
00000000
00000000
00000000
00000000
00000000
00000000
00000000
00000000
,
02003000
00000000
00000000
00010000
03000000
00000000
02000000
00000000
03200000
00000000
00000000
00010000
00000000
00000000
02300000
00000000
,
03200000
00000000
00000000
00010000
00000000
00000000
02300000
00000000
03200000
00000000
00000000
00010000
00000000
00000000
20300000
00000000
,
30200000
00000000
00000000
01000000
00000000
00000000
20300000
00000000
30200000
00000000
00000000
01000000
00000000
00000000
20300000
00000000
,
30200000
00000000
00000000
01000000
00000000
00000000
20300000
00000000
30200000
00000000
00000000
01000000
00000000
00000000
00302000
00000000
,
02003000
00000000
00000000
00010000
00000000
00000000
03002000
00000000
02003000
00000000
00000000
00010000
00000000
00000000
03002000
00000000
,
00023000
00000000
00000000
00000100
00000000
00000000
00032000
00000000
00023000
00000000
00000000
00000100
00000000
00000000
00030020
00000000
,
00002030
00000000
00000000
00000001
00000000
00000000
00003020
00000000
00002030
00000000
00000000
00000001
00000000
00000000
00003020
00000000
,
00020030
00000000
00000000
00001000
00000000
00000000
00030020
00000000
00002030
00000000
00000000
00003200
00000000
00000000
00020300
00000000
,
00030020
00000000
00000000
00001000
00000030
00000000
00000020
00000000
00000230
00000000
00000000
00000001
00000000
00000000
00000320
00000000
,
00000230
00000000
00000000
00000001
00000000
00000000
00000320
00000000
00000230
00000000
00000000
00000001
00000000
00000000
00000310
00000000
,
00002000
00000000
00000000
00000010
00000000
00000000
00003002
00000000
00002003
00000000
00000000
00000010
00000000
00000000
00003002
00000000
,
00002003
00000000
00000000
00000010
00000000
00000000
00003002
00000000
00002003
00000000
00000000
00000010
00000000
00000000
00023000
00000000
,
00030020
00000000
00000000
00001000
00000000
00000000
00020030
00000000
00030020
00000000
00000000
00001000
00000000
00000000
00000230
00000000
,
00020300
00000000
00000000
00001000
00000000
00000000
00030200
00000000
00020300
00000000
00000000
00001000
00000000
00000000
02030000
00000000
,
03020000
00000000
00000000
10000000
00000000
00000000
02030000
00000000
03020000
00000000
00000000
10000000
00000000
00000000
02030000
00000000
,
03002000
00000000
00000000
00010000
00000000
00000000
02003000
00000000
03020000
00000000
00000000
00230000
00000000
00000000
00302000
00000000
,
00103000
00000000
01000000
10000000
01000000
10000000
00010000
00000000
01000000
00000000
00100000
10000000
00100000
10000000
00010000
00000000
,
00100000
00000000
01000000
00100000
01000000
00100000
00001000
00000000
00010000
00000000
00001000
00010000
00001000
00010000
00000100
00000000
,
00010000
00000000
00000010
00001000
00000010
00001000
00000001
00000000
00000100
00000000
00000001
00000010
00000001
00000010
00000100
00000000
,
00001000
00000000
00000100
00010000
00000100
00010000
00001000
00000000
00010000
00000000
00001000
01000000
00001000
01000000
00010000
00000000
,
10000000
00000000
00100000
01000000
00100000
01000000
00010000
00000000
10000000
00000000
00010000
00100000
00010000
00100000
01000000
00000000
,
00100000
00000000
00001000
00010000
00001000
00010000
00000010
00000000
00001000
00000000
00000001
00001000
00000001
00001000
00000100
00000000
,
00000010
00000000
00000100
00010000
00000100
00010000
00001000
00000000
01000000
00000000
00001000
01000000
00001000
01000000
00010000
00000000
,
00100000
00000000
01000000
10000000
01000000
10000000
00010000
00000000
01000000
00000000
00001000
01000000
00001000
01000000
00010000
00000000
,
10000000
01000000
11000000
10000000
01000000
00100000
01100000
01000000
,
00100000
00010000
00110000
00100000
00001000
00010000
00011000
00001000
,
00010000
00000100
00001100
00001000
00000001
00000010
00000011
00000001
,
00001000
00000010
00001010
00001000
00000100
00010000
00011000
00001000
,
00010000
00001000
00010000
00001000
01000000
00000100
01000000
00000100
00010000
00001000
00010000
00001000
00100000
00000010
00100000
00000010
,
00010000
00001000
00010000
00001000
01000000
00000100
01000000
00000100
00010000
00001000
00010000
00001000
00100000
00000010
00100000
00000010
,
00010000
00001000
01000000
00000100
00010000
00001000
01000000
00000100
00010000
00001000
00100000
00000010
00010000
00001000
00100000
00000010
,
00010000
00000000
00000000
00002000
02003000
03020000
00230000
00320000
,
10030000
01000000
00100000
00010000
01000000
00100000
10000000
00010000
10000000
00100000
01000000
00010000
10000000
01000000
00100000
01000000
,
10000000
00100000
01000000
00010000
10000000
01000000
10000000
00010000
01000000
00100000
01000000
00010000
10000000
00010000
00100000
01000000
,
10000000
00100000
01000000
00010000
01000000
00100000
01000000
00001000
00010000
00001000
00010000
00000100
00000010
00000100
00001000
00000001
,
00000100
00000010
00001000
00000010
00000100
00000001
00001000
00000001
00000010
00000100
00000010
00000001
00001000
00000010
00000100
00000001
,
00000100
00000010
00010000
00001000
01000000
00100000
10000000
00010000
10000000
01000000
00100000
01000000
10000000
01000000
00100000
00010000
,
00100000
00001000
00010000
00000100
00000010
00000001
00001000
00000001
00000100
00000010
00001000
00000001
00000010
00000100
00001000
00000100
,
00000010
00000001
00000100
00000001
00000100
00000010
00000100
00000010
00001000
00000010
00001000
00000010
00010000
00001000
00010000
00001000
,
00100000
01000000
00100000
01000000
10000000
01000000
10000000
01000000
00100000
00000000
00010000
00000000
10000000
00000000
00010000
00000000
,
10000000
00100000
01000000
00010000
00100000
01000000
10000000
00010000
10000000
01000000
00100000
00010000
10000000
00100000
01000000
00100000
,
10000000
01000000
00100000
00010000
10000000
00100000
10000000
00010000
00100000
01000000
00100000
00010000
10000000
00010000
01000000
00100000
,
10000000
01000000
00100000
00010000
00100000
01000000
00100000
00001000
00010000
00001000
00010000
00000010
00000100
00000010
00001000
00000001
,
00000010
00000100
00001000
00000100
00000010
00000001
00001000
00000001
00000100
00000010
00000100
00000001
00001000
00000100
00000010
00000001
,
00000010
00000100
00010000
00001000
00100000
01000000
10000000
00010000
10000000
00100000
01000000
00100000
10000000
00100000
01000000
00010000
,
01000000
00001000
00010000
00000010
00000100
00000001
00001000
00000001
00000010
00000100
00001000
00000001
00000100
00000010
00001000
00000010
,
00000100
00000001
00000010
00000001
00000010
00000100
00000010
00000100
00001000
00000100
00001000
00000100
00010000
00001000
00010000
00001000
,
01000000
00100000
01000000
00100000
10000000
00100000
10000000
00100000
01000000
00001000
00010000
00000000
00001000
00010000
00000010
00001000
,
00000001
00000010
00000100
00001000
00000010
00000100
00000001
00001000
00000001
00000100
00000010
00001000
00000001
00000010
00000100
00000010
,
00000001
00000100
00000010
00001000
00000001
00000010
00000001
00001000
00000010
00000100
00000010
00001000
00000001
00001000
00000100
00000010
,
00000001
00000100
00000010
00001000
00000010
00000100
00000010
00010000
00001000
00010000
00001000
00100000
01000000
00100000
00010000
10000000
,
00100000
01000000
00010000
01000000
00100000
10000000
00010000
10000000
01000000
00100000
01000000
10000000
00010000
01000000
00100000
10000000
,
00100000
01000000
00001000
00010000
00000010
00000100
00000001
00001000
00000001
00000010
00000100
00000010
00000001
00000010
00000100
00001000
,
00000100
00010000
00001000
00100000
01000000
10000000
00010000
10000000
00100000
01000000
00010000
10000000
01000000
00100000
00010000
00100000
,
01000000
10000000
00100000
10000000
00100000
01000000
00100000
01000000
00010000
01000000
00010000
01000000
00001000
00010000
00001000
00010000
,
00000100
00000010
00000100
00000010
00000001
00000010
00000001
00000010
00000100
00000000
00001000
00000000
00000001
00000000
00001000
00000000
,
00000001
00000100
00000010
00001000
00000100
00000010
00000001
00001000
00000001
00000010
00000100
00001000
00000001
00000100
00000010
00000100
,
00000001
00000010
00000100
00001000
00000001
00000100
00000001
00001000
00000100
00000010
00000100
00001000
00000001
00001000
00000010
00000100
,
00000001
00000010
00000100
00001000
00000100
00000010
00000100
00010000
00001000
00010000
00001000
01000000
00100000
01000000
00010000
10000000
,
01000000
00100000
00010000
00100000
01000000
10000000
00010000
10000000
00100000
01000000
00100000
10000000
00010000
00100000
01000000
10000000
,
01000000
00100000
00001000
00010000
00000100
00000010
00000001
00001000
00000001
00000100
00000010
00000100
00000001
00000100
00000010
00001000
,
00000010
00010000
00001000
01000000
00100000
10000000
00010000
10000000
01000000
00100000
00010000
10000000
00100000
01000000
00010000
01000000
,
00100000
10000000
01000000
10000000
01000000
00100000
01000000
00100000
00010000
00100000
00010000
00100000
00001000
00010000
00001000
00010000
,
00000010
00000100
00000010
00000100
00000001
00000100
00000001
00000100
00000010
00010000
00000010
00010000
00001000
00010000
00001000
00010000
,
00001000
01000000
00001000
01000000
00100000
01000000
00100000
01000000
00100000
10000000
00100000
10000000
00010000
10000000
00010000
10000000
,
00100000
10000000
01000000
00100000
00010000
01000000
00010000
00100000
00001000
00000000
00010000
00001000
00010000
00000100
00100000
00001000
,
00010000
00000000
00001000
00010000
00001000
00010000
00000100
00000000
01000000
00000000
00001000
00010000
00001000
00010000
00000010
00000000
,
00100000
00000000
00001000
00010000
00001000
00010000
00000100
00000000
01000000
00000000
00001000
00010000
00001000
00010000
00000010
00000000
,
00001000
00000010
00000100
00000010
00001000
00000001
00001000
00000001
00001000
00000010
00000100
00000010
00001000
00000001
00001000
00000001
,
00001000
00000010
00000100
00000010
00001000
00000001
00001000
00000001
00001000
00000010
00000100
00000010
00001000
00000010
00010000
00001000
,
00010000
00000100
00001000
00000100
00010000
00001000
00010000
00001000
00010000
00000100
00001000
00000100
00010000
00001000
00010000
00001000
,
00010000
00000100
00001000
00000100
00010000
00001000
00010000
00001000
00010000
00000100
00001000
00000100
00010000
00001000
00010000
00001000
,
01000000
00100000
01000000
00100000
10000000
00010000
10000000
00010000
10000000
00100000
01000000
00100000
10000000
00010000
10000000
00010000
,
10000000
01000000
00100000
01000000
10000000
00010000
10000000
00010000
10000000
01000000
00100000
01000000
10000000
00010000
10000000
00010000
,
10000000
01000000
00100000
00001000
00010000
00001000
00010000
00001000
00010000
00100000
01000000
00100000
00001000
00010000
00001000
00010000
,
00001000
01000000
00100000
01000000
00001000
00010000
00001000
00010000
00001000
00000000
00010000
00000000
00000010
00000000
00001000
00000000
,
00000001
00000100
00000010
00000100
00000001
00001000
00000001
00001000
00000001
00000100
00000010
00000100
00000001
00001000
00000001
00001000
,
00000001
00000100
00000010
00000100
00000001
00001000
00000001
00001000
00000001
00000100
00000010
00001000
00000010
00010000
00001000
00010000
,
00001000
00100000
00010000
00100000
00001000
00010000
00001000
00010000
00001000
00100000
00010000
00100000
00001000
00010000
00001000
00010000
,
00001000
00100000
00010000
00100000
00001000
00010000
00001000
00010000
00001000
00100000
00010000
00100000
00001000
00010000
00001000
00010000
,
01000000
00100000
01000000
00100000
10000000
00010000
10000000
00010000
10000000
00100000
01000000
00100000
10000000
00010000
10000000
00010000
,
10000000
01000000
00100000
01000000
10000000
00010000
10000000
00010000
10000000
01000000
00100000
01000000
10000000
00010000
10000000
00010000
,
10000000
00100000
01000000
00001000
00010000
00001000
00010000
00001000
00010000
00100000
01000000
00100000
00001000
00010000
00001000
00010000
,
00001000
01000000
00100000
01000000
00001000
00010000
00001000
00010000
00001000
01000000
00001000
00000000
01000000
00010000
01000000
00010000
,
10000000
00100000
01000000
00100000
10000000
00010000
10000000
00010000
10000000
00100000
01000000
00100000
10000000
00010000
10000000
00010000
,
10000000
00100000
01000000
00100000
10000000
00010000
10000000
00010000
10000000
00100000
01000000
00010000
01000000
00001000
00010000
00001000
,
00010000
00000100
00001000
00000100
00010000
00001000
00010000
00001000
00010000
00000100
00001000
00000100
00010000
00001000
00010000
00001000
,
00010000
00000100
00001000
00000100
00010000
00001000
00010000
00001000
00010000
00000100
00001000
00000100
00010000
00001000
00010000
00001000
,
00000010
00000100
00000010
00000100
00000001
00001000
00000001
00001000
00000001
00000100
00000010
00000100
00000001
00001000
00000001
00001000
,
00000001
00000010
00000100
00000010
00000001
00001000
00000001
00001000
00000001
00000010
00000100
00000010
00000001
00001000
00000001
00001000
,
00000001
00000100
00000010
00010000
00001000
00010000
00001000
00010000
00001000
00000100
00000010
00000100
00010000
00001000
00010000
00001000
,
00010000
00000010
00000100
00000010
00010000
00001000
00010000
00001000
00010000
00000000
00001000
00000000
00100000
00000000
00010000
00000000
,
10000000
01000000
00100000
01000000
10000000
00010000
10000000
00010000
10000000
01000000
00100000
01000000
10000000
00010000
10000000
00010000
,
10000000
01000000
00100000
01000000
10000000
00010000
10000000
00010000
10000000
01000000
00100000
00010000
00100000
00001000
00010000
00001000
,
00010000
00000010
00001000
00000010
00010000
00001000
00010000
00001000
00010000
00000010
00001000
00000010
00010000
00001000
00010000
00001000
,
00010000
00000010
00001000
00000010
00010000
00001000
00010000
00001000
00010000
00000010
00001000
00000010
00010000
00001000
00010000
00001000
,
00000100
00000010
00000100
00000010
00000001
00001000
00000001
00001000
00000001
00000010
00000100
00000010
00000001
00001000
00000001
00001000
,
00000001
00000100
00000010
00000100
00000001
00001000
00000001
00001000
00000001
00000100
00000010
00000100
00000001
00001000
00000001
00001000
,
00000001
00000010
00000100
00010000
00001000
00100000
01000000
10000000
,
00010000
10000000
00100000
01000000
00001000
00010000
00000010
00000100
,
00000001
00000100
00000010
00010000
00001000
01000000
00100000
10000000
00010000
10000000
01000000
00100000
00001000
00010000
00000100
00000010
,
00000004
00000000
00000000
00000000
,
00000103
00000000
00000010
00001000
00000010
00001000
00000100
00000000
00010000
00000000
00001000
00010000
00001000
00010000
00000100
00000000
,
00010000
00001000
00010000
00001000
00010000
00001000
00010000
00001000
00010000
00001000
00010000
00001000
00010000
00001000
00010000
00001000
,
00010000
00001000
01000000
00001000
01000000
00000000
00100000
10000000
00010000
10000000
00010000
00100000
01000000
00000000
00100000
00010000
,
10000000
01000000
10000000
01000000
00100000
00000000
01000000
10000000
00010000
01000000
00001000
00010000
00001000
00010000
00000100
00000010
,
00000001
00001000
00000100
00001000
00000001
00000000
00000100
00000010
00001000
00000010
00001000
00000001
00000100
00000000
00000010
00000100
,
00000001
00001000
00000001
00001000
00000100
00000000
00001000
00000100
00000010
00000100
00010000
00001000
00100000
00001000
00100000
00010000
,
10000000
00010000
00100000
01000000
10000000
00000000
00010000
10000000
00010000
01000000
00010000
01000000
00100000
00000000
10000000
00010000
,
00100000
01000000
00100000
01000000
10000000
00000000
00010000
00100000
00001000
00010000
00000010
00010000
00000010
00001000
00000001
00000100
,
00000010
00001000
00000001
00001000
00000001
00000000
00000010
00000100
00001000
00000001
00001000
00000001
00000100
00000000
00000010
00001000
,
00000001
00000100
00000001
00000100
00000010
00000000
00001000
00000100
00010000
00000000
00001000
00000000
00011000
00000000
00010000
00000000
,
00001000
00010000
00000010
00010000
00000010
00000000
00000100
00000001
00001000
00000001
00001000
00000100
00000010
00000000
00000100
00001000
,
00000001
00000010
00000001
00000010
00000100
00000000
00000010
00000001
00001000
00000010
00010000
00001000
00010000
00001000
00100000
01000000
,
10000000
00010000
00100000
00010000
10000000
00000000
00100000
01000000
00010000
01000000
00010000
10000000
00100000
00000000
01000000
00100000
,
10000000
00010000
10000000
00010000
00100000
00000000
00010000
00100000
01000000
00100000
00001000
00010000
00000100
00010000
00000100
00001000
,
00000100
00010000
00000100
00001000
00000010
00001000
00000001
00000010
00000100
00001000
00000001
00000100
00000010
00001000
00000001
00000010
,
00000100
00010000
00001000
01000000
00001000
00010000
00001000
00010000
00000100
00010000
00001000
00010000
00000100
01000000
00000100
01000000
,
00001000
01000000
00010000
10000000
00100000
10000000
00010000
00100000
01000000
10000000
00010000
01000000
00100000
10000000
00010000
00100000
,
00001000
00000000
00000000
00000000
00000000
00000000
00010000
00000000
00001000
00000000
00010000
00000000
00000010
00000000
00000000
00000000
00000000
00000000
00010000
00000000
00001000
00000000
00010000
00000000
00000010
00000000
00000000
00010000
00000000
00000000
00001000
00000000
00000000
00000000
00000000
00000000
00010000
00000000
00000000
00000000
00000000
00000000
00001000
00000000
00000000
00000000
00000000
00000000
,
01000000
00010000
00100000
00010000
01000000
00010000
10000000
01000000
00100000
00010000
10000000
00100000
01000000
00010000
10000000
01000000
,
00100000
00001000
00010000
00000100
00010000
00001000
00010000
00001000
00100000
00001000
00010000
00001000
00100000
00000010
00100000
00000010
,
00010000
00000010
00001000
00000001
00000100
00000001
00001000
00000100
00000010
00000001
00001000
00000010
00000100
00000001
00001000
00000100
,
00001000
00000010
00010000
00000010
00010000
00001000
00010000
00000100
00010000
00001000
00010000
00000100
01000000
00000100
01000000
00001000
,
00010000
00001000
00100000
00010000
01000000
00010000
10000000
01000000
00100000
00010000
10000000
00100000
01000000
00010000
10000000
01000000
,
00100000
00001000
00010000
00000010
00010000
00001000
00010000
00001000
00100000
00001000
00010000
00001000
00100000
00000010
00100000
00000010
,
00010000
00000010
00001000
00000001
00000100
00000001
00001000
00000100
00000010
00000001
00001000
00000010
00000100
00000001
00001000
00000100
,
00001000
00000010
00010000
00000010
00010000
00001000
00010000
00000100
00010000
00000000
00001000
00000000
00010000
00000000
00001000
00000000
,
01000000
00100000
10000000
00010000
00000000
00010000
00000000
00010000
,
00100000
01000000
00000000
00100000
00001000
00010000
00000010
00000100
,
00000001
00000010
00000100
00001000
00000000
00001000
00000000
00001000
,
00000100
00010000
00000000
00001000
01000000
00100000
10000000
00010000
,
00100000
01000000
10000000
00010000
00000000
00010000
00000000
00010000
,
01000000
00001000
00000000
00010000
00000010
00000100
00000001
00000010
,
00000100
00010000
00001000
00010000
00001000
00100000
00010000
00100000
00010000
01000000
00010000
01000000
00001000
00010000
00001000
00010000
,
00000010
00000000
00000000
00002000
00003020
00000230
00000302
00002003
,
00003001
00000010
00000100
00001000
00000010
00000100
00000001
00001000
00000001
00000100
00000010
00001000
00000001
00000010
00000100
00000010
,
00000001
00000100
00000010
00001000
00000001
00000010
00000001
00001000
00000010
00000100
00000010
00001000
00000001
00001000
00000100
00000010
,
00000001
00000100
00000010
00001000
00000010
00000100
00000010
00010000
00001000
00010000
00001000
00100000
01000000
00100000
00010000
10000000
,
00100000
01000000
00010000
01000000
00100000
10000000
00010000
10000000
01000000
00100000
01000000
10000000
00010000
01000000
00100000
10000000
,
00100000
01000000
00001000
00010000
00000010
00000100
00000001
00001000
00000001
00000010
00000100
00000010
00000001
00000010
00000100
00001000
,
00000100
00010000
00001000
00100000
01000000
10000000
00010000
10000000
00100000
01000000
00010000
10000000
01000000
00100000
00010000
00100000
,
01000000
10000000
00100000
10000000
00100000
01000000
00100000
01000000
00010000
01000000
00010000
01000000
00001000
00010000
00001000
00010000
,
00000100
00000010
00000100
00000010
00000001
00000010
00000001
00000010
00000100
00000000
00001000
00000000
00000001
00000000
00001000
00000000
,
00000001
00000100
00000010
00001000
00000100
00000010
00000001
00001000
00000001
00000010
00000100
00001000
00000001
00000100
00000010
00000100
,
00000001
00000010
00000100
00001000
00000001
00000100
00000001
00001000
00000100
00000010
00000100
00001000
00000001
00001000
00000010
00000100
,
00000001
00000010
00000100
00001000
00000100
00000010
00000100
00010000
00001000
00010000
00001000
01000000
00100000
01000000
00010000
10000000
,
01000000
00100000
00010000
00100000
01000000
10000000
00010000
10000000
00100000
01000000
00100000
10000000
00010000
00100000
01000000
10000000
,
01000000
00100000
00001000
00010000
00000100
00000010
00000001
00001000
00000001
00000100
00000010
00000100
00000001
00000100
00000010
00001000
,
00000010
00010000
00001000
01000000
00100000
10000000
00010000
10000000
01000000
00100000
00010000
10000000
00100000
01000000
00010000
01000000
,
00100000
10000000
01000000
10000000
01000000
00100000
01000000
00100000
00010000
00100000
00010000
00100000
00001000
00010000
00001000
00010000
,
00000010
00000100
00000010
00000100
00000001
00000100
00000001
00000100
00000010
00010000
00001000
00000000
00010000
00001000
01000000
00010000
,
10000000
01000000
00100000
00010000
01000000
00100000
10000000
00010000
10000000
00100000
01000000
00010000
10000000
01000000
00100000
01000000
,
10000000
00100000
01000000
00010000
10000000
01000000
10000000
00010000
01000000
00100000
01000000
00010000
10000000
00010000
00100000
01000000
,
10000000
00100000
01000000
00010000
01000000
00100000
01000000
00001000
00010000
00001000
00010000
00000100
00000010
00000100
00001000
00000001
,
00000100
00000010
00001000
00000010
00000100
00000001
00001000
00000001
00000010
00000100
00000010
00000001
00001000
00000010
00000100
00000001
,
00000100
00000010
00010000
00001000
01000000
00100000
10000000
00010000
10000000
01000000
00100000
01000000
10000000
01000000
00100000
00010000
,
00100000
00001000
00010000
00000100
00000010
00000001
00001000
00000001
00000100
00000010
00001000
00000001
00000010
00000100
00001000
00000100
,
00000010
00000001
00000100
00000001
00000100
00000010
00000100
00000010
00001000
00000010
00001000
00000010
00010000
00001000
00010000
00001000
,
00100000
01000000
00100000
01000000
10000000
01000000
10000000
01000000
00100000
00000000
00010000
00000000
10000000
00000000
00010000
00000000
,
10000000
00100000
01000000
00010000
00100000
01000000
10000000
00010000
10000000
01000000
00100000
00010000
10000000
00100000
01000000
00100000
,
10000000
01000000
00100000
00010000
10000000
00100000
10000000
00010000
00100000
01000000
00100000
00010000
10000000
00010000
01000000
00100000
,
10000000
01000000
00100000
00010000
00100000
01000000
00100000
00001000
00010000
00001000
00010000
00000010
00000100
00000010
00001000
00000001
,
00000010
00000100
00001000
00000100
00000010
00000001
00001000
00000001
00000100
00000010
00000100
00000001
00001000
00000100
00000010
00000001
,
00000010
00000100
00010000
00001000
00100000
01000000
10000000
00010000
10000000
00100000
01000000
00100000
10000000
00100000
01000000
00010000
,
01000000
00001000
00010000
00000010
00000100
00000001
00001000
00000001
00000010
00000100
00001000
00000001
00000100
00000010
00001000
00000010
,
00000100
00000001
00000100
00000010
00001000
00000001
00000100
00000010
,
00010000
00001000
00010000
00100000
01000000
10000000
00010000
00100000
,
00010000
01000000
00100000
10000000
01000000
10000000
00010000
00100000
00001000
00010000
00000010
00000100
00000001
00000010
00000001
00001000
,
00000040
00000000
00000000
00000000
00000000
00000000
00000000
00000000
00000130
00000001
00001000
00000000
00000100
00010000
00000100
00010000
,
00002000
00023000
00000000
00000000
,
00031000
01000000
00100000
00000000
01000000
00000000
00001000
00000000
00010000
00000000
00000010
00000000
00010000
00000000
00001000
00000000
,
00010000
00000010
00000100
00000001
00000100
00000001
00000010
00000100
,
00010000
00001000
00010000
00001000
00000000
00000000
00000000
00000000
;
