#TITLE:BubbleMan(wantstoget)FunkedUp;
#SUBTITLE:MegaMan2;
#ARTIST:Capcom-remixed by Disco Dan;
#TITLETRANSLIT:;
#SUBTITLETRANSLIT:;
#ARTISTTRANSLIT:;
#CREDIT:;
#BANNER:BubbleMan.png;
#BACKGROUND:BubbleMan-bg.bmp;
#LYRICSPATH:;
#CDTITLE:!LiquidCDTitle.png;
#MUSIC:BubbleMan.mp3;
#OFFSET:-0.020;
#SAMPLESTART:53.980;
#SAMPLELENGTH:12.000;
#SELECTABLE:YES;
#BPMS:0.000=180.000;
#STOPS:;
#BGCHANGES:;
// cache tags:
#FIRSTBEAT:0.000;
#LASTBEAT:760.500;
#SONGFILENAME:Songs/new cc/BubbleMan/BubbleMan.sm;
#HASMUSIC:1;
#HASBANNER:1;
#MUSICLENGTH:261.459;
// end cache tags

//---------------dance-single - ----------------
#NOTES:
     dance-single:
     :
     Challenge:
     10:
     0.886,1.000,1.000,0.597,0.124,1113.000,350.000,156.000,0.000,94.000:
0010
0001
0010
0100
0001
0010
0100
1000
,
0001
0010
0100
1000
0001
0000
0100
0001
,
0000
1000
0100
0010
1000
0100
0010
0001
,
1000
0100
0010
0001
1000
0000
0010
1000
,
0000
1000
0010
0100
1000
0010
0100
0001
,
1000
0010
0100
0001
1000
0000
0100
1000
,
0000
0001
0100
0010
0001
0100
0010
1000
,
0001
0100
0010
1000
0001
0000
0010
0001
,
2002
0000
0000
0000
3223
0000
2332
3223
,
0000
0000
0000
0000
,
2332
0000
0000
0000
3223
0000
2332
3223
,
1001
1001
0000
0000
1001
1001
0000
0000
,
2332
0000
0000
0000
3223
0000
2332
3223
,
0000
0000
0000
0000
,
2332
0000
0000
0000
3223
0000
2332
3223
,
1001
1001
0000
0000
1001
1001
0000
0000
,
1331
0000
0000
1000
0000
1000
0000
0001
,
1000
0000
0000
0001
0000
0001
0000
1000
,
0001
0000
0000
0001
0000
1000
0000
1001
,
1001
0000
0000
1000
0000
0001
0000
1001
,
1001
0000
0000
1001
0000
0110
0000
0011
,
1100
0000
0000
0110
0000
1001
0000
1100
,
0011
0000
0000
0110
0000
0110
0000
1001
,
1001
0000
0000
0110
0000
0110
0000
1001
,
0220
0000
0000
0000
2330
3100
0000
0010
,
0000
0001
0000
2000
3000
2000
3100
0000
,
0002
0013
0000
0100
0000
1000
0000
2200
,
0000
0000
0000
3302
0000
0000
2003
0000
,
3220
0000
0000
0000
0330
2000
3200
0310
,
0000
1000
0000
0001
0000
0002
2003
3002
,
0000
0000
0000
0000
0000
2003
3200
2302
,
0000
0000
0000
0000
,
3023
0000
0000
0000
2032
0000
0000
3103
,
0000
0000
1001
0000
2002
0000
0000
0000
0000
3003
0002
0000
0023
0000
0230
0000
,
2300
0000
3200
0320
0000
2030
0000
3200
,
0000
0320
0000
0032
0000
2203
0000
0000
,
3322
0000
0000
0033
2200
0000
0000
3311
,
0000
0000
0011
0000
0020
0000
0000
0000
0000
0000
0032
0003
0202
0000
2303
3000
,
2200
0000
0000
0000
3322
0033
0200
0000
0000
0000
2300
0000
0000
0000
3022
0000
,
0000
2233
0000
3302
0000
0223
0000
1331
,
0000
1001
0001
1000
1001
0010
0100
1000
,
0110
1000
0100
0010
0110
0000
1001
0110
,
0000
1001
1000
0001
1001
0100
0010
0001
,
0110
0001
0010
0100
0110
0000
1001
0110
,
0000
1001
0001
1000
1001
0010
0100
1000
,
0110
1000
0100
0010
0110
0000
1001
0110
,
0000
1001
1000
0001
1001
0100
0010
0001
,
0110
0001
0010
0100
0110
0000
1001
0110
,
2000
0001
0010
0100
0001
0010
0001
0010
,
0001
0100
0001
0001
0010
0000
0010
0011
,
3002
1000
0100
0010
1000
0100
1000
0100
,
1000
0010
1000
1000
0100
0000
0100
1100
,
0023
1001
0100
0001
1100
0001
1000
0100
,
1001
0100
0001
1000
1001
0000
1001
1001
,
0230
0011
1000
1000
0011
1000
0010
0001
,
0002
0000
0010
0000
1000
0000
0010
0000
1010
0000
0000
0000
1000
0000
0010
0303
,
2000
0000
0000
0000
3002
0103
0000
0010
,
0000
0001
0000
2000
3000
2000
3100
0000
,
0002
0013
0000
0100
0000
1000
0000
2200
,
0000
0000
0000
3302
0000
0000
2003
0000
,
3220
0000
0000
0000
0330
2000
3200
0310
,
0000
1000
0000
0001
0000
0002
2003
3002
,
0000
0000
0000
0000
0000
2003
3200
2302
,
0000
0000
0000
0000
,
0000
3023
0230
1300
0000
0001
0000
2020
,
0000
0000
0000
0000
,
0000
3032
0203
0311
0000
0110
0000
2200
,
0000
3302
0203
0000
0000
1301
0000
0020
,
0000
0000
0000
0000
0000
2030
3100
0000
,
1100
0000
2002
3113
0000
2002
0000
0000
,
0000
0000
0000
0000
0000
3203
0320
0032
,
2203
3320
2030
3020
0032
0023
0230
1301
,
0000
0000
0000
1000
0000
1000
0000
0001
,
0011
0000
0000
0001
0000
0001
0000
1000
,
1100
0000
0000
0001
0000
1000
0000
1001
,
1001
0000
0000
1000
0000
0001
0000
1001
,
1001
0000
0000
1001
0000
0110
0000
0011
,
0110
0000
0000
0110
0000
0001
0000
1100
,
0110
0000
0000
0110
0000
0110
0000
1001
,
0110
0000
0000
0110
0000
0110
0000
0011
,
0100
0000
0100
1000
0100
0000
0100
0010
0100
0000
0100
1000
0100
0000
0002
0000
,
0013
0000
0100
0010
0100
0000
0100
1000
0100
0000
0100
0010
0100
0000
0002
0000
,
0013
0000
0100
1000
0100
0000
0100
0010
0100
0000
0100
1000
0100
0000
0002
0000
,
0113
0000
0110
0000
1001
0000
1000
1100
,
1110
0000
0001
0010
0001
0000
0001
0100
0001
0000
0001
0010
0001
0000
2000
0000
,
3100
0000
0001
0100
0001
0000
0001
0010
0001
0000
0001
0100
0001
0000
2000
0000
,
3100
0000
0001
0010
0001
0000
0001
0100
0001
0000
0001
0010
0001
0000
2000
0000
,
3110
0000
0110
0000
1001
0000
0001
0011
,
0111
0000
0000
0001
0100
0000
0000
1000
,
0100
0000
0000
0000
0000
0000
0000
0000
1000
0000
0000
0000
0000
0000
0000
0000
0001
0000
0000
0000
0000
0000
0000
0000
1000
0000
0000
0000
0000
0000
0000
0000
0000
0000
0000
0000
0000
0000
0000
0000
0000
0000
1000
0000
0000
0100
0000
0000
,
1000
0000
0000
1000
0010
0000
0000
0001
,
0010
0000
0000
0000
0000
0000
0000
0000
0001
0000
0000
0000
0000
0000
0000
0000
1000
0000
0000
0000
0000
0000
0000
0000
0001
0000
0000
0000
0000
0000
0000
0000
0000
0000
0000
0000
0000
0000
0000
0000
0000
0000
0001
0000
0000
0010
0000
0000
,
0001
0000
0000
0011
0101
0000
0000
1000
,
1100
0000
0000
0000
0000
0000
0000
0000
1010
0000
0000
0000
0000
0000
0000
0000
1001
0000
0000
0000
0000
0000
0000
0000
1010
0000
0000
0000
0000
0000
0000
0000
0000
0000
0000
0000
0000
0000
0000
0000
0000
0000
1000
0000
0000
0100
0000
0000
,
1000
0000
0000
1100
1010
0000
0000
0001
,
0011
0000
0000
0000
0000
0000
0000
0000
0101
0000
0000
0000
0000
0000
0000
0000
1001
0000
0000
0000
0000
0000
0000
0000
0101
0000
0000
0000
0000
0000
0000
0000
0000
0000
0000
0000
0000
0000
0000
0000
0000
0000
0001
0000
0000
0010
0000
0000
,
0001
0110
0001
1000
0110
0010
0100
1000
,
0110
1000
0100
0010
0110
0000
1001
0110
,
0000
0110
1000
0001
0110
0100
0010
0001
,
0110
0001
0010
0100
0110
0000
1001
0110
,
0000
0110
0001
1000
0110
0010
0100
1000
,
0110
1000
0100
0010
0110
0000
1001
0110
,
0000
0110
1000
0001
0110
0100
0010
0001
,
0110
0001
0010
0100
0110
0000
1001
0110
,
0000
1000
0100
0010
1001
0010
0100
1000
,
0000
0001
0010
0100
1001
0100
0010
0001
,
0000
1001
1000
0100
0011
0100
1000
0100
,
0000
1001
0001
0010
1100
0010
0001
0010
,
0000
0011
1000
1000
0011
1000
1000
0011
,
0000
0010
0110
1000
1100
0001
0010
0100
,
0000
1100
0001
0001
1100
0001
0001
1100
,
0000
0100
0110
0001
0011
1000
0100
0010
,
0000
1001
0100
0010
1001
0010
0100
1001
,
0000
1001
0010
0100
1001
0100
0010
1001
,
0000
0011
1000
0100
0011
0100
1000
0011
,
0000
1100
0001
0010
1100
0010
0001
1100
,
0000
0001
1000
1000
0011
1000
1000
0001
,
0000
0010
0011
1000
1100
0001
0010
1100
,
0000
1000
0001
0001
1100
0001
0001
1000
,
0000
0100
1100
0001
0011
1000
0100
0011
,
1000
0000
0000
0000
1001
0000
0000
0110
,
0000
1001
1001
0000
0000
1000
0100
0010
,
0001
0010
0001
0010
0100
1000
0100
1000
0001
0010
0100
1000
0001
0010
0100
1000
,
0010
0001
1000
0100
0010
0001
1000
0100
0010
0001
1000
0100
0010
0001
1000
0100
,
0010
0000
0000
0000
1001
0000
0000
0110
,
0000
0110
1001
0000
0000
0001
0010
0100
,
1000
0100
0010
0001
1000
0100
0010
0001
1000
0100
0010
0001
1000
0100
0010
0001
,
1000
0100
1000
0100
1000
0100
1000
0100
0010
0001
0010
0001
1000
0100
1000
0100
,
0001
0110
0001
1000
0110
0010
0100
1000
,
0110
1000
0100
0010
0110
0000
1001
0110
,
0000
0110
1000
0001
0110
0100
0010
0001
,
0110
0001
0010
0100
0110
0000
1001
0110
,
0000
0110
0001
1000
0110
0010
0100
1000
,
0110
1000
0100
0010
0110
0000
1001
0110
,
0000
0110
1000
0001
0110
0100
0010
0001
,
0110
0001
0010
0100
0110
0000
1001
0110
,
0000
1000
0100
0010
1001
0010
0100
1000
,
0000
0001
0010
0100
1001
0100
0010
0001
,
0000
1001
1000
0100
0011
0100
1000
0100
,
0000
1001
0001
0010
1100
0010
0001
0010
,
0000
0011
1000
1000
0011
1000
1000
0011
,
0000
0010
0110
1000
1100
0001
0010
0100
,
0000
1100
0001
0001
1100
0001
0001
1100
,
0000
0100
0110
0001
0011
1000
0100
0010
,
0000
1000
1100
1000
1001
0010
0100
1000
,
0000
0001
0011
0001
1001
0100
0010
0001
,
0000
0011
1000
0100
0011
1000
0100
0011
,
0000
1100
0001
0010
1100
0001
0010
1100
,
0000
0011
1000
1000
0110
1000
1000
1100
,
0000
0110
0010
1100
0100
0001
0010
1100
,
0000
1100
0001
0001
0110
0001
0001
0011
,
0000
0110
0100
0011
0010
1000
0100
0011
,
0000
0011
0100
1000
0000
1001
0000
0001
,
0000
0010
0001
1000
0011
0000
0000
0010
,
1010
0000
1000
1010
0000
1001
0000
1100
,
0000
0000
1000
1001
0000
0001
0000
1001
,
0000
0000
0000
0000
0000
0100
0110
0010
,
0110
0000
0100
1000
0000
0001
0000
0000
,
1001
0000
1001
0110
0000
0011
0000
1100
,
0000
0000
0000
0000
0000
0000
0010
0001
1000
0000
0001
0000
1001
0000
0001
0000
,
0000
0100
0101
0100
1100
0001
0010
0100
,
1001
0010
0001
1000
0011
1000
0100
0010
,
1100
0000
0001
0101
0000
1000
0000
0101
,
0000
0000
1000
1100
0000
0011
0000
0000
,
0000
0100
1000
0001
1000
1001
0000
0011
,
0000
0000
0110
0000
0000
0000
1100
0000
0000
0000
0000
0000
0000
0000
0010
0001
,
1000
0000
0000
0000
0000
0011
0001
1100
,
1000
0000
0000
0000
,
0000
1000
0100
0010
1001
0010
0100
1000
,
0000
0001
0010
0100
1001
0100
0010
0001
,
0000
1001
1000
0100
0011
0100
1000
0100
,
0000
1001
0001
0010
1100
0010
0001
0010
,
0000
0011
1000
1000
0011
1000
1000
0011
,
0000
0010
0110
1000
1100
0001
0010
0100
,
0000
1100
0001
0001
1100
0001
0001
1100
,
0000
0100
0110
0001
0011
1000
0100
0010
,
0000
0011
1100
1100
0011
1000
0100
0010
,
0000
1100
0011
0011
1100
0001
0010
0100
,
0000
1000
0001
0001
1001
1000
0001
0101
,
0000
0001
1000
1000
1001
0001
1000
1010
,
0000
2000
0000
0000
0000
0000
0000
0000
0000
0000
0000
0000
0000
0000
0000
0000
0000
0000
0000
0000
0000
0000
0000
0000
0100
0000
0000
0000
0000
0000
0000
0000
0000
0000
0000
0000
0000
0000
0000
0000
0000
0000
0000
0000
0000
0000
0000
0000
0010
0000
0000
0000
0000
0000
0000
0000
0000
0000
0000
0000
0000
0000
0000
0000
0000
0000
0000
0000
0000
0000
0000
0000
0001
0000
0000
0000
0000
0000
0000
0000
0000
0000
0000
0000
0000
0000
0000
0000
0000
0000
0000
0000
0000
0000
0000
0000
0110
0000
0000
0000
0000
0000
0000
0000
0000
0000
0000
0000
0000
0000
0000
0000
0000
0000
0000
0000
0000
0000
0000
0000
0100
0000
0000
0000
0000
0000
0000
0000
0000
0000
0000
0000
0000
0000
0000
0000
0000
0000
0000
0000
0000
0000
0000
0000
0010
0000
0000
0000
0000
0000
0000
0000
0000
0000
0000
0000
0000
0000
0000
0000
0000
0000
0000
0000
0000
0000
0000
0000
0001
0000
0000
0000
0000
0000
0000
0000
0000
0000
0000
0000
0000
0000
0000
0000
0000
0000
0000
0000
0000
0000
0000
0000
,
0000
0001
0010
0100
0110
0001
0010
0100
,
3002
1000
0100
0100
0010
0100
0100
1000
,
0200
0010
1000
1000
0010
1000
1000
0010
,
2300
0000
0000
0110
0000
0000
0000
0100
,
0000
0000
0110
0000
0000
0110
0000
0000
,
0120
0000
0000
0100
0000
0000
0000
0100
,
0000
0000
0100
0000
0000
0100
0000
0000
,
0200
0000
0000
0000
,
0000
0000
0000
0000
0000
0000
0003
0030
,
0300
3000
0000
0000
0000
0000
0000
0000
;

//---------------dance-single - ----------------
#NOTES:
     dance-single:
     :
     Easy:
     1:
     0.000,0.000,0.000,0.000,0.000,0.000,0.000,0.000,0.000,0.000:
0000
0000
0000
0000
;
