#TITLE:Lonely Rolling Star;
#SUBTITLE:;
#ARTIST:Yoshihito Yano & Saki Kabata;
#TITLETRANSLIT:;
#SUBTITLETRANSLIT:;
#ARTISTTRANSLIT:;
#CREDIT:Arch0wl;
#BANNER:lonelyrollingstar-bn.png;
#BACKGROUND:lonelyrollingstar-bg.png;
#LYRICSPATH:;
#CDTITLE:!Arch0wlTitle.png;
#MUSIC:lonelyrollingstar.ogg;
#OFFSET:-0.351;
#SAMPLESTART:63.172;
#SAMPLELENGTH:22.594;
#SELECTABLE:YES;
#BPMS:0.000=170.000;
#STOPS:;
#BGCHANGES:0.000=lonelyrollingstar-bg.png=1.000=0=0=1,
99999=-nosongbg-=1.000=0=0=0 // don't automatically add -songbackground-
;
// cache tags:
#FIRSTBEAT:2.000;
#LASTBEAT:314.000;
#SONGFILENAME:Songs/Archmage and Dark0wl Hammer of Thor UltraHyperMegaPack/Lonely Rolling Star/lonelyrollingstar.sm;
#HASMUSIC:1;
#HASBANNER:1;
#MUSICLENGTH:105.000;
// end cache tags

//---------------dance-single - Arch0wl----------------
#NOTES:
     dance-single:
     Arch0wl:
     Hard:
     8:
     0.785,0.897,0.086,1.000,0.014,449.000,9.000,118.000,0.000,1.000:
0000
0000
1000
1000
,
0001
0000
0000
0020
0000
0030
0200
0000
0300
2000
0000
0000
0000
0000
0000
0000
0000
0000
3010
0000
0000
0000
0000
0000
,
0100
0000
0000
0000
0000
0000
0002
0000
0003
0002
0000
0000
0000
0000
0000
0000
0000
0000
0003
0000
0000
0000
0000
0000
,
1000
0000
0000
0020
0000
0030
0200
0000
0300
0002
0000
0000
0000
0000
0000
0000
0000
0000
0013
0000
0000
0000
0000
0000
,
0100
0000
0000
0000
0000
0000
2000
0000
3000
2000
0000
0000
0000
0000
0000
0000
0000
0000
0000
0000
0000
3000
0000
0000
,
0001
0000
0000
0200
0000
0300
0020
0000
0030
2000
0000
0000
0000
0000
0000
0000
0000
0000
3010
0000
0000
0000
0000
0000
,
0100
0000
0000
0000
0000
0000
0002
0000
0003
0002
0000
0000
0000
0000
0000
0000
0000
0000
0000
0000
0000
0003
0000
0000
,
0000
0000
2000
0000
,
3002
0000
0000
0000
1003
0100
1000
0100
,
1000
0000
0000
0020
0000
0030
0200
0000
0300
0002
0000
0000
1000
0000
0003
0001
0000
0000
0200
0000
0300
0010
0000
0000
,
2000
0000
3000
0100
0000
0000
0020
0000
0030
0020
0000
0000
0001
0000
0030
0100
0000
0000
0001
0000
0000
0010
0000
0000
,
0100
0000
0000
0020
0000
0030
0002
0000
0003
0200
0000
0000
0010
0000
0300
1000
0000
0000
0020
0000
0030
0100
0000
0000
,
0002
0000
0003
0010
0000
0000
0200
0000
0300
0200
0000
0000
0010
0000
0300
0001
0000
0000
1000
0000
0000
0010
0000
0000
,
1000
0000
0000
0200
0000
0300
0020
0000
0030
0002
0000
0000
1000
0000
0003
0010
0000
0000
0200
0000
0300
0010
0000
0000
,
2000
0000
3000
0001
0000
0000
2000
0000
3000
2000
0000
0000
0100
0000
3000
0010
0000
0000
0100
0000
0000
0010
0000
0000
,
0100
0000
0000
0010
0000
0000
0100
0000
0000
0010
0000
0000
0002
0000
0000
0010
0000
0003
0100
0000
0000
0010
0000
0000
,
0002
0000
0000
0100
0000
0003
0010
0000
0000
0100
0000
0000
0001
0000
0000
0000
0000
0000
1000
0000
0000
0000
0000
0000
,
0010
0100
0010
0100
0001
0000
1000
0100
,
0000
0100
1000
0000
0010
0000
0100
0000
,
0001
0000
0001
0100
0010
0000
0100
0001
,
0000
0001
0100
0000
0010
0000
1000
0000
,
0010
0100
0010
0100
0010
0000
1000
0001
,
0000
0001
1000
0000
0100
0000
0010
0000
,
0001
0100
0001
0100
0001
0000
0010
0100
,
1000
0100
1000
0100
1000
0000
1000
0100
0010
0000
0000
0000
0001
0000
0000
0000
,
0100
0010
0100
0010
0100
0000
0001
0010
,
0000
0010
0001
0000
1000
0000
0100
0000
,
1000
0010
1000
0010
1000
0000
0001
0100
,
0000
0100
0001
0000
0010
0000
0001
0000
,
1000
0100
1000
0100
1000
0000
0010
0100
,
0000
0100
0010
0000
1000
0000
0001
0100
,
0010
1000
0010
1000
0010
0000
1000
0100
,
0000
0100
1000
0000
0010
0100
0010
0001
,
0010
1000
0020
0000
0030
0100
0010
0001
,
0010
1000
0010
0100
0001
0010
0001
1000
,
0001
0100
0002
0000
0003
1000
0001
0010
,
0000
0010
0001
1000
0100
0010
0100
0001
,
0100
1000
0100
0010
0001
0100
0001
1000
,
0010
1000
0001
1000
0100
0010
0100
0001
,
0100
1000
0100
0010
0100
0001
0100
1000
,
0100
0010
0001
0100
2020
0000
3030
0000
,
0220
0330
0202
0303
,
0022
0033
2102
0000
,
0000
0000
0000
0000
3003
0000
0000
1000
,
0100
0010
0001
0100
0010
1000
0010
1000
,
0010
1000
0010
1000
0001
1000
0001
1000
,
0010
0100
0010
0100
0001
0010
0001
1000
,
0100
1000
0100
1000
0100
1000
0100
1000
,
0100
1000
0100
1000
0010
0100
0010
0100
,
0010
0100
0010
0100
0001
0100
0001
0100
,
0010
1000
0001
0010
0100
1000
0100
0010
,
0001
0010
0001
0010
0001
0010
0100
1000
,
0001
0100
0001
0100
0010
1000
0010
1000
,
0010
1000
0010
1000
0100
1000
0100
1000
,
0001
0010
0001
0010
0100
1000
0100
0010
,
0001
0010
0001
0010
0001
0010
0001
0010
,
0100
1000
0100
1000
0001
0010
0001
0010
,
0001
0010
0001
0100
0010
1000
0010
0100
,
0001
0100
0010
1000
0001
0010
0001
0010
,
0001
0010
0100
1000
0010
0100
0010
0100
,
0010
0100
0010
1000
0100
0010
0001
0010
,
0100
2000
3002
0203
0320
2030
3000
0020
,
0030
0200
0300
2000
3200
0300
0200
0300
,
0002
0023
0030
0020
0000
0000
0000
0000
,
0000
0030
0000
0000
2002
0000
0000
0000
,
3003
0002
2003
3020
0230
0302
0003
0200
,
0300
0020
0030
0002
0023
0030
0020
0030
,
2000
3200
0300
0200
0300
2000
3000
0020
,
0030
0020
0030
0000
2200
0000
3300
0000
,
0000
2000
3200
0320
0032
2003
3000
0020
,
0030
0200
0300
0002
0203
0300
0200
0300
,
0020
2030
3000
2000
0000
0000
0000
0000
,
3000
0000
0022
0000
,
0033
0002
0023
0230
2300
3002
0003
0200
,
0300
0020
0030
2000
3020
0030
0020
0030
,
0200
0302
0003
0002
0003
2000
3000
2000
,
3000
0200
0300
0000
2002
0000
0000
0000
,
0000
0000
0000
0000
,
0000
0000
3003
0000
;
