#TITLE:Move Your Feet;
#SUBTITLE:(Shpadoinkle);
#ARTIST:Junior Senior;
#TITLETRANSLIT:;
#SUBTITLETRANSLIT:;
#ARTISTTRANSLIT:;
#CREDIT:;
#BANNER:../thisandthat-bn.png;
#BACKGROUND:../thisnthat-bg.png;
#LYRICSPATH:;
#CDTITLE:;
#MUSIC:Move Your Feet.ogg;
#OFFSET:-0.935;
#SAMPLESTART:51.403;
#SAMPLELENGTH:12.000;
#SELECTABLE:YES;
#DISPLAYBPM:119.000;
#BPMS:0.000=118.880,80.000=237.760,82.750=118.880,83.000=118.880,83.750=237.760,86.750=118.880,87.750=237.760,90.750=118.880,96.000=237.760,96.500=118.880,97.000=237.760,97.500=118.880,100.000=237.760,100.500=118.880,101.000=237.760,101.500=118.880,104.000=237.760,104.500=118.880,105.000=237.760,105.500=118.880,180.000=237.760,182.750=118.880,183.750=237.760,186.750=118.880,187.750=237.760,190.750=118.880,191.750=237.760,195.000=118.880,196.000=237.760,196.500=118.880,197.000=237.760,197.500=118.880,200.000=237.760,200.500=118.880,201.000=237.760,201.500=118.880,204.000=237.760,204.500=118.880,205.000=237.760,205.500=118.880,280.000=237.760,280.500=118.880,281.000=237.760,281.500=118.880,284.000=237.760,284.500=118.880,285.000=237.760,285.500=118.880,288.000=237.760,288.500=118.880,289.000=237.760,289.500=118.880;
#STOPS:80.000=0.126
,80.500=0.126
,81.000=0.126
,81.500=0.126
,82.000=0.126
,82.500=0.063
,83.750=0.126
,84.250=0.126
,84.750=0.063
,85.000=0.126
,85.500=0.126
,86.000=0.126
,86.500=0.063
,87.750=0.126
,88.250=0.126
,88.750=0.063
,89.000=0.126
,89.500=0.126
,90.000=0.126
,90.500=0.063
,96.000=0.126
,97.000=0.126
,100.000=0.126
,101.000=0.126
,104.000=0.126
,105.000=0.126
,180.000=0.126
,180.500=0.126
,181.000=0.126
,181.500=0.126
,182.000=0.126
,182.500=0.063
,183.750=0.126
,184.250=0.063
,184.500=0.126
,185.000=0.126
,185.500=0.126
,186.000=0.126
,186.500=0.063
,187.750=0.126
,188.250=0.063
,188.500=0.126
,189.000=0.126
,189.500=0.126
,190.000=0.126
,190.500=0.063
,191.750=0.126
,192.250=0.063
,192.500=0.126
,193.000=0.126
,193.500=0.126
,194.000=0.126
,194.500=0.126
,196.000=0.126
,197.000=0.126
,200.000=0.126
,201.000=0.126
,204.000=0.126
,205.000=0.126
,280.000=0.126
,281.000=0.126
,284.000=0.126
,285.000=0.126
,288.000=0.126
,289.000=0.126
;
#BGCHANGES:;
// cache tags:
#FIRSTBEAT:8.000;
#LASTBEAT:355.000;
#SONGFILENAME:Songs/Seph, Gson & Shpadoinkle's Pack of This 'n That/Move Your Feet (9)/Move Your Feet.sm;
#HASMUSIC:1;
#HASBANNER:1;
#MUSICLENGTH:105.000;
// end cache tags

//---------------dance-single - Shpadoinkle----------------
#NOTES:
     dance-single:
     Shpadoinkle:
     Challenge:
     9:
     1.000,1.000,0.400,1.000,1.000,679.000,42.000,161.000,0.000,4.000:




0000
0000
0000
0000
,
0000
0000
0000
0000
,
2200
3300
0220
0330
0022
0033
2002
3003
,
1000
0000
0100
0010
0001
1000
0000
0001
0000
0100
0000
0010
0000
1000
0100
0000
,
0010
0000
0001
1000
0010
0100
0000
0001
0000
0100
0000
0010
0000
1000
0001
0000
,
0010
0000
0100
1000
0010
0100
0000
0001
0000
0010
0000
0100
0000
1000
0010
0000
,
0100
0000
0001
1000
0100
0010
0000
0100
0000
1000
0000
0010
0000
0100
0010
0000
,
1000
0000
0001
0010
0100
1000
0000
0010
0000
0100
0000
0001
0000
0010
0001
0000
,
1000
0000
0010
0100
0001
0010
0000
0001
0000
1000
0000
0010
0000
0100
0001
0000
,
0010
0000
0100
1000
0001
1000
0000
0100
0000
0010
0000
0001
0000
1000
0001
1000
,
2020
3030
0001
0000
2002
3003
0010
0000
,
0220
0330
1000
0000
0202
0303
2000
3000
,
0002
0000
0000
0013
0200
0000
0000
1300
,
0020
1030
0001
0010
0200
0000
0000
1300
0000
0000
0000
0000
0002
0000
0003
0000
,
0020
0000
0000
0031
2000
0000
0000
3010
,
0200
0310
1000
0001
0200
0000
0000
0310
0000
0000
0000
0000
0200
0000
0300
0000
,
0002
0000
0003
0010
0200
0000
0000
1300
,
0002
0013
0100
1000
0200
0000
0000
1300
0000
0000
0000
0000
0002
0000
0003
0000
,
0020
0000
0000
0031
2000
0000
0000
3010
,
0200
0310
1000
0001
0020
0000
0000
0130
0000
0000
0000
0000
2000
0000
3000
0000
,
0001
0000
1000
0000
0001
0000
1000
0000
0001
0000
1000
0020
0030
1000
0000
0001
,
0000
1000
0000
0001
0010
0000
0100
0000
0010
0000
0100
0020
0030
0001
0000
1000
,
0000
0010
0000
1000
0010
0000
1000
0000
0001
0000
1000
0002
0003
1000
0010
0200
,
0000
0300
0010
0001
0010
1000
0100
0020
0030
0002
0003
0020
0030
0000
0100
0000
,
2200
3300
1000
0000
2002
3003
0001
0000
1000
0000
0010
0100
0000
0001
1000
0000
,
2020
3030
0010
0000
0220
0330
0100
0000
0001
0000
0010
0100
0000
1000
0010
0000
,
0220
0330
0100
0000
0202
0303
0001
0000
1000
0000
0010
0100
0000
0001
0100
0000
,
0020
0032
0203
2300
,
3001
0000
0010
0100
1000
0010
0000
0100
0000
0001
0000
0010
0000
0100
1000
0000
,
0010
0000
0100
1000
0100
0010
0000
0100
0000
0001
0000
1000
0000
0100
0010
0000
,
0001
0000
1000
0010
0100
0010
0000
1000
0000
0010
0000
0001
0000
0010
1000
0000
,
0100
0000
0010
0001
0010
0100
0000
1000
0000
0010
0000
0100
0000
0010
1000
0000
,
0001
0000
1000
0001
0010
0001
0000
1000
0000
0010
0000
0100
0000
0001
0010
0000
,
1000
0000
0010
0001
0010
0001
0000
0100
0000
0010
0000
1000
0000
0001
0100
0000
,
1000
0000
0100
0010
1000
0100
0000
0010
0000
0100
0000
0010
0000
0001
1000
0010
,
2020
3030
0100
0000
0202
0303
0010
0000
,
0220
0330
1000
0000
2002
3003
0020
0030
,
2000
0000
0000
3100
0020
0000
0000
0031
,
2000
3100
0010
0001
0200
0000
0000
0301
0000
0000
0000
0000
2000
0000
3000
0000
,
0020
0000
0000
0130
0002
0000
0000
0013
,
0200
1300
0100
0010
0002
0000
0000
1003
0000
0000
0000
0000
0002
0000
0003
0000
,
2000
0000
0000
3010
0200
0000
0000
0301
,
0020
0031
0100
0010
0200
0000
0000
0310
0000
0000
0000
0000
0200
0000
0300
0000
,
0020
0000
0000
1030
0020
0000
0000
1030
,
0200
1300
0001
0010
0002
0000
0000
1003
0000
0000
0000
0000
0200
0000
0300
0000
,
0010
0000
0001
0000
0010
0000
0001
0000
0010
0000
0001
0200
0300
0010
0000
1000
,
0000
0001
1000
0000
0001
0000
1000
0000
0001
0000
0010
0200
0300
1000
0000
0001
,
0000
0100
0001
0000
0100
0000
0001
0000
0100
0000
0010
2000
3000
0001
0000
0100
,
0000
0010
0100
0000
0010
0000
0100
0000
0002
0003
0100
0000
0020
0030
1000
0000
,
2002
3003
0001
0000
0202
0303
0100
0000
0001
0000
1000
0010
0000
1000
0001
0000
,
0022
0033
0010
0000
0220
0330
0100
0000
1000
0000
0001
0010
0000
0001
0100
0000
,
0202
0303
0001
0000
2002
3003
1000
0000
0010
0000
1000
0010
0000
0100
0002
0003
,
0200
2300
3020
0032
,
1003
0000
0100
0010
0100
1000
0000
0001
0000
0010
0000
0100
0000
0010
0001
0000
,
1000
0000
0010
0100
0010
1000
0000
0100
0000
0001
0000
0100
0000
0010
0001
0000
,
1000
0000
0010
0001
0010
0100
0000
0001
0000
0010
0000
0001
0000
1000
0010
0000
,
0100
0000
0001
0010
0100
1000
0000
0010
0000
0100
0000
0001
0000
0010
0100
0000
,
1000
0000
0100
0010
0001
0010
0000
0100
0000
1000
0000
0010
0000
0100
0010
0000
,
1000
0000
0001
1000
0001
0100
0000
0010
0000
0001
0000
0010
0000
1000
0100
0000
,
0010
0000
0001
0100
0001
0100
0000
0001
0000
0010
0000
0100
0000
1000
0010
0100
,
0202
0303
0001
0000
2002
3003
0100
0000
,
0220
0330
1000
0000
2020
3030
0002
0003
,
1000
0000
0000
0100
0000
0000
0010
0100
0000
1000
0010
0000
0100
0000
0001
0000
,
1000
0000
0000
0010
0000
0000
0100
0001
0020
0000
0000
0000
0230
0000
0000
0000
,
1300
0000
0000
0001
0000
0000
0010
0100
0000
1000
0100
0000
0010
0000
0001
0000
,
1000
0000
0000
0001
0000
0000
0010
0100
2000
0000
0000
0000
3200
0000
0000
0000
,
0310
0000
0000
0100
0000
0000
1000
0010
0000
0100
0001
0000
0010
0000
0100
0000
,
0010
0000
0000
0001
0000
0000
1000
0100
0020
0000
0000
0000
0032
0000
0000
0000
,
1003
0000
0000
0010
0000
0000
0100
0010
0000
0100
0010
0000
0001
0000
0010
0000
,
1000
0000
0000
0100
0000
0000
0010
0001
2000
0000
0000
0000
3020
0000
1030
0000
,
2002
3003
0001
0000
0202
0303
0100
0000
0010
0000
1000
0010
0000
0100
0001
0000
,
0022
0033
0010
0000
0220
0330
0100
0000
1000
0000
0001
0010
0000
0100
1000
0000
,
2020
3030
0010
0000
0220
0330
0100
0000
0001
0000
1000
0100
0000
0010
0002
0003
,
0020
2030
3200
0302
,
1003
0000
0001
0010
0001
0100
0000
0001
0000
0010
0000
0100
0000
0010
0001
0000
,
1000
0000
0010
0100
0010
1000
0000
0100
0000
0001
0000
0100
0000
1000
0010
0000
,
0100
0000
0001
0010
0100
1000
0000
0010
0000
0100
0000
0010
0000
1000
0100
0000
,
0010
0000
0001
1000
0100
0010
0000
0001
0000
1000
0000
0010
0000
0100
0010
0000
,
1000
0000
0001
0010
0001
1000
0000
0100
0000
0010
0000
0100
0000
1000
0010
0000
,
0100
0000
0001
0010
0001
1000
0000
0010
0000
0100
0000
1000
0000
0100
0010
0000
,
1000
0000
0100
0010
0100
1000
0000
0010
0000
0100
0000
0001
0000
0010
0100
0010
,
0001
0000
1000
0010
0100
0010
0000
1000
0000
0100
0000
0010
0000
0001
0100
0000
,
0001
0000
1000
0010
0100
0001
0000
0010
0000
0100
0000
1000
0000
0010
0100
0000
,
0001
0000
1000
0100
0010
0001
0000
0100
0000
0010
0000
0001
0000
0010
1000
0000
,
0100
0000
0010
0001
1000
0010
0000
0100
0000
0001
0000
0010
0000
0100
1000
0010
,
0220
0330
1000
0000
2020
3030
0001
0000
,
0220
0330
0100
0000
2002
3003
0010
0000
,
0220
1330
0022
0133
,
0220
0331
2002
3103
;
