#TITLE:Something Terrible;
#SUBTITLE:Gurumin;
#ARTIST:Falcom Sound Team JDK;
#TITLETRANSLIT:;
#SUBTITLETRANSLIT:;
#ARTISTTRANSLIT:;
#CREDIT:;
#BANNER:SomethingTerrible-banner.png;
#BACKGROUND:SomethingTerrible-bg.png;
#LYRICSPATH:;
#CDTITLE:cdtitle =).png;
#MUSIC:Something Terrible.mp3;
#OFFSET:0.106;
#SAMPLESTART:62.720;
#SAMPLELENGTH:11.620;
#SELECTABLE:YES;
#BPMS:0.000=170.000,30.000=85.000,32.000=170.000,40.000=85.000,44.000=170.000,52.000=85.000,56.000=170.001,96.000=85.001,100.000=170.001,108.000=85.001,112.000=170.001,190.500=85.001,191.000=170.001;
#STOPS:175.000=0.160
,206.000=0.160
;
#BGCHANGES:;
// cache tags:
#FIRSTBEAT:2.000;
#LASTBEAT:270.750;
#SONGFILENAME:Songs/KBU/Something Terrible (~Zero~)/A Little Terrible.sm;
#HASMUSIC:1;
#HASBANNER:1;
#MUSICLENGTH:105.513;
// end cache tags

//---------------dance-single - Copied from Copied f----------------
#NOTES:
     dance-single:
     Copied from Copied f:
     Challenge:
     10:
     1.000,1.000,1.000,0.133,0.602,591.000,289.000,14.000,0.000,1.000:
0000
0000
0000
0000
0011
0100
1000
0010
,
0100
0001
1000
0100
1000
0010
0100
0001
,
0100
0010
1000
0011
0011
1000
0010
0100
,
0001
0010
0100
1000
0100
0010
0010
0001
,
0001
1000
1000
0001
1001
0100
0010
0100
,
1000
0010
0100
0010
1000
0001
0100
0010
,
0010
0100
0100
1001
1001
0010
0100
0010
,
0001
0000
0000
0000
1000
0000
0000
0000
0010
0000
0000
0000
0100
0000
0000
0000
0010
0000
0100
0000
0001
0000
1000
0000
0100
0000
0010
0000
0100
1000
0001
0010
,
1100
1001
0100
0011
1001
0110
1000
1001
,
0011
1010
0100
0011
1001
0110
1000
0011
,
1001
0000
1010
0000
0100
0000
0011
0000
1001
0000
0110
0000
0001
0000
1100
0000
1001
0000
0101
0000
0010
0000
1001
0000
1010
0000
0011
0000
0100
0000
1000
0100
,
0011
0101
0010
1100
1001
0110
1000
0011
,
0101
1010
0001
0110
1001
1100
0010
1001
,
1100
0000
0011
0000
0100
0000
1001
0000
0110
0000
0101
0000
0010
0000
1100
0000
0011
0000
1001
0000
0100
0000
0011
0000
1001
0000
1100
0000
0001
0010
0100
1000
,
0011
0000
1001
0000
0110
1010
0000
0110
,
0000
0101
0011
0000
1001
1010
0000
0110
,
2002
3003
0000
0000
1010
0000
0000
0000
1100
0000
1001
0000
0000
0000
0101
0000
,
0000
0000
0110
0000
1001
0000
0000
0000
0110
0000
1010
0000
0001
0010
1001
0010
,
2002
3003
0000
0000
0110
0000
0000
0000
1100
0000
1010
0000
0000
0000
0110
0000
,
0000
0101
1001
0000
0110
1010
0000
1100
,
2002
3003
0000
0000
0101
0000
0000
0000
0011
0000
0101
0000
0000
0000
1010
0000
,
0000
0000
0110
0000
0101
0000
0000
0000
1010
0000
1001
0000
0011
0100
1010
0100
,
0011
1001
0100
0011
1001
1010
0100
1001
,
0101
1010
0010
1001
1010
0101
1000
0110
,
1010
0000
0101
0000
0010
0000
1100
0000
0011
0000
1001
0000
0100
0000
0011
0000
1001
0000
1010
0000
0100
0000
1001
0000
0110
0000
0101
0000
0010
0000
1000
0100
,
0011
1001
0100
0011
1001
1010
0100
1001
,
0101
0110
1000
0101
0011
1001
0100
1010
,
0110
0000
0011
0000
1000
0000
0110
0000
1001
0000
1010
0000
0100
0000
0011
0000
0110
0000
1100
0000
0010
0000
1001
0000
0101
0000
0110
0000
1000
0100
0010
0001
,
1100
0010
0001
0100
1010
0101
0010
1000
,
0100
0000
1001
0000
0010
0000
0100
0000
1001
1001
1001
0000
0010
0000
0100
0000
,
1010
0001
0100
0010
1100
1001
0100
0010
,
0100
0000
1001
0000
0010
0000
0100
0000
1010
1010
1010
1010
0100
0000
0011
1100
,
0011
1000
0001
0010
0101
1001
0100
0010
,
1000
0000
0011
0000
0100
0000
1000
0000
0011
0011
0011
0000
0100
0000
0010
0000
,
1001
0100
1000
0001
0110
1001
0010
0100
,
0010
0000
1100
0000
0001
0000
0010
0000
1001
1001
1001
1001
0100
0100
0100
0100
,
2002
0000
0000
0000
,
3003
0000
0000
0000
,
1200
1000
0001
1000
,
0301
0010
0100
0010
1001
1010
0110
1001
,
0101
1000
0000
0110
1000
0000
0011
0000
1001
0100
0000
0011
1000
0000
0011
0000
,
1010
0100
0000
0011
0100
0000
1001
0000
1010
0100
0000
1010
0001
0000
1001
0000
,
1010
0100
0000
0011
1000
0000
0101
0000
1010
0001
0000
0110
0001
0000
1100
0000
,
1001
0100
0000
0101
0010
0000
0110
0000
1001
0000
0010
0100
1001
0000
1010
0001
,
0000
0110
0001
0000
1100
0000
1001
0010
0000
1100
0001
0000
1100
0000
0101
0010
,
0000
1100
0010
0000
1001
0000
0101
0010
0000
0101
1000
0000
1001
0000
0101
0010
,
0000
1100
0001
0000
1010
0000
0101
1000
0000
0110
1000
0000
0011
0000
1001
0010
,
0000
0000
1010
0000
0100
0000
0000
0000
0110
0000
0000
0000
1001
0000
0000
0000
0000
0000
0000
0000
2001
0010
0100
3010
0101
0000
0010
0000
0000
0000
0110
0000
,
1000
0000
0011
0000
1001
0100
0000
0011
1000
0000
0011
0000
1010
0100
0000
0011
,
0100
0000
1001
0000
1010
0100
0000
1010
0001
0000
1001
0000
0011
1000
0000
0101
,
0010
0000
1100
0000
0011
0100
0000
1001
0100
0000
1010
0000
0110
1000
0000
0110
,
0001
0000
1001
0000
0110
0000
0001
0010
1100
0000
0110
0001
0000
1100
0001
0000
,
1010
0000
0011
0100
0000
1010
0001
0000
1010
0000
1001
0100
0000
1010
0100
0000
,
0011
0000
1001
0100
0000
1001
0010
0000
0011
0000
1001
0100
0000
1010
0001
0000
,
0110
0000
1001
0010
0000
1100
0010
0000
0101
0000
0011
0100
0000
1001
0010
0000
,
1100
0000
0000
0000
0020
0000
0000
0000
0000
0000
0230
0000
0000
0000
0000
0000
2300
0000
0100
3000
0012
0000
0000
0000
0000
0000
0000
0000
1103
0000
0000
0000
,
0010
0100
0001
1100
0010
1000
0100
0011
,
0100
0000
0001
0000
0010
0000
1100
0000
1000
0101
0010
0000
0100
0000
1001
0000
,
0010
0100
1000
0110
0001
0010
0001
1100
,
0010
1001
0100
0011
0000
0000
0011
0100
1000
0001
1100
0000
0010
0000
0001
0000
,
0100
0010
1000
0001
0010
0001
0100
0010
,
1000
0010
0100
0001
1100
1100
0001
0100
,
0010
1000
0100
0010
0001
0010
0100
0100
,
1000
1000
0001
0001
1000
1001
0010
0100
,
0010
0001
0100
0010
0100
0001
1000
0010
,
0100
0100
0010
0010
1001
1001
0100
0010
,
0100
1000
0001
0100
0010
0100
0100
0001
,
0001
0000
1000
0000
1000
0000
0110
0001
1010
0000
1001
0110
0000
0000
0000
0000
;
