#TITLE:Breakfast Club;
#SUBTITLE:;
#ARTIST:Z-Trip feat. Murs & Supernatural;
#TITLETRANSLIT:;
#SUBTITLETRANSLIT:;
#ARTISTTRANSLIT:;
#CREDIT:Arch0wl;
#BANNER:breakfastclub-bn.png;
#BACKGROUND:breakfastclub-bg.png;
#LYRICSPATH:;
#CDTITLE:!Arch0wlTitle.png;
#MUSIC:breakfastclub.ogg;
#OFFSET:-0.177;
#SAMPLESTART:53.544;
#SAMPLELENGTH:20.988;
#SELECTABLE:YES;
#BPMS:0.000=90.000;
#STOPS:;
#BGCHANGES:0.000=breakfastclub-bg.png=1.000=0=0=1,
99999=-nosongbg-=1.000=0=0=0 // don't automatically add -songbackground-
;
// cache tags:
#FIRSTBEAT:0.000;
#LASTBEAT:210.000;
#SONGFILENAME:Songs/Archmage and Dark0wl Hammer of Thor UltraHyperMegaPack/Breakfast Club/breakfastclub.sm;
#HASMUSIC:1;
#HASBANNER:1;
#MUSICLENGTH:105.000;
// end cache tags

//---------------dance-single - Arch0wl----------------
#NOTES:
     dance-single:
     Arch0wl:
     Hard:
     9:
     0.867,0.850,0.705,0.029,1.000,559.000,74.000,3.000,0.000,1.000:
1100
0000
1100
0000
1001
0000
0000
0010
0000
0010
0000
0010
1000
0100
0010
0000
,
0001
1000
0001
0010
0100
0000
0010
0100
0000
0000
0000
0000
0000
0000
0000
0000
,
0011
0000
0011
0000
1001
0000
0000
0100
0000
0000
0100
0000
0100
0010
1000
0000
,
0100
0010
0001
0100
1000
0000
0100
1000
0000
0000
0100
0000
0100
0000
0001
0010
,
0100
0000
0010
0100
1000
0000
1000
0000
1000
0010
0100
0000
0100
0000
0001
1000
,
0100
0000
1000
0001
0100
0000
0010
1000
0001
0000
0010
0001
1000
0010
0100
0000
,
0010
1000
0010
0000
0010
0000
0100
0001
0100
0000
0100
0001
0000
0000
0000
0000
,
0000
0000
0000
0100
0110
0110
0110
0000
1010
0000
1010
0100
0000
0000
0100
0001
,
0010
0010
0001
0000
0100
0000
0110
0000
0010
0010
1000
0000
0100
0010
0001
0001
,
0100
0000
0100
0001
1000
0000
1000
0001
0010
0000
0010
0001
0000
0000
0100
1000
,
0100
0000
0001
0000
0100
1000
1100
0000
0101
0000
0010
0101
0000
0000
0001
0000
,
0011
0011
1001
0000
1010
0000
1010
1010
0110
0000
0110
0110
0101
0000
0001
0000
,
0001
0000
1000
1000
0010
0100
0001
0000
0001
0001
1000
0100
0010
0001
1000
0000
,
0010
0010
0100
0100
0001
0001
1000
1000
0100
0100
0010
0010
0001
0001
1000
0100
,
0001
0100
1000
0000
1000
0010
0001
0010
1000
0100
0001
0100
1000
0010
0100
0000
,
0100
0000
0001
0001
0010
0010
0100
0100
1000
1000
0100
0100
0010
0010
0001
0001
,
1000
0000
0010
0100
0010
0001
0010
1000
0100
0010
0001
0000
0010
0001
0000
1000
,
0010
0010
0100
0001
0100
0010
0000
1000
0100
0001
0000
0100
0001
0000
0100
1000
,
0001
0001
0100
0000
0001
0001
0010
0100
1100
0000
1100
0000
0110
0000
0001
0000
,
0000
0000
1000
0000
1000
0000
0010
0000
0010
0000
0100
0010
0000
0100
0010
0000
,
1010
0000
1010
0000
0110
0000
0000
0001
0000
0001
0000
0001
1000
0100
0010
0000
,
0001
0100
0010
1000
0100
0000
1000
0010
0000
0000
0000
0000
0000
0000
0000
0000
,
0101
0000
0101
0000
0011
0000
0000
0100
0000
0100
1000
0000
1000
0100
0010
0000
,
0010
0001
0100
0010
1000
0000
0010
1000
0000
0000
0000
0000
0000
0000
0000
0000
,
0110
0000
0110
0000
0011
0000
0000
1000
0000
1000
0100
0000
0100
0010
0001
0000
,
0100
0010
1000
0100
0010
0000
0100
0010
0000
0000
0000
0000
0000
0000
0000
0000
,
1001
0000
1001
0000
1100
0000
0000
0010
0000
0000
0010
0000
0001
0100
0010
0000
,
1000
0010
0100
0001
0010
0000
0001
0010
0000
0000
0000
0000
0000
0000
0100
1000
,
0100
1000
1001
0000
0101
0000
0100
0010
1000
0000
1000
0010
0100
0001
0010
0000
,
0110
0000
1100
0000
1100
1000
0100
0010
0011
0000
0101
0000
1001
0001
0100
0100
,
0010
1000
0100
1000
0010
0000
0100
0001
0010
0001
0100
0001
0010
0100
1000
0100
,
1000
0010
0100
0001
0010
0000
0010
0001
1000
1000
0010
0100
0001
0000
1000
0010
,
1000
0100
1000
0000
0010
0100
0010
0001
0010
1000
0100
0000
1100
0000
0100
0010
,
0001
0000
0010
0001
0100
0100
0001
0010
0100
0010
0001
0000
1001
0000
1000
0010
,
0100
0001
1000
0000
0001
0100
0010
0000
1000
0010
0100
0100
0001
0001
1000
0100
,
0010
0000
0100
0010
0001
0000
0010
0001
0100
0000
0010
1000
0100
0000
1000
0000
,
1000
0010
0000
0010
0000
0100
0001
0010
0110
0100
1000
0100
0010
0000
0011
0000
,
1100
0000
1000
0010
0100
0001
0010
0100
1000
0000
1000
0100
0000
0100
0000
0010
,
0001
0010
0100
1000
0100
0000
1000
0000
0001
0100
0001
1000
0100
1000
0010
0100
,
0110
0000
0110
0000
0100
0001
0010
0001
0100
0010
1000
0000
1000
0100
0000
0100
,
0110
0000
0110
0000
0011
0000
0001
0010
0100
0000
0100
0010
0001
0000
1000
0100
,
0010
0001
1000
0000
0001
0100
0010
1000
0001
0000
0001
1000
0100
1000
0010
0000
,
0100
0000
0000
0100
0000
0000
0001
0000
0000
0001
0000
0000
1000
0000
0000
1000
0000
0000
0001
0000
0000
0010
0000
0000
0100
0000
0000
0010
0000
0000
0001
0000
0000
0100
0000
0000
0010
0000
0000
0000
1000
0000
0100
0000
0000
0100
0000
0000
,
0010
0010
0011
0000
1100
0000
0000
1000
0001
0001
0010
0100
0010
0001
0000
0000
,
1001
0000
1001
0000
1100
0000
0000
0010
0000
0010
0000
0010
0001
0100
0010
0000
,
0100
0001
0010
0100
1000
0000
0100
1000
0000
0000
0000
0000
0000
0000
0000
0000
,
0110
0000
0110
0000
0101
0000
0000
0010
0000
0000
0010
0000
0010
1000
0100
0000
,
1000
0000
0001
0100
0010
0000
0100
0010
0000
0000
0000
0000
0000
0000
0000
0000
,
0101
0000
0101
0000
0110
0000
0000
1000
0000
1000
0100
0000
0100
0010
0001
0000
,
0001
0100
0010
1000
0001
0000
1000
0001
0000
0000
0000
0000
0000
0000
0000
0000
,
0110
0000
0110
0000
1010
0000
0000
0100
0000
0100
0001
0000
0001
1000
0010
0000
,
0100
0001
0010
0100
1000
0000
0100
1000
0000
0100
1000
0010
0110
0000
2022
0000
,
0000
0000
3033
0000
;
