#TITLE:Secret Love;
#SUBTITLE:;
#ARTIST:Ian Van Dahl;
#TITLETRANSLIT:;
#SUBTITLETRANSLIT:;
#ARTISTTRANSLIT:;
#CREDIT:;
#BANNER:../BN.png;
#BACKGROUND:../BG.png;
#LYRICSPATH:;
#CDTITLE:../CDTitleBRAEDEN.png;
#MUSIC:Secret Love.ogg;
#OFFSET:0.380;
#SAMPLESTART:60.000;
#SAMPLELENGTH:11.200;
#SELECTABLE:YES;
#BPMS:0.000=142.010;
#STOPS:;
#BGCHANGES:;
// cache tags:
#FIRSTBEAT:4.250;
#LASTBEAT:243.000;
#SONGFILENAME:Songs/Index Gradation/Secret Love - [Braeden]/Secret Love.sm;
#HASMUSIC:1;
#HASBANNER:1;
#MUSICLENGTH:104.489;
// end cache tags

//---------------dance-single - Copied from----------------
#NOTES:
     dance-single:
     Copied from:
     Easy:
     2:
     0.178,0.202,0.010,0.239,0.038,104.000,1.000,25.000,0.000,0.000:
0000
0000
0000
0000
,
0000
0100
0000
0000
0000
1000
0000
0000
0000
0000
0000
0200
0000
0000
0000
0000
,
0000
0000
0000
0000
,
0300
1000
0000
0000
,
0100
0000
0000
0000
0100
0000
0000
0000
0000
0000
0000
2000
0000
0000
0000
0000
,
0000
0000
0000
0000
,
0000
0000
0000
0000
0000
3100
0000
0000
0000
0000
0000
0010
0000
0000
0000
0000
,
0000
0100
0000
0000
0000
1000
0000
0000
0000
0000
0002
0000
0000
0000
0000
0000
,
0000
0000
0000
0000
,
0000
1003
0000
0000
,
0010
0200
0000
0000
,
0000
0000
0000
0301
,
0001
0100
0000
0000
,
1000
1000
0000
0000
,
0000
0020
0000
0230
,
0000
1300
0000
0000
,
0100
0100
0000
0000
,
0000
0001
0000
0010
,
0000
0100
0000
0000
,
1000
1000
0000
0000
,
0100
0000
0010
0000
,
0001
0001
0000
0100
,
0000
2000
0000
0000
,
0000
0000
0000
3100
,
0100
0010
0000
0001
,
0000
0010
0100
1000
,
0000
0100
0100
0100
,
0000
0010
0000
0001
,
0000
0010
0001
1000
,
0000
0100
0010
0001
,
0000
0010
0000
0110
,
0000
0010
0001
1000
,
0000
0010
0100
1000
,
0000
0010
0000
0100
,
0000
2000
0000
0000
,
0000
0000
0000
0000
,
3001
0100
0000
0100
,
0000
0010
0000
0010
,
0000
0001
0010
0100
,
0000
2000
0000
3200
,
0000
0320
0000
0032
,
0000
1003
0010
0100
,
0000
0002
0000
0000
,
0000
2003
0000
0000
,
0000
3200
0000
0000
,
0000
0320
0000
0000
,
0000
0032
0000
0000
,
0000
0000
0000
0000
,
0000
0023
0000
0230
,
0000
2300
0000
3200
,
0000
0310
0010
0010
,
0000
1000
0000
0000
,
0100
0200
0000
0000
,
0000
0000
0000
0000
,
0000
0302
0000
0000
,
0013
0020
0000
0000
,
0000
0000
0000
0000
,
0000
0130
0000
0000
,
1000
2000
0000
0000
,
0000
0000
0000
0001
,
0001
3001
0000
0000
;

//---------------dance-single - Copied from----------------
#NOTES:
     dance-single:
     Copied from:
     Challenge:
     13:
     1.000,0.959,0.000,0.172,1.000,790.000,0.000,18.000,12.000,0.000:

0000
0000
0000
0000
,
0000
0200
0000
0000
0000
2300
0000
0000
0000
0000
0000
3200
0000
0000
0000
0000
,
0000
0000
M0MM
0000
,
0000
0000
2300
0000
0000
0020
3000
0000
,
0032
0000
0000
0000
0020
0000
0000
0000
0003
0000
0000
2030
0000
0000
0000
0000
,
0000
0000
0MMM
0000
,
0000
0000
0000
0000
0000
3200
0000
0000
0000
0000
0000
0302
0000
0000
0000
0000
,
0000
0203
0000
0000
0000
2300
0000
0000
0000
0000
3002
0000
0000
0000
0000
0000
,
0000
0000
MMM0
0000
,
0000
0000
1003
0100
2000
0000
0000
0000
0000
0000
3200
0000
0000
0000
0000
0000
,
0320
0230
0000
M0MM
,
0000
0000
0000
0000
0000
1300
0001
1000
,
0001
0000
0000
0000
1000
0001
0100
0010
1000
0001
0010
0100
1000
0001
0100
0010
,
1000
0100
0010
0001
0010
0100
1000
0001
0100
0010
0100
0001
0010
0100
1000
0001
,
0100
0010
1000
0100
0010
0001
0010
0100
1000
0001
0100
0010
0100
0001
0010
0100
,
1000
0001
0100
0010
1000
0001
0100
0010
1000
0100
0010
0001
0010
0100
1000
0001
,
0100
0010
0100
0001
0010
0100
1000
0001
0100
0010
0100
0001
0010
0100
1000
0001
,
0100
0010
1000
0100
0010
0100
1000
0001
0010
0100
1000
0001
0100
0010
1000
0100
,
0010
0001
0010
0100
1000
0001
0100
0010
1000
0100
0010
0001
0010
0100
1000
0001
,
0100
0010
1000
0001
0010
0100
1000
0001
0100
0010
1000
0100
0010
0001
0100
0010
,
1000
0001
0010
0100
1000
0001
0100
0010
1000
0100
0010
0001
0100
0010
1000
0001
,
0100
0010
1000
0001
1000
0100
0010
0001
0010
0100
1000
0001
0100
0010
1000
0001
,
0100
0010
1000
0100
0010
0100
1000
0001
0010
0100
1000
0001
0100
0010
0100
0001
,
0010
0100
1000
0001
0100
0010
0100
0001
0010
0100
1000
0001
0100
0010
0100
0001
,
0010
0001
0010
0000
0100
1000
0100
0010
0100
0010
0001
0010
0100
0010
0100
1000
,
0010
0100
0001
0100
0010
1000
0100
0010
0001
0010
0100
1000
0001
0100
0010
1000
,
0100
0010
0100
1000
0001
0010
0100
1000
0001
0100
0010
1000
0100
0010
0100
1000
,
0001
0100
0010
1000
0001
0100
0010
0100
0001
0010
0001
0010
0100
0010
0100
1000
,
0100
0010
0100
0010
0001
0100
0010
1000
0010
0100
0001
0010
0100
1000
0010
0100
,
0010
1000
0100
0010
0001
0100
0010
0100
0001
0010
0100
1000
0001
1000
0100
0010
,
0001
1000
0001
0010
0100
1000
0100
0010
0001
0010
0001
0100
0001
0100
0010
1000
,
0010
1000
0010
0100
0001
0100
0001
0010
0100
0010
0100
0010
0001
0100
0010
1000
,
0010
0100
0001
0010
0100
0010
0100
1000
0100
0010
0100
0010
0100
1000
0010
0100
,
0001
0100
0010
1000
0100
0010
0100
0010
0001
0010
0100
1000
0100
0010
0001
0100
,
0010
1000
0010
0100
0001
0010
0100
1000
0010
0100
0010
1000
0100
0010
0001
0100
,
0010
0100
0001
0010
0100
1000
0100
0010
0001
0010
0001
0010
0100
1000
0100
1000
,
0100
0010
0100
0000
0010
0001
0100
0010
1000
0001
0010
0100
1000
0001
0100
0010
,
1000
0100
0010
0001
0010
0100
1000
0001
0100
0010
1000
0100
0010
0001
0010
0100
,
1000
0001
1000
0001
0100
0010
1000
0001
0010
0100
1000
0001
0100
0010
1000
0100
,
0010
0001
0010
0001
0100
0010
0100
0001
0010
0100
1000
0001
0100
0010
1000
0100
,
0010
0001
0010
0001
1000
0010
0100
0001
0100
0010
1000
0100
0010
0100
1000
0001
,
0100
0010
0100
0010
1000
0100
0010
0001
0100
0010
1000
0001
0010
0100
1000
0001
,
0100
0010
0100
0010
1000
0100
0010
0100
1000
0001
0010
0100
1000
0001
0100
0010
,
1000
0100
0010
0100
1000
0001
0010
0100
1000
0001
0100
0010
1000
0001
0100
0010
,
1000
0100
0010
0001
0010
0100
1000
0001
0100
0010
0100
0001
0010
0100
1000
0001
,
0100
0010
1000
0001
0010
0100
1000
0001
0100
0010
1000
0100
0010
0100
1000
0001
,
0010
0100
1000
0001
0100
0010
1000
0001
0100
0010
0100
0001
0010
0100
1000
0001
,
0100
0010
1000
0100
0010
0100
1000
0001
0100
0010
0100
0010
1000
0010
0100
0010
,
1000
0100
0010
0100
1000
0010
1000
0001
0100
0010
1000
0100
0010
0100
1000
0001
,
0100
0010
1000
0001
0010
0100
1000
0001
0100
0010
0100
0001
1000
0010
0100
0010
,
1000
0100
0010
0100
1000
0100
0010
0100
1000
0001
0100
0010
0100
0001
0010
0100
,
0010
0001
0010
0100
1000
0010
0100
0001
0100
0010
1000
0001
0010
0001
1000
0010
,
0100
0001
1000
0100
1000
0001
0010
0100
1000
0001
0100
0010
1000
0001
0010
0001
,
1000
0100
1000
0001
0100
0010
1000
0001
0010
0100
1000
0001
0100
0010
1000
0100
,
0010
0001
0010
0100
1000
0001
0100
0010
1000
0100
0010
0100
0010
0001
0100
0010
,
1000
0001
1000
0001
0100
0010
1000
0100
0010
0100
1000
0001
0010
0100
0010
0100
,
1000
0001
0100
0010
1000
0100
0010
0001
0010
0100
1000
0001
0100
0010
1000
0100
,
0010
0001
0010
0100
1000
0001
0100
0010
1000
0100
0010
0001
0100
0010
1000
0001
,
0010
0100
1000
0001
0100
0010
1000
0001
0100
0010
1000
0001
0100
0010
1000
0100
,
0010
0100
1000
0001
0100
0010
1000
0010
0100
0001
0010
0100
1000
0001
0100
0001
,
1000
0100
0010
0001
2000
0000
0000
0000
0000
0000
0000
0000
3000
0000
0000
0000
;

//---------------dance-single - ----------------
#NOTES:
     dance-single:
     :
     Medium:
     7:
     0.388,0.378,0.010,0.584,0.062,222.000,1.000,61.000,12.000,0.000:
0000
0000
0000
0000
,
0000
0200
0000
0000
0000
2300
0000
0000
0000
0000
0000
3200
0000
0000
0000
0000
,
0000
0000
M0MM
0000
,
0000
0000
2300
0000
0000
0020
3000
0000
,
0032
0000
0000
0000
0020
0000
0000
0000
0003
0000
0000
2030
0000
0000
0000
0000
,
0000
0000
0MMM
0000
,
0000
0000
0000
0000
0000
3200
0000
0000
0000
0000
0000
0302
0000
0000
0000
0000
,
0000
0203
0000
0000
0000
2300
0000
0000
0000
0000
3002
0000
0000
0000
0000
0000
,
0000
0000
MMM0
0000
,
0000
0000
1003
0100
2000
0000
0000
0000
0000
0000
3200
0000
0000
0000
0000
0000
,
0320
0230
0000
M0MM
,
0000
0000
0000
0000
0000
1300
0001
1000
,
0001
0000
0200
0000
0000
0320
0000
0000
,
2030
0000
3020
0000
0000
0130
0001
0010
,
0100
1000
0100
0010
0001
0100
1000
0100
,
0010
0100
0002
0000
0000
0010
0000
0000
,
0100
0000
1000
0000
0000
0203
0000
0000
,
0020
0030
0002
0003
,
0010
0000
0320
0000
0000
0100
0000
0000
,
1000
0000
0100
0000
0000
2030
0000
0000
,
0200
0300
0020
0030
,
0001
0000
3010
0100
0020
0000
0000
0000
0000
0000
0230
0000
0000
0000
0000
0000
,
0320
0032
1000
0000
,
0100
0000
0000
0000
0013
0100
1000
0100
,
0010
0001
0010
0000
0002
0000
0000
0000
0000
0000
0010
0000
0000
0000
0000
0000
,
0100
0000
1000
0000
0000
0103
0000
0000
,
0010
0100
1000
0010
0100
0001
0100
0010
,
1000
0100
2000
0000
0000
0100
0000
0000
,
0010
0000
0001
0000
0000
3010
0000
0000
,
0100
1000
0100
0010
0100
0010
0001
0010
,
0100
0010
0200
0000
0000
0001
0000
0000
,
0010
0000
0001
0000
0000
0310
0000
0000
,
0001
0010
0100
1000
0100
0010
0001
0100
,
1000
0100
0002
0000
0000
0010
0000
0000
,
0100
2003
0000
0200
,
0300
0020
0030
0001
,
3010
0100
0010
0000
0200
0000
0000
0000
0000
0000
0010
0000
0000
0000
0000
0000
,
0001
0000
0010
0000
0000
0301
0000
0000
,
0010
0100
1000
0010
0100
0010
1000
0100
,
0010
0100
0020
0000
0000
0100
0000
0000
,
0001
0000
0100
0000
0000
0031
0000
0000
,
0010
0001
0100
0010
0100
0001
0010
0100
,
0020
0000
0100
0000
0000
0001
0000
0000
,
0100
0000
0001
0000
0000
0130
0000
0000
,
1000
0010
0001
0010
1000
0100
0001
0100
,
1000
0001
2000
0000
0000
0100
0000
0000
,
0010
3002
0010
0100
,
1000
0000
0100
0000
0013
0100
0010
0100
,
1000
0100
0020
0000
0000
0001
0000
0000
,
0100
0000
0001
0000
0000
0230
0000
0000
,
0020
0030
2000
3000
,
0010
0000
2300
0000
0000
0100
0000
0000
,
0010
0000
0001
0000
0000
3020
0000
0000
,
0002
0003
0200
0300
,
0001
0000
0230
0000
0000
0010
0000
0000
,
0001
0000
0010
0000
0000
0302
0000
0000
,
0020
0030
0200
0300
,
0000
0000
1003
0100
2000
0000
0000
0000
0000
0000
0100
0000
0000
0000
0000
0000
,
0010
3002
0010
0100
,
1000
0000
0100
0000
0000
0013
0100
0010
,
0100
2002
0000
3003
;

//---------------dance-single - ----------------
#NOTES:
     dance-single:
     :
     Hard:
     12:
     0.920,0.959,0.182,0.220,1.000,631.000,19.000,23.000,12.000,0.000:
0000
0000
0000
0000
,
0000
0200
0000
0000
0000
2300
0000
0000
0000
0000
0000
3200
0000
0000
0000
0000
,
0000
0000
M0MM
0000
,
0000
0000
2300
0000
0000
0020
3000
0000
,
0032
0000
0000
0000
0020
0000
0000
0000
0003
0000
0000
2030
0000
0000
0000
0000
,
0000
0000
0MMM
0000
,
0000
0000
0000
0000
0000
3200
0000
0000
0000
0000
0000
0302
0000
0000
0000
0000
,
0000
0203
0000
0000
0000
2300
0000
0000
0000
0000
3002
0000
0000
0000
0000
0000
,
0000
0000
MMM0
0000
,
0000
0000
1003
0100
2000
0000
0000
0000
0000
0000
3200
0000
0000
0000
0000
0000
,
0320
0230
0000
M0MM
,
0000
0000
0000
0000
0000
1300
0001
1000
,
0001
0000
0000
0000
0010
0000
0100
0010
0100
0010
0001
0010
0100
1000
0100
0010
,
0001
0100
0010
1000
0010
0100
0001
0010
0100
1000
0010
0100
0010
1000
0100
0010
,
0001
0100
0010
0100
0001
0010
0100
1000
0100
0010
0001
0010
0001
0100
0001
0100
,
0001
1000
0001
1000
0001
0100
0001
0100
0001
0010
0001
0010
0100
1000
0100
1000
,
0010
1000
0010
1000
0001
1000
0001
1000
0010
1000
0010
1000
0100
1000
0100
0010
,
0001
0010
0100
1000
0010
0100
0001
0100
0010
1000
0100
1000
0100
0010
0100
0010
,
0001
0010
0001
0010
0100
0010
0100
1000
0100
1000
0010
1000
0010
0100
0001
0100
,
0001
0100
0010
1000
0010
1000
0100
0010
0001
0100
0010
0100
0001
0010
0100
1000
,
0010
0100
0010
1000
0100
0010
0001
1000
0001
0010
0100
1000
0001
1000
0100
0010
,
0001
0000
0010
0100
0020
0000
0000
0000
0000
0000
0001
0000
0000
0000
0000
0000
,
0100
0032
0010
0100
,
1000
0000
0100
0000
0013
0100
0010
0100
,
0010
0001
0010
0000
0100
1000
0100
0010
0100
0010
0001
0010
0100
0010
0100
1000
,
0010
0100
0001
0100
0010
1000
0100
1000
0100
1000
0010
1000
0010
1000
0001
1000
,
0001
1000
0010
1000
0010
1000
0100
1000
0100
0010
0001
0010
0001
0100
0001
0100
,
0001
1000
0001
1000
0001
0100
0001
0100
0001
0010
0001
0010
0100
0010
0100
1000
,
0100
0010
0100
0010
0001
0100
0010
1000
0010
0100
0001
0010
0100
1000
0010
0100
,
0010
1000
0100
0010
0001
0100
0010
0100
0001
0010
0100
1000
0001
1000
0100
0010
,
0001
1000
0001
0010
0100
1000
0100
0010
0001
0010
0001
0100
0001
0100
0010
1000
,
0010
1000
0010
0100
0001
0100
0001
0010
0100
0010
0100
0010
0001
0100
0010
1000
,
0010
0100
0001
0010
0100
0010
0100
1000
0100
0010
0100
0010
0100
1000
0010
0100
,
0001
0100
0010
1000
0100
0010
0100
0010
0001
0010
0100
1000
0100
0010
0001
0100
,
0010
1000
0010
0100
0001
0010
0100
1000
0010
0100
0010
1000
0100
0010
0001
0100
,
0010
0100
0001
0010
0100
1000
0100
0010
0001
0010
0001
0010
0100
1000
0100
1000
,
0100
0010
0100
0000
0010
0001
0010
0001
0100
0001
0100
0001
1000
0001
1000
0001
,
0100
0001
0100
0001
0010
0001
0010
0100
1000
0100
1000
0010
1000
0010
1000
0001
,
1000
0001
1000
0010
1000
0010
1000
0100
1000
0100
0010
0001
0010
0100
1000
0010
,
0100
0001
0100
0010
1000
0100
0010
0001
0010
0100
1000
0010
0100
0010
1000
0100
,
0010
0001
0100
0010
0100
0001
0010
0100
1000
0001
1000
0100
0010
0001
1000
0001
,
0010
0100
1000
0010
1000
0001
0010
0001
1000
0100
1000
0001
0100
0001
1000
0100
,
0010
0001
0010
0100
2000
0000
0000
0000
0000
0000
0100
0000
0000
0000
0000
0000
,
0010
0000
0001
0000
0000
3010
0000
0000
,
0100
1000
0100
1000
0010
1000
0010
1000
0001
1000
0001
1000
0010
1000
0010
1000
,
0100
1000
0200
0000
0000
0010
0000
0000
,
0001
0000
0000
0000
0310
0001
0010
0001
0100
0001
0100
0001
1000
0001
1000
0001
,
0100
0001
0100
0001
0010
0001
0010
0100
0010
0100
1000
0100
0010
0100
0010
0001
,
0010
0100
1000
0100
1100
0000
0010
0000
0001
0000
0011
0000
0010
0000
0100
0000
,
0110
1000
1001
0001
0010
0011
0001
0100
,
1000
0100
0001
0010
1000
0010
0001
1000
,
0001
0010
0011
0001
1000
1001
0100
0010
,
0110
0100
1100
1000
0001
1001
0010
0100
,
0010
0001
0100
0010
1000
0010
0100
0001
,
0010
0100
0110
0010
0001
0011
0001
1000
,
1001
0010
0110
0100
1000
1100
0010
0001
,
0010
0001
0010
0100
0010
0100
1000
0100
,
0010
0000
0100
0010
0001
0000
0010
0000
0100
0000
0110
0000
0100
0000
1000
0000
,
1100
0100
0110
0010
0001
0010
0100
0010
,
0100
0000
1000
0000
0100
0010
0100
0010
0001
0100
0010
1000
0010
0100
0001
0010
,
0100
0010
0100
1000
2200
0000
0000
0000
0000
0000
0000
0000
3300
0000
0000
0000
;
