#TITLE:Cheeseburger;
#SUBTITLE:;
#ARTIST:Sanxion7;
#TITLETRANSLIT:;
#SUBTITLETRANSLIT:;
#ARTISTTRANSLIT:;
#CREDIT:J. DeGarmo;
#BANNER:Cheeseburger-banner.png;
#BACKGROUND:Cheeseburger-bg.png;
#LYRICSPATH:;
#CDTITLE:;
#MUSIC:music.ogg;
#OFFSET:0.020;
#SAMPLESTART:6.987;
#SAMPLELENGTH:14.015;
#SELECTABLE:YES;
#BPMS:0.000=137.000;
#STOPS:;
#BGCHANGES:;
// cache tags:
#FIRSTBEAT:12.000;
#LASTBEAT:248.000;
#SONGFILENAME:Songs/lvsb tourney pack/cheese/Cheeseburger.sm;
#HASMUSIC:1;
#HASBANNER:0;
#MUSICLENGTH:105.000;
// end cache tags

//---------------dance-single - J. DeGarmo----------------
#NOTES:
     dance-single:
     J. DeGarmo:
     Challenge:
     10:
     0.629,0.709,0.114,0.429,0.676,404.000,12.000,45.000,47.000,4.000:
0000
0000
0000
0000
,
0000
0000
0000
0000
,
0000
0000
0000
0000
,
1001
2002
0000
0100
,
3L13
0000
0000
0000
0000
0000
0000
0000
0000
0000
0000
0000
0000
0000
0000
0000
0000
0000
0000
0000
0000
0000
0000
0000
0000
0000
0000
0000
0000
0000
0000
0000
0000
0000
0000
0000
0000
0000
0000
0000
0000
0000
0000
0000
0000
0000
0000
0000
1000
0000
0000
0000
0000
0000
0000
0000
0000
0000
0000
0000
0000
0000
0000
0000
0000
0000
0000
0000
0000
0000
0000
0000
0001
0000
0000
0000
0000
0000
0000
0000
0000
0000
0000
0000
0100
0000
0000
0000
0000
0000
0000
0000
0000
0000
0000
0000
0000
0000
0000
0000
0000
0000
0000
0000
0000
0000
0000
0000
0000
0000
0010
0000
0000
0000
0000
0000
0000
0000
0000
0000
1000
0000
0000
0000
0000
0000
0000
0000
0000
0000
0000
0000
0000
0000
0000
0000
0000
0000
0000
0000
0000
0000
0000
0000
0100
0000
0000
0000
0000
0000
0000
0000
0000
0000
0000
0000
0000
0000
0000
0000
0000
0000
0000
0000
0000
0000
0000
0000
1000
0000
0000
0000
0000
0000
0000
0000
0000
0000
0000
0000
0001
0000
0000
0000
0000
0000
0000
0000
0000
0000
0000
0000
,
0000
0000
0000
0000
0000
0000
0000
0000
0000
0000
0000
0000
0000
0000
0100
0000
0000
0000
0000
0000
0000
0000
0000
0000
0010
0000
0000
0000
0000
0000
0000
0000
0000
0000
0000
0000
0000
0000
0000
0000
0000
0000
0000
0000
0000
0000
0000
0000
1000
0000
0000
0000
0000
0000
0000
0000
0000
0000
0000
0000
0000
0000
0000
0000
0000
0000
0000
0000
0000
0000
0000
0000
0100
0000
0000
0000
0000
0000
0000
0000
0000
0000
0000
0000
0010
0000
0000
0000
0000
0000
0000
0000
0000
0000
0000
0000
0000
0000
0000
0000
0000
0000
0000
0000
0000
0000
0000
0000
0000
0000
0100
0000
0000
0000
0000
0000
0000
0000
0000
0000
1000
0000
0000
0000
0000
0000
0000
0000
0000
0000
0000
0000
0000
0000
0000
0000
0000
0000
0000
0000
0000
0000
0000
0000
0010
0000
0000
0000
0000
0000
0000
0000
0000
0000
0000
0000
0000
0000
0000
0000
0000
0000
0000
0000
0000
0000
0000
0000
0100
0000
0000
0000
0000
0000
0000
0000
0000
0000
0000
0000
0000
0000
0001
0000
0000
0000
0000
0000
0000
0000
0000
0000
,
1000
0000
0000
0000
0000
0000
0000
0000
0000
0000
0000
0000
0000
0000
0000
0000
0000
0000
0000
0000
0000
0000
0000
0000
1000
0000
0000
0000
0000
0000
0000
0000
0000
0000
0000
0000
0000
0000
0000
0000
0000
0000
0000
0000
0000
0000
0000
0000
1000
0000
0000
0000
0000
0000
0000
0000
0000
0000
0000
0000
0000
0000
0000
0000
0000
0000
0000
0000
0000
0000
0000
0000
0010
0000
0000
0000
0000
0000
0000
0000
0000
0000
0000
0000
0100
0000
0000
0000
0000
0000
0000
0000
0000
0000
0000
0000
0000
0000
0000
0000
0000
0000
0000
0000
0000
0000
0000
0000
0000
0000
0001
0000
0000
0000
0000
0000
0000
0000
0000
0000
0010
0000
0000
0000
0000
0000
0000
0000
0000
0000
0000
0000
0000
0000
0000
0000
0000
0000
0000
0000
0000
0000
0000
0000
0100
0000
0000
0000
0000
0000
0000
0000
0000
0000
0000
0000
0000
0000
0000
0000
0000
0000
0000
0000
0000
0000
0000
0000
1000
0000
0000
0000
0000
0000
0000
0000
0000
0000
0000
0000
0100
0000
0000
0000
0000
0000
0000
0000
0000
0000
0000
0000
,
0000
0000
0000
0000
0000
0000
0000
0000
0000
0000
0000
0000
0000
0000
0001
0000
0000
0000
0000
0000
0000
0000
0000
0000
0100
0000
0000
0000
0000
0000
0000
0000
0000
0000
0000
0000
0000
0000
0000
0000
0000
0000
0000
0000
0000
0000
0000
0000
0010
0000
0000
0000
0000
0000
0000
0000
0000
0000
0000
0000
0000
0000
0000
0000
0000
0000
0000
0000
0000
0000
0000
0000
0001
0000
0000
0000
0000
0000
0000
0000
0000
0000
0000
0000
0100
0000
0000
0000
0000
0000
0000
0000
0000
0000
0000
0000
0000
0000
0000
0000
0000
0000
0000
0000
0000
0000
0000
0000
0000
0000
1000
0000
0000
0000
0000
0000
0000
0000
0000
0000
0100
0000
0000
0000
0000
0000
0000
0000
0000
0000
0000
0000
0000
0000
0000
0000
0000
0000
0000
0000
0000
0000
0000
0000
0010
0000
0000
0000
0000
0000
0000
0000
0000
0000
0000
0000
0000
0000
0000
0000
0000
0000
0000
0000
0000
0000
0000
0000
1000
0000
0000
0000
0000
0000
0000
0000
0000
0000
0000
0000
0000
0000
0100
0000
0000
0000
0000
0000
0000
0000
0000
0000
,
0010
0000
0000
0000
0000
0000
0000
0000
0000
0000
0000
0000
0000
0000
0000
0000
0000
0000
0000
0000
0000
0000
0000
0000
0010
0000
0000
0000
0000
0000
0000
0000
0000
0000
0000
0000
0000
0000
0000
0000
0000
0000
0000
0000
0000
0000
0000
0000
0010
0000
0000
0000
0000
0000
0000
0000
0000
0000
0000
0000
0000
0000
0000
0000
0000
0000
0000
0000
0000
0000
0000
0000
0001
0000
0000
0000
0000
0000
0000
0000
0000
0000
0000
0000
0100
0000
0000
0000
0000
0000
0000
0000
0000
0000
0000
0000
0000
0000
0000
0000
0000
0000
0000
0000
0000
0000
0000
0000
0000
0000
0100
0000
0000
0000
0000
0000
0000
0000
0000
0000
0010
0000
0000
0000
0000
0000
0000
0000
0000
0000
0000
0000
0000
0000
0000
0000
0000
0000
0000
0000
0000
0000
0000
0000
1000
0000
0000
0000
0000
0000
0000
0000
0000
0000
0000
0000
0000
0000
0000
0000
0000
0000
0000
0000
0000
0000
0000
0000
0001
0000
0000
0000
0000
0000
0000
0000
0000
0000
0000
0000
0100
0000
0000
0000
0000
0000
0000
0000
0000
0000
0000
0000
,
0000
0000
0000
0000
0000
0000
0000
0000
0000
0000
0000
0000
0000
0000
0100
0000
0000
0000
0000
0000
0000
0000
0000
0000
0010
0000
0000
0000
0000
0000
0000
0000
0000
0000
0000
0000
0000
0000
0000
0000
0000
0000
0000
0000
0000
0000
0000
0000
1000
0000
0000
0000
0000
0000
0000
0000
0000
0000
0000
0000
0000
0000
0000
0000
0000
0000
0000
0000
0000
0000
0000
0000
0100
0000
0000
0000
0000
0000
0000
0000
0000
0000
0000
0000
0001
0000
0000
0000
0000
0000
0000
0000
0000
0000
0000
0000
0000
0000
0000
0000
0000
0000
0000
0000
0000
0000
0000
0000
0000
0000
0100
0000
0000
0000
0000
0000
0000
0000
0000
0000
0010
0000
0000
0000
0000
0000
0000
0000
0000
0000
0000
0000
0000
0000
0000
0000
0000
0000
0000
0000
0000
0000
0000
0000
0001
0000
0000
0000
0000
0000
0000
0000
0000
0000
0000
0000
0000
0000
0000
0000
0000
0000
0000
0000
0000
0000
0000
0000
1000
0000
0000
0000
0000
0000
0000
0000
0000
0000
0000
0000
0000
0000
0010
0000
0000
0000
0000
0000
0000
0000
0000
0000
,
0100
0000
0000
0000
0000
0000
0000
0000
0000
0000
0000
0000
0000
0000
0000
0000
0000
0000
0000
0000
0000
0000
0000
0000
0100
0000
0000
0000
0000
0000
0000
0000
0000
0000
0000
0000
0000
0000
0000
0000
0000
0000
0000
0000
0000
0000
0000
0000
0100
0000
0000
0000
0000
0000
0000
0000
0000
0000
0000
0000
0000
0000
0000
0000
0000
0000
0000
0000
0000
0000
0000
0000
0001
0000
0000
0000
0000
0000
0000
0000
0000
0000
0000
0000
1000
0000
0000
0000
0000
0000
0000
0000
0000
0000
0000
0000
0000
0000
0000
0000
0000
0000
0000
0000
0000
0000
0000
0000
0000
0000
0100
0000
0000
0000
0000
0000
0000
0000
0000
0000
0010
0000
0000
0000
0000
0000
0000
0000
0000
0000
0000
0000
0000
0000
0000
0000
0000
0000
0000
0000
0000
0000
0000
0000
0010
0000
0000
0000
0000
0000
0000
0000
0000
0000
0000
0000
0000
0000
0000
0000
0000
0000
0000
0000
0000
0000
0000
0000
0001
0000
0000
0000
0000
0000
0000
0000
0000
0000
0000
0000
0100
0000
0000
0000
0000
0000
0000
0000
0000
0000
0000
0000
,
0000
0000
0000
0000
0000
0000
0000
0000
0000
0000
0000
0000
0000
0000
1000
0000
0000
0000
0000
0000
0000
0000
0000
0000
0100
0000
0000
0000
0000
0000
0000
0000
0000
0000
0000
0000
0000
0000
0000
0000
0000
0000
0000
0000
0000
0000
0000
0000
0010
0000
0000
0000
0000
0000
0000
0000
0000
0000
0000
0000
0000
0000
0000
0000
0000
0000
0000
0000
0000
0000
0000
0000
0010
0000
0000
0000
0000
0000
0000
0000
0000
0000
0000
0000
1000
0000
0000
0000
0000
0000
0000
0000
0000
0000
0000
0000
0000
0000
0000
0000
0000
0000
0000
0000
0000
0000
0000
0000
0000
0000
0100
0000
0000
0000
0000
0000
0000
0000
0000
0000
0001
0000
0000
0000
0000
0000
0000
0000
0000
0000
0000
0000
0000
0000
0000
0000
0000
0000
0000
0000
0000
0000
0000
0000
0001
0000
0000
0000
0000
0000
0000
0000
0000
0000
0000
0000
0000
0000
0000
0000
0000
0000
0000
0000
0000
0000
0000
0000
0100
0000
0000
0000
0000
0000
0000
0000
0000
0000
0000
0000
0000
0000
1000
0000
0000
0000
0000
0000
0000
0000
0000
0000
,
0001
0000
0100
0000
0010
0000
00L0
0000
0000
0000
0000
00M0
0000
M000
0000
000M
,
0000
0000
0M00
0000
0000
00M0
M000
0000
0000
000M
0000
0000
1000
0000
0010
0000
,
0001
0000
0010
0000
1000
0000
L000
000M
0000
0000
0M00
0000
00M0
0000
M000
0000
,
0001
0000
0100
0000
0001
0000
000L
M000
0000
0000
00M0
0M00
0000
000M
0000
0000
,
1000
0000
0010
0000
0100
0000
0L00
0000
0000
0000
0000
0M00
0000
000M
0000
M000
,
0000
0000
00M0
0000
0000
0M00
000M
0000
0000
M000
0000
0000
0001
0000
0100
0000
,
1000
0000
0100
0000
0001
0000
000L
M000
0000
0000
00M0
0000
0M00
0000
000M
0000
,
1000
0000
0010
0000
1000
0000
L000
000M
0000
0000
0M01
00M0
0001
M000
0000
0000
,
1000
0000
L010
0100
0000
0L01
1000
0000
,
L100
0010
0000
01L0
1000
0010
0000
01L0
,
0001
0010
0100
0001
0000
010L
1000
0010
,
0100
1000
0100
0010
0000
00L1
0010
0100
,
0001
0000
010L
0010
0000
10L0
0001
0000
,
001L
0100
0000
0L10
0001
0100
0000
0L10
,
1000
0100
0010
1000
0000
L010
0001
0100
,
0010
0001
0010
0100
0000
1L00
0110
0000
,
0001
0000
0000
0000
0000
0000
0000
0000
0000
0000
0000
0000
0000
0000
1000
0000
0000
0000
0000
0000
0000
0000
0000
0000
0001
0000
0000
0000
0000
0000
0000
0000
0000
0000
0000
0000
0000
0000
0010
0000
0000
0000
0000
0000
0000
0000
0000
0000
0000
0000
0000
0000
0000
0000
0000
0000
0000
0000
0000
0000
0000
0000
0010
0000
0000
0000
0000
0000
0000
0000
0000
0000
0001
0000
0000
0000
0000
0000
0000
0000
0000
0000
0000
0000
0000
0000
0000
0000
0000
0000
0000
0000
0000
0000
0000
0000
0100
0000
0000
0000
0000
0000
0000
0000
0000
0000
0000
0000
0000
0000
0000
0000
0000
0000
0000
0000
0000
0000
0000
0000
0020
0000
0000
0000
0000
0000
0000
0000
0000
0000
0000
0000
0000
0000
0000
0000
0000
0000
0000
0000
0000
0000
0000
0000
0000
0000
0000
0000
0000
0000
0000
0000
0000
0000
0000
0000
0000
0000
0000
0000
0000
0000
0000
0000
0000
0000
0000
0000
1030
0000
0000
0000
0000
0000
0000
0000
0000
0000
0000
0000
0000
0000
0100
0000
0000
0000
0000
0000
0000
0000
0000
0000
,
0000
0000
0000
0000
0000
0000
0000
0000
0000
0000
0000
0000
0000
0000
1000
0000
0000
0000
0000
0000
0000
0000
0000
0000
0010
0000
0000
0000
0000
0000
0000
0000
0000
0000
0000
0000
0000
0000
0100
0000
0000
0000
0000
0000
0000
0000
0000
0000
0000
0000
0000
0000
0000
0000
0000
0000
0000
0000
0000
0000
0000
0000
0001
0000
0000
0000
0000
0000
0000
0000
0000
0000
1000
0000
0000
0000
0000
0000
0000
0000
0000
0000
0000
0000
0000
0000
0000
0000
0000
0000
0000
0000
0000
0000
0000
0000
0010
0000
0000
0000
0000
0000
0000
0000
0000
0000
0000
0000
0000
0000
0000
0000
0000
0000
0000
0000
0000
0000
0000
0000
0020
0000
0000
0000
0000
0000
0000
0000
0000
0000
0000
0000
0000
0000
0000
0000
0000
0000
0000
0000
0000
0000
0000
0000
0000
0000
0000
0000
0000
0000
0000
0000
0000
0000
0000
0000
0000
0000
0000
0000
0000
0000
0000
0000
0000
0000
0000
0000
0130
0000
0000
0000
0000
0000
0000
0000
0000
0000
0000
0000
0000
0001
0000
0000
0000
0000
0000
0000
0000
0000
0000
0000
,
0000
0000
0000
0000
0000
0000
0000
0000
0000
0000
0000
0000
0000
0000
1000
0000
0000
0000
0000
0000
0000
0000
0000
0000
0010
0000
0000
0000
0000
0000
0000
0000
0000
0000
0000
0000
0000
0000
0100
0000
0000
0000
0000
0000
0000
0000
0000
0000
0000
0000
0000
0000
0000
0000
0000
0000
0000
0000
0000
0000
0000
0000
0100
0000
0000
0000
0000
0000
0000
0000
0000
0000
0001
0000
0000
0000
0000
0000
0000
0000
0000
0000
0000
0000
0000
0000
0000
0000
0000
0000
0000
0000
0000
0000
0000
0000
1000
0000
0000
0000
0000
0000
0000
0000
0000
0000
0000
0000
0000
0000
0000
0000
0000
0000
0000
0000
0000
0000
0000
0000
0100
0000
0000
0000
0000
0000
0000
0000
0000
0000
0000
0000
0000
0000
0000
0000
0000
0000
0000
0000
0000
0000
0000
0000
0001
0000
0000
0000
0000
0000
0000
0000
0000
0000
0000
0000
0000
0000
0000
0000
0000
0000
0000
0000
0000
0000
0000
0000
0100
0000
0000
0000
0000
0000
0000
0000
0000
0000
0000
0000
0000
0000
1000
0000
0000
0000
0000
0000
0000
0000
0000
0000
,
0010
0000
0000
0000
0000
0000
0000
0000
0000
0000
0000
0000
0000
0000
0100
0000
0000
0000
0000
0000
0000
0000
0000
0000
0001
0000
0000
0000
0000
0000
0000
0000
0000
0000
0000
0000
0000
0000
0010
0000
0000
0000
0000
0000
0000
0000
0000
0000
0000
0000
0000
0000
0000
0000
0000
0000
0000
0000
0000
0000
0000
0000
0010
0000
0000
0000
0000
0000
0000
0000
0000
0000
0100
0000
0000
0000
0000
0000
0000
0000
0000
0000
0000
0000
0000
0000
0000
0000
0000
0000
0000
0000
0000
0000
0000
0000
1000
0000
0000
0000
0000
0000
0000
0000
0000
0000
0000
0000
0000
0000
0000
0000
0000
0000
0000
0000
0000
0000
0000
0000
0010
0000
0000
0000
0000
0000
0000
0000
0000
0000
0000
0000
0000
0000
0000
0000
0000
0000
0000
0000
0000
0000
0000
0000
0001
0000
0000
0000
0000
0000
0000
0000
0000
0000
0000
0000
0000
0000
0000
0000
0000
0000
0000
0000
0000
0000
0000
0000
0010
0000
0000
0000
0000
0000
0000
0000
0000
0000
0000
0000
0000
0000
1000
0000
0000
0000
0000
0000
0000
0000
0000
0000
,
0001
0000
0000
0000
0000
0000
0000
0000
0000
0000
0000
0000
0000
0000
0100
0000
0000
0000
0000
0000
0000
0000
0000
0000
0010
0000
0000
0000
0000
0000
0000
0000
0000
0000
0000
0000
0000
0000
1000
0000
0000
0000
0000
0000
0000
0000
0000
0000
0000
0000
0000
0000
0000
0000
0000
0000
0000
0000
0000
0000
0000
0000
1000
0000
0000
0000
0000
0000
0000
0000
0000
0000
0001
0000
0000
0000
0000
0000
0000
0000
0000
0000
0000
0000
0000
0000
0000
0000
0000
0000
0000
0000
0000
0000
0000
0000
0100
0000
0000
0000
0000
0000
0000
0000
0000
0000
0000
0000
0000
0000
0000
0000
0000
0000
0000
0000
0000
0000
0000
0000
0002
0000
0000
0000
0000
0000
0000
0000
0000
0000
0000
0000
0000
0000
0000
0000
0000
0000
0000
0000
0000
0000
0000
0000
0000
0000
0000
0000
0000
0000
0000
0000
0000
0000
0000
0000
0000
0000
0000
0000
0000
0000
0000
0000
0000
0000
0000
0000
1003
0000
0000
0000
0000
0000
0000
0000
0000
0000
0000
0000
0000
0000
0100
0000
0000
0000
0000
0000
0000
0000
0000
0000
,
0010
0000
0000
0000
0000
0000
0000
0000
0000
0000
0000
0000
0000
0000
0100
0000
0000
0000
0000
0000
0000
0000
0000
0000
1000
0000
0000
0000
0000
0000
0000
0000
0000
0000
0000
0000
0000
0000
0001
0000
0000
0000
0000
0000
0000
0000
0000
0000
0000
0000
0000
0000
0000
0000
0000
0000
0000
0000
0000
0000
0000
0000
0001
0000
0000
0000
0000
0000
0000
0000
0000
0000
0010
0000
0000
0000
0000
0000
0000
0000
0000
0000
0000
0000
0000
0000
0000
0000
0000
0000
0000
0000
0000
0000
0000
0000
0100
0000
0000
0000
0000
0000
0000
0000
0000
0000
0000
0000
0000
0000
0000
0000
0000
0000
0000
0000
0000
0000
0000
0000
2000
0000
0000
0000
0000
0000
0000
0000
0000
0000
0000
0000
0000
0000
0000
0000
0000
0000
0000
0000
0000
0000
0000
0000
0000
0000
0000
0000
0000
0000
0000
0000
0000
0000
0000
0000
0000
0000
0000
0000
0000
0000
0000
0000
0000
0000
0000
0000
3001
0000
0000
0000
0000
0000
0000
0000
0000
0000
0000
0000
0000
0000
1000
0000
0000
0000
0000
0000
0000
0000
0000
0000
,
0000
0000
0000
0000
0000
0000
0000
0000
0000
0000
0000
0000
0000
0000
0010
0000
0000
0000
0000
0000
0000
0000
0000
0000
0100
0000
0000
0000
0000
0000
0000
0000
0000
0000
0000
0000
0000
0000
0001
0000
0000
0000
0000
0000
0000
0000
0000
0000
0000
0000
0000
0000
0000
0000
0000
0000
0000
0000
0000
0000
0000
0000
0001
0000
0000
0000
0000
0000
0000
0000
0000
0000
0100
0000
0000
0000
0000
0000
0000
0000
0000
0000
0000
0000
0000
0000
0000
0000
0000
0000
0000
0000
0000
0000
0000
0000
0010
0000
0000
0000
0000
0000
0000
0000
0000
0000
0000
0000
0000
0000
0000
0000
0000
0000
0000
0000
0000
0000
0000
0000
1000
0000
0000
0000
0000
0000
0000
0000
0000
0000
0000
0000
0000
0000
0000
0000
0000
0000
0000
0000
0000
0000
0000
0000
0100
0000
0000
0000
0000
0000
0000
0000
0000
0000
0000
0000
0000
0000
0000
0000
0000
0000
0000
0000
0000
0000
0000
0000
0001
0000
0000
0000
0000
0000
0000
0000
0000
0000
0000
0000
0000
0000
0100
0000
0000
0000
0000
0000
0000
0000
0000
0000
,
0010
0000
0000
0000
0000
0000
0000
0000
0000
0000
0000
0000
0000
0000
0001
0000
0000
0000
0000
0000
0000
0000
0000
0000
1000
0000
0000
0000
0000
0000
0000
0000
0000
0000
0000
0000
0000
0000
0100
0000
0000
0000
0000
0000
0000
0000
0000
0000
0000
0000
0000
0000
0000
0000
0000
0000
0000
0000
0000
0000
0000
0000
1000
0000
0000
0000
0000
0000
0000
0000
0000
0000
0010
0000
0000
0000
0000
0000
0000
0000
0000
0000
0000
0000
0000
0000
0000
0000
0000
0000
0000
0000
0000
0000
0000
0000
0100
0000
0000
0000
0000
0000
0000
0000
0000
0000
0000
0000
0000
0000
0000
0000
0000
0000
0000
0000
0000
0000
0000
0000
0001
0000
0000
0000
0000
0000
0000
0000
0000
0000
0000
0000
0000
0000
0000
0000
0000
0000
0000
0000
0000
0000
0000
0000
1000
0000
0000
0000
0000
0000
0000
0000
0000
0000
0000
0000
0000
0000
0100
0000
0000
0000
0000
0000
0000
0000
0000
0000
0010
0000
0000
0000
0000
0000
0000
0000
0000
0000
0000
0000
0000
0000
0001
0000
0000
0000
0000
0000
0000
0000
0000
0000
,
1000
0000
0000
0000
0000
0000
0000
0000
0000
0000
0000
0000
0000
0000
0001
0000
0000
0000
0000
0000
0000
0000
0000
0000
1000
0000
0000
0000
0000
0000
0000
0000
0000
0000
0000
0000
0000
0000
0100
0000
0000
0000
0000
0000
0000
0000
0000
0000
0000
0000
0000
0000
0000
0000
0000
0000
0000
0000
0000
0000
0000
0000
0100
0000
0000
0000
0000
0000
0000
0000
0000
0000
1000
0000
0000
0000
0000
0000
0000
0000
0000
0000
0000
0000
0000
0000
0000
0000
0000
0000
0000
0000
0000
0000
0000
0000
0010
0000
0000
0000
0000
0000
0000
0000
0000
0000
0000
0000
0000
0000
0000
0000
0000
0000
0000
0000
0000
0000
0000
0000
0200
0000
0000
0000
0000
0000
0000
0000
0000
0000
0000
0000
0000
0000
0000
0000
0000
0000
0000
0000
0000
0000
0000
0000
0000
0000
0000
0000
0000
0000
0000
0000
0000
0000
0000
0000
0000
0000
0000
0000
0000
0000
0000
0000
0000
0000
0000
0000
0301
0000
0000
0000
0000
0000
0000
0000
0000
0000
0000
0000
0000
0000
0010
0000
0000
0000
0000
0000
0000
0000
0000
0000
,
0000
0000
0000
0000
0000
0000
0000
0000
0000
0000
0000
0000
0000
0000
0001
0000
0000
0000
0000
0000
0000
0000
0000
0000
0100
0000
0000
0000
0000
0000
0000
0000
0000
0000
0000
0000
0000
0000
0010
0000
0000
0000
0000
0000
0000
0000
0000
0000
0000
0000
0000
0000
0000
0000
0000
0000
0000
0000
0000
0000
0000
0000
1000
0000
0000
0000
0000
0000
0000
0000
0000
0000
0001
0000
0000
0000
0000
0000
0000
0000
0000
0000
0000
0000
0000
0000
0000
0000
0000
0000
0000
0000
0000
0000
0000
0000
0100
0000
0000
0000
0000
0000
0000
0000
0000
0000
0000
0000
0000
0000
0000
0000
0000
0000
0000
0000
0000
0000
0000
0000
0200
0000
0000
0000
0000
0000
0000
0000
0000
0000
0000
0000
0000
0000
0000
0000
0000
0000
0000
0000
0000
0000
0000
0000
0000
0000
0000
0000
0000
0000
0000
0000
0000
0000
0000
0000
0000
0000
0000
0000
0000
0000
0000
0000
0000
0000
0000
0000
0310
0000
0000
0000
0000
0000
0000
0000
0000
0000
0000
0000
0000
0000
1000
0000
0000
0000
0000
0000
0000
0000
0000
0000
,
0000
0000
0000
0000
0000
0000
0000
0000
0000
0000
0000
0000
0000
0000
0001
0000
0000
0000
0000
0000
0000
0000
0000
0000
0100
0000
0000
0000
0000
0000
0000
0000
0000
0000
0000
0000
0000
0000
0010
0000
0000
0000
0000
0000
0000
0000
0000
0000
0000
0000
0000
0000
0000
0000
0000
0000
0000
0000
0000
0000
0000
0000
0010
0000
0000
0000
0000
0000
0000
0000
0000
0000
1000
0000
0000
0000
0000
0000
0000
0000
0000
0000
0000
0000
0000
0000
0000
0000
0000
0000
0000
0000
0000
0000
0000
0000
0001
0000
0000
0000
0000
0000
0000
0000
0000
0000
0000
0000
0000
0000
0000
0000
0000
0000
0000
0000
0000
0000
0000
0000
0010
0000
0000
0000
0000
0000
0000
0000
0000
0000
0000
0000
0000
0000
0000
0000
0000
0000
0000
0000
0000
0000
0000
0000
1000
0000
0000
0000
0000
0000
0000
0000
0000
0000
0000
0000
0000
0000
0000
0000
0000
0000
0000
0000
0000
0000
0000
0000
0010
0000
0000
0000
0000
0000
0000
0000
0000
0000
0000
0000
0000
0000
0001
0000
0000
0000
0000
0000
0000
0000
0000
0000
,
0100
0000
0000
0000
0000
0000
0000
0000
0000
0000
0000
0000
0000
0000
0010
0000
0000
0000
0000
0000
0000
0000
0000
0000
1000
0000
0000
0000
0000
0000
0000
0000
0000
0000
0000
0000
0000
0000
0100
0000
0000
0000
0000
0000
0000
0000
0000
0000
0000
0000
0000
0000
0000
0000
0000
0000
0000
0000
0000
0000
0000
0000
0100
0000
0000
0000
0000
0000
0000
0000
0000
0000
0010
0000
0000
0000
0000
0000
0000
0000
0000
0000
0000
0000
0000
0000
0000
0000
0000
0000
0000
0000
0000
0000
0000
0000
0001
0000
0000
0000
0000
0000
0000
0000
0000
0000
0000
0000
0000
0000
0000
0000
0000
0000
0000
0000
0000
0000
0000
0000
0100
0000
0000
0000
0000
0000
0000
0000
0000
0000
0000
0000
0000
0000
0000
0000
0000
0000
0000
0000
0000
0000
0000
0000
1000
0000
0000
0000
0000
0000
0000
0000
0000
0000
0000
0000
0000
0000
0000
0000
0000
0000
0000
0000
0000
0000
0000
0000
0100
0000
0000
0000
0000
0000
0000
0000
0000
0000
0000
0000
0000
0000
0001
0000
0000
0000
0000
0000
0000
0000
0000
0000
,
1000
0000
0000
0000
0000
0000
0000
0000
0000
0000
0000
0000
0000
0000
0010
0000
0000
0000
0000
0000
0000
0000
0000
0000
0100
0000
0000
0000
0000
0000
0000
0000
0000
0000
0000
0000
0000
0000
0001
0000
0000
0000
0000
0000
0000
0000
0000
0000
0000
0000
0000
0000
0000
0000
0000
0000
0000
0000
0000
0000
0000
0000
0001
0000
0000
0000
0000
0000
0000
0000
0000
0000
1000
0000
0000
0000
0000
0000
0000
0000
0000
0000
0000
0000
0000
0000
0000
0000
0000
0000
0000
0000
0000
0000
0000
0000
0010
0000
0000
0000
0000
0000
0000
0000
0000
0000
0000
0000
0000
0000
0000
0000
0000
0000
0000
0000
0000
0000
0000
0000
2000
0000
0000
0000
0000
0000
0000
0000
0000
0000
0000
0000
0000
0000
0000
0000
0000
0000
0000
0000
0000
0000
0000
0000
0000
0000
0000
0000
0000
0000
0000
0000
0000
0000
0000
0000
0000
0000
0000
0000
0000
0000
0000
0000
0000
0000
0000
0000
3001
0000
0000
0000
0000
0000
0000
0000
0000
0000
0000
0000
0000
0000
0010
0000
0000
0000
0000
0000
0000
0000
0000
0000
,
0100
0000
0000
0000
0000
0000
0000
0000
0000
0000
0000
0000
0000
0000
0010
0000
0000
0000
0000
0000
0000
0000
0000
0000
0001
0000
0000
0000
0000
0000
0000
0000
0000
0000
0000
0000
0000
0000
1000
0000
0000
0000
0000
0000
0000
0000
0000
0000
0000
0000
0000
0000
0000
0000
0000
0000
0000
0000
0000
0000
0000
0000
1000
0000
0000
0000
0000
0000
0000
0000
0000
0000
0100
0000
0000
0000
0000
0000
0000
0000
0000
0000
0000
0000
0000
0000
0000
0000
0000
0000
0000
0000
0000
0000
0000
0000
0010
0000
0000
0000
0000
0000
0000
0000
0000
0000
0000
0000
0000
0000
0000
0000
0000
0000
0000
0000
0000
0000
0000
0000
0002
0000
0000
0000
0000
0000
0000
0000
0000
0000
0000
0000
0000
0000
0000
0000
0000
0000
0000
0000
0000
0000
0000
0000
0000
0000
0000
0000
0000
0000
0000
0000
0000
0000
0000
0000
0000
0000
0000
0000
0000
0000
0000
0000
0000
0000
0000
0000
1003
0000
0000
0000
0000
0000
0000
0000
0000
0000
0000
0000
0000
0000
0001
0000
0000
0000
0000
0000
0000
0000
0000
0000
,
0000
0000
0000
0000
0000
0000
0000
0000
0000
0000
0000
0000
0000
0000
0100
0000
0000
0000
0000
0000
0000
0000
0000
0000
0010
0000
0000
0000
0000
0000
0000
0000
0000
0000
0000
0000
0000
0000
1000
0000
0000
0000
0000
0000
0000
0000
0000
0000
0000
0000
0000
0000
0000
0000
0000
0000
0000
0000
0000
0000
0000
0000
1000
0000
0000
0000
0000
0000
0000
0000
0000
0000
0010
0000
0000
0000
0000
0000
0000
0000
0000
0000
0000
0000
0000
0000
0000
0000
0000
0000
0000
0000
0000
0000
0000
0000
0100
0000
0000
0000
0000
0000
0000
0000
0000
0000
0000
0000
0000
0000
0000
0000
0000
0000
0000
0000
0000
0000
0000
0000
0001
0000
0000
0000
0000
0000
0000
0000
0000
0000
0000
0000
0000
0000
0000
0000
0000
0000
0000
0000
0000
0000
0000
0000
0010
0000
0000
0000
0000
0000
0000
0000
0000
0000
0000
0000
0000
0000
0000
0000
0000
0000
0000
0000
0000
0000
0000
0000
1000
0000
0000
0000
0000
0000
0000
0000
0000
0000
0000
0000
0000
0000
0010
0000
0000
0000
0000
0000
0000
0000
0000
0000
,
0100
0000
0000
0000
0000
0000
0000
0000
0000
0000
0000
0000
0000
0000
1000
0000
0000
0000
0000
0000
0000
0000
0000
0000
0001
0000
0000
0000
0000
0000
0000
0000
0000
0000
0000
0000
0000
0000
0010
0000
0000
0000
0000
0000
0000
0000
0000
0000
0000
0000
0000
0000
0000
0000
0000
0000
0000
0000
0000
0000
0000
0000
0001
0000
0000
0000
0000
0000
0000
0000
0000
0000
0100
0000
0000
0000
0000
0000
0000
0000
0000
0000
0000
0000
0000
0000
0000
0000
0000
0000
0000
0000
0000
0000
0000
0000
0010
0000
0000
0000
0000
0000
0000
0000
0000
0000
0000
0000
0000
0000
0000
0000
0000
0000
0000
0000
0000
0000
0000
0000
1000
0000
0000
0000
0000
0000
0000
0000
0000
0000
0000
0000
0000
0000
0000
0000
0000
0000
0000
0000
0000
0000
0000
0000
0001
0000
0000
0000
0000
0000
0000
0000
0000
0000
0000
0000
0000
0000
0010
0000
0000
0000
0000
0000
0000
0000
0000
0000
0100
0000
0000
0000
0000
0000
0000
0000
0000
0000
0000
0000
0000
0000
2000
0000
0000
0000
0000
0000
0000
0000
0000
0000
,
0001
0000
0000
3002
0100
0000
0000
0203
1000
0000
0000
2300
0100
0000
0000
3200
,
0010
0000
0000
0320
1000
0000
0000
2030
0100
0000
0000
3100
0010
0000
0002
0000
,
1000
0000
0000
2003
0100
0000
0000
3200
0001
0000
0000
0302
0010
0000
0000
0023
,
1000
0000
0000
2030
0100
0000
0000
3200
0001
0000
0000
0302
0010
0000
1000
0000
,
1003
0000
0000
2000
0010
0000
0000
3020
0001
0000
0000
0032
0010
0000
0000
0023
,
0100
0000
0000
0230
0001
0000
0000
0302
0010
0000
0000
0013
0100
0000
2000
0000
,
0001
0000
0000
3002
0010
0000
0000
0023
1000
0000
0000
2030
0100
0000
0000
3200
,
0001
0000
0000
0302
0010
0000
0000
0023
1000
0000
0000
2030
0100
0000
0000
3000
,
1001
LM0M
M0LM
MLM0
,
0MML
L0MM
MLM0
M0ML
,
0LMM
L000
0L00
000L
,
00L0
0000
0000
0000
L000
0000
0000
0000
000L
0000
0000
0010
10L0
0000
0001
0010
,
0001
2000
0010
0000
01LL
0000
0L01
0000
,
320L
L001
001L
0310
,
1M11
LLLL
1100
LL11
,
11LL
0000
0000
0000
0101
0000
0000
0000
2002
0000
0000
0000
0110
0000
0000
3003
,
2LL2
0000
0000
0000
,
0000
0000
0000
0000
,
3003
0000
0000
0000
;

//---------------dance-single - J. DeGarmo----------------
#NOTES:
     dance-single:
     J. DeGarmo:
     Hard:
     8:
     0.461,0.531,0.171,0.076,0.400,313.000,18.000,8.000,0.000,0.000:
0000
0000
0000
0000
,
0000
0000
0000
0000
,
0000
0000
0000
0000
,
1001
2002
3003
L00L
,
1000
0000
0000
1000
0010
0000
0000
0010
0100
0000
0000
0100
0001
0000
0000
0001
,
1000
0000
0000
1000
0100
0000
0000
0100
0010
0000
0000
0010
0001
0000
1000
0000
,
0100
0000
0000
0100
1000
0000
0000
1000
0010
0000
0000
0010
1000
0000
0000
1000
,
0001
0000
0000
0001
0100
0000
0000
0100
0010
0000
0000
0010
0100
0000
0001
0000
,
1000
0000
0010
0000
0100
0000
0000
0001
0000
0000
0100
0000
1000
0000
0100
0010
,
0000
0000
1000
0000
0001
0000
0000
0100
0000
0000
0010
0000
1000
0000
0100
0000
,
0001
0000
0100
0000
0010
0000
0000
0001
0000
0100
0010
0000
1000
0000
0010
0100
,
0000
0000
0001
0000
1000
0000
0100
0010
0000
0000
0001
0000
0100
0000
0000
0000
,
0001
0010
000L
00L0
0000
0000
0000
0000
,
0000
0000
0000
0000
0000
0000
1000
0100
,
1000
0100
L000
0L00
0000
0000
0000
0000
,
0010
0100
00L0
0L00
0000
0000
0000
0000
,
0001
1000
000L
L000
0000
0000
0000
0000
,
0000
0000
0000
0000
0000
0000
0001
0010
,
0001
0010
000L
00L0
0000
0000
0000
0000
,
1000
0100
L000
0L00
0000
0010
0110
0000
,
1000
0000
1000
L000
0000
1000
L000
0000
,
1000
L000
0000
1000
1000
L000
0000
0001
,
000L
0000
0001
000L
0000
0001
0001
000L
,
0000
0000
0001
000L
0000
0001
0100
0010
,
1000
0000
0010
00L0
0000
0100
0L00
0000
,
0001
000L
0000
0100
0010
00L0
0000
0100
,
0L00
0000
0001
000L
0000
1000
0010
00L0
,
0000
0000
0100
0L00
0000
0001
1001
0000
,
1000
0000
0000
1000
0010
0000
0000
0010
1000
0000
0000
1000
0100
0000
0000
0100
,
0010
0000
0000
0010
0001
0000
0000
0001
0100
0000
0000
0100
0010
0000
0000
0010
,
0100
0000
0000
0100
0001
0000
0000
0001
1000
0000
0000
1000
0100
0000
0000
0100
,
1000
0000
0000
1000
0010
0000
0000
0010
0100
0000
0001
0000
0010
0000
0100
0000
,
1000
0000
0000
1000
0010
0000
0000
0010
0001
0000
0000
0001
0010
0000
0000
0010
,
0100
0000
0000
0100
0001
0000
0000
0001
1000
0000
0000
1000
0100
0000
0000
0100
,
0010
0000
0000
0010
1000
0000
0000
1000
0010
0000
0000
0010
0100
0000
0000
0100
,
1000
0000
0000
1000
0010
0000
0000
0010
0100
0000
0001
0000
1001
0000
0000
0000
,
1000
0000
0010
0100
0000
0100
0010
0000
1000
0000
0002
0000
0000
0000
1003
0001
,
0000
0100
0000
0010
0000
1000
0001
0000
0100
0000
0200
0000
0000
0000
0300
0010
,
0000
0000
1000
0100
0000
0100
1000
0000
0001
0000
0010
0000
0100
0000
0000
0000
,
1100
1010
0101
0011
,
1000
0000
0001
0010
0000
0010
0001
0000
0100
0000
0020
0000
0000
0000
1030
0000
,
0001
0000
0000
0100
0000
0000
0010
0000
1000
0000
2000
0000
0000
0000
3100
0010
,
0000
0000
0001
1000
0000
1000
0001
0000
0100
0000
0010
0000
1000
0000
0100
0000
,
0001
0100
0010
0001
1000
0010
0110
0000
,
1000
0000
0000
1000
0001
0000
0000
0001
0100
0000
0000
0100
0010
0000
0000
0010
,
0001
0000
0000
0001
0010
0000
0000
0010
0100
0000
0000
0100
0001
0000
0010
0000
,
0100
0000
0000
0100
1000
0000
0000
1000
0100
0000
0000
0100
0001
0000
0000
0001
,
0100
0000
0000
0100
0010
0000
0000
0010
0001
0000
0000
0001
0100
0000
0010
0000
,
1000
0000
0001
0000
0100
0000
0000
0100
0000
0000
0010
0000
1000
0000
0001
0010
,
0000
0000
0100
0000
1000
0000
0000
0010
0100
0000
1000
0000
0100
0000
0100
0000
,
0001
0000
1000
0000
0010
0000
0000
0100
0000
0000
0100
0000
0001
0000
1000
0010
,
0000
0000
0001
0000
0010
0000
0000
0100
0001
0000
1000
0000
0100
0000
0010
0000
,
0001
0000
010L
0000
,
0L10
0000
10L0
L001
,
001L
0000
01L0
0000
,
1L00
0000
L001
100L
,
L100
0100
0000
0000
0000
0000
0000
0000
,
0011
1100
1010
0101
,
1001
L00L
0110
0LL0
,
1001
0000
L00L
0010
0100
0000
0001
0000
,
2200
0000
0000
0000
,
0000
0000
0000
0000
,
3300
0000
0000
0000
;

//---------------dance-single - J. DeGarmo----------------
#NOTES:
     dance-single:
     J. DeGarmo:
     Medium:
     7:
     0.354,0.502,0.133,0.133,0.067,232.000,14.000,14.000,0.000,0.000:
0000
0000
0000
0000
,
0000
0000
0000
0000
,
0000
0000
0000
0000
,
0000
0000
0000
0000
,
0000
0001
0100
0000
0000
0010
0100
0000
,
0000
0010
1000
0000
0001
0100
0010
0000
,
0000
1000
0100
0000
0000
0010
0100
0000
,
0000
1000
0001
0000
1000
0010
0100
0000
,
0002
0013
2000
3100
,
0002
0013
2000
3100
,
0001
0001
0001
0000
0100
0000
0010
0000
,
1000
1000
1000
0000
0001
0100
0010
0000
,
1001
0000
L000
000L
0000
0000
0000
0000
,
0000
0000
0000
0000
,
1100
0000
L000
0L00
0000
0000
0000
0000
,
0011
0000
000L
00L0
0000
0000
0000
0000
,
0101
0000
0L00
000L
0000
0000
0000
0000
,
0000
0000
0000
0000
,
1010
0000
00L0
L000
0000
0000
0000
0000
,
0110
0000
0L00
00L0
0000
0000
0000
0000
,
1000
0100
0000
0000
0000
0000
0000
0000
0000
0000
0000
0000
0000
0000
0000
0000
,
0010
0000
0001
0000
0000
0000
0000
0000
0000
0000
0000
0000
0000
0000
0000
0000
0000
0000
0000
0000
0000
0100
0000
0000
,
0010
0100
0000
0000
0000
0000
0000
0000
,
0001
1000
0000
0000
0000
0000
0000
0000
,
0010
0100
0000
0000
0000
0000
0000
0000
,
1000
0000
0001
0000
0000
1000
0000
0000
0000
0000
0000
0000
0010
0000
0000
0000
0000
0000
0100
0000
0000
0000
0000
0000
,
0001
0000
0101
1010
,
1000
0000
0100
0000
0000
0000
0000
0010
0001
0000
0000
0000
0110
0000
0000
0000
,
1000
0000
0000
0001
0000
0000
0100
0000
0010
0000
0010
0000
0000
0000
1000
0000
,
0010
0000
0000
0100
0000
0000
0001
0000
1000
0000
1000
0000
0000
0000
0100
0000
,
0010
0000
0000
0001
0000
0000
0100
0000
0001
0000
0001
0000
0100
0000
0010
0000
,
1000
0000
0000
0000
0001
0000
0000
0000
0100
0000
0000
0010
1000
0000
0100
0000
,
1000
0000
0000
0001
0000
0000
0010
0000
0100
0000
0100
0000
0000
0000
1000
0000
,
0001
0000
0000
0010
0000
0000
0001
0000
1000
0000
1000
0000
0000
0000
0010
0000
,
0100
0000
0000
0001
0000
0000
0100
0000
0010
0000
0010
0000
1000
0000
0001
0000
,
0200
0001
1000
0301
,
1000
0010
0100
0001
1000
1000
0000
0010
,
0100
0001
1000
0010
0100
0100
0000
0001
,
0010
0000
0000
0100
0000
0000
1000
0000
0001
0000
0001
0000
0100
0000
0010
0000
,
1000
0100
0001
0010
,
1000
0100
0010
0001
0100
0100
0000
0010
,
1000
0000
0000
0001
0000
0000
0100
0000
0001
0000
0001
0000
0000
0000
1000
0000
,
0010
0100
0001
1000
0100
0100
1000
0010
,
1000
0001
0100
0010
1000
0100
2000
0000
,
3001
0100
0010
0000
1000
0001
0010
0000
,
0100
1100
0001
0011
,
1000
0100
0010
0000
0001
0010
0100
0000
,
1000
1010
0100
0101
,
1000
0100
0002
0000
1003
0100
0002
0000
,
2003
3100
0002
0013
,
1000
0010
0002
0000
1003
0010
0002
0000
,
1003
0100
0010
0001
0010
0100
1000
0000
,
0001
0000
000L
0000
,
0100
0000
0L00
0000
,
0010
0000
00L0
0000
,
1000
0000
L000
0000
,
0001
001L
00L1
001L
,
01L0
1L00
L100
1L00
,
L001
010L
0L01
010L
,
0L10
10L0
L010
10L0
,
0220
0000
0000
0000
,
0000
0000
0000
0000
,
0330
0000
0000
0000
;

//---------------dance-single - J. DeGarmo----------------
#NOTES:
     dance-single:
     J. DeGarmo:
     Easy:
     4:
     0.276,0.443,0.248,0.171,0.000,159.000,26.000,18.000,0.000,0.000:

0000
0000
0000
0000
,
0000
0000
0000
0000
,
0000
0000
0000
0000
,
0000
0000
0000
0000
,
0001
1100
0010
0101
,
1000
0011
0110
1001
,
1000
0110
0001
1010
,
1000
0101
0011
1001
,
1000
0001
0100
0010
,
2000
0100
0100
3100
,
0010
0001
0100
1000
,
0100
0010
0101
1010
,
1002
0000
0003
000L
0000
0000
0000
0000
,
0000
0000
0000
0000
,
2000
0000
3000
L000
0000
0000
0000
0000
,
0020
0000
0030
00L0
0000
0000
0000
0000
,
0200
0000
0300
0L00
0000
0000
0000
0000
,
0000
0000
0000
0000
,
0002
0000
0003
000L
0000
0000
0000
0000
,
0200
0000
0300
0L00
0000
0000
0000
0000
,
0001
0000
0100
0000
,
0001
0000
0010
0010
,
0010
0000
0100
0000
,
1000
0000
0001
0001
,
0001
0000
0100
0000
,
0010
0000
1000
1000
,
1000
0000
0001
0000
,
0010
0000
0200
0000
,
1300
0010
0100
0100
,
0001
1000
0010
0010
,
1000
0100
1000
1000
,
0010
0100
0001
0001
,
1000
0010
0110
0000
,
0001
1000
0010
1000
,
0100
0010
0011
0000
,
0100
0010
1000
1000
,
1000
0001
0020
0000
,
0100
0001
0100
0031
,
1000
0001
0100
0000
,
1001
0110
1001
0110
,
0001
1000
0200
0000
,
0010
1000
0010
1300
,
0001
0100
0010
1000
,
0100
0010
0001
0001
,
1000
1000
0001
0001
,
0100
0100
0010
0010
,
1000
0001
1000
0001
,
0100
0010
0100
0010
,
1000
0100
1000
1010
,
0100
0001
0010
0011
,
2000
3100
0002
0013
,
1000
1100
0110
0011
,
2001
0000
3000
L000
,
0002
0000
0003
000L
,
2000
0000
3000
L000
,
0002
0000
0003
000L
,
0100
0000
0L00
0000
,
0010
0000
00L0
0000
,
1000
0000
L000
0000
,
0001
0000
1000
0001
,
0022
0000
0000
0000
,
0000
0000
0000
0000
,
0033
0000
0000
0000
;

//---------------dance-single - J. DeGarmo----------------
#NOTES:
     dance-single:
     J. DeGarmo:
     Beginner:
     1:
     0.083,0.143,0.029,0.000,0.000,58.000,3.000,0.000,0.000,0.000:
0000
0000
0000
0000
,
0000
0000
0000
0000
,
0000
0000
0000
0000
,
0000
0000
0000
0000
,
0001
0000
0000
0000
,
0001
0000
0000
0000
,
0100
0000
0000
0000
,
0010
0000
0000
0000
,
1000
0000
0000
0000
,
1000
0000
0000
0000
,
0100
0000
0000
0000
,
0010
0000
0010
0000
,
0010
0000
0000
0000
,
0000
0000
0000
0000
,
0001
0000
0000
0000
,
0100
0000
0000
0000
,
0010
0000
0000
0000
,
0000
0000
0000
0000
,
1000
0000
0000
0000
,
1000
0000
0000
0000
,
0001
0000
0000
0000
,
1000
0000
0000
0000
,
0001
0000
0000
0000
,
1000
0000
0000
0000
,
0001
0000
0000
0000
,
0100
0000
0000
0000
,
0010
0000
0000
0000
,
1000
0000
0000
0000
,
0001
0000
0000
0000
,
0100
0000
0100
0000
,
0100
0000
0000
0000
,
0010
0000
0010
0000
,
0010
0000
0000
0000
,
1000
0000
1000
0000
,
1000
0000
0000
0000
,
0001
0000
0001
0000
,
0001
0000
0000
0000
,
0100
0000
0000
0000
,
0010
0000
0000
0000
,
1100
0000
0000
0000
,
1000
0000
0000
0000
,
0010
0000
0000
0000
,
0100
0000
0000
0000
,
0011
0000
0000
0000
,
1000
0000
0000
0000
,
0100
0000
0000
0000
,
1000
0000
0000
0000
,
0100
0000
0000
0000
,
0010
0000
0000
0000
,
0001
0000
0000
0000
,
0010
0000
0000
0000
,
0001
0000
0000
0000
,
1000
0000
0000
0000
,
0000
0000
0000
0000
,
0001
0000
0000
0000
,
0000
0000
0000
0000
,
0100
0000
0000
0000
,
0000
0000
0000
0000
,
0010
0000
0000
0000
,
1000
0000
0001
0000
,
1001
0000
0000
0000
;

//---------------dance-double - J. DeGarmo----------------
#NOTES:
     dance-double:
     J. DeGarmo:
     Easy:
     4:
     0.189,0.295,0.057,0.086,0.000,124.000,6.000,9.000,0.000,0.000:
00000000
00000000
00000000
00000000
,
00000000
00000000
00000000
00000000
,
00000000
00000000
00000000
00000000
,
00000000
00000000
00000000
00000000
,
00010000
00000000
01000000
00000000
,
00001000
00000000
00010000
00000100
,
00001000
00000000
00000010
00000000
,
00000100
00000000
00000001
00001000
,
00000100
00000000
00010000
00000000
,
01000000
00000000
10000000
00100000
,
01000000
00000000
00001000
00000000
,
00010000
00000010
00000100
00000001
,
00001000
0000L000
00000000
00000000
,
00000000
00000000
00000000
00000000
,
00000100
00000L00
00000000
00000000
,
00010000
000L0000
00000000
00000000
,
10000000
L0000000
00000000
00000000
,
00000000
00000000
00000000
00000000
,
00100000
00L00000
00000000
00000000
,
01000000
0L000000
00000000
00000000
,
00011000
00000000
00000000
00000000
,
000LL000
00000000
00000000
00000000
,
00000011
00000000
00000000
00000000
,
000000LL
00000000
00000000
00000000
,
11000000
00000000
00000000
00000000
,
LL000000
00000000
00000000
00000000
,
00010000
00000000
00100000
00000000
,
00001000
00000000
00010000
00000000
,
00000100
00001000
00000020
00000030
,
00000100
00000001
00001000
00000100
,
00010000
00001000
02000000
03000000
,
00100000
10000000
01000000
00100000
,
01000000
10000000
00020000
00030000
,
00100000
00001000
00010000
00000010
,
00000100
00000001
00002000
00003000
,
00000100
00000100
00000010
00000010
,
00000001
00000100
00000010
00000010
,
00010000
00001000
01000000
00100000
,
10000000
01000000
00100000
00100000
,
00001000
00010000
00000010
00000100
,
00001000
00000100
00000010
00000010
,
00001000
00000001
00000100
00010000
,
01000000
00100000
10000000
10000000
,
00010000
00100000
00002000
00010000
,
00013000
00000000
00000100
00000000
,
00010000
00000000
00000100
00000100
,
00000100
00000000
00001000
00000000
,
00000010
00000000
00001000
00001000
,
00001000
00000000
00000100
00000000
,
00010000
00000000
01000000
01000000
,
01000000
00000000
10000000
00000000
,
00100000
00000000
01000000
00010000
,
20010000
00000000
000L0000
00000000
,
00010000
00000000
300L0000
00000000
,
02001000
00000000
0000L000
00000000
,
00001000
00000000
0300L000
00000000
,
00010000
00000000
000L0000
00000000
,
00000010
00000000
000000L0
00000000
,
00000100
00000000
00000L00
00000000
,
00000001
00000000
00001000
00000000
,
00022000
00000000
00000000
00000000
,
00000000
00000000
00000000
00000000
,
00033000
00000000
00000000
00000000
;

//---------------dance-double - J. DeGarmo----------------
#NOTES:
     dance-double:
     J. DeGarmo:
     Medium:
     5:
     0.286,0.384,0.200,0.057,0.000,183.000,21.000,6.000,0.000,0.000:
00000000
00000000
00000000
00000000
,
00000000
00000000
00000000
00000000
,
00000000
00000000
00000000
00000000
,
00000000
00000000
00000000
00000000
,
00010000
00000100
00001000
00000010
,
00000100
00000001
00000010
00010100
,
00011000
00100000
00010000
01000000
,
00100000
00000000
10000000
00000000
00010000
00000000
00100000
00001000
,
01000000
00010000
00100000
00001000
,
00010000
00000100
00000010
00000101
,
00001010
00000100
00010000
00001000
,
01000000
00000000
00100000
00000000
10000000
00000000
00010000
00100000
,
00001000
00000000
00010000
000L0000
00000000
00000000
00000000
00000000
,
00000000
00000000
00000000
00000000
,
00000100
00000000
00001000
0000L000
00000000
00000000
00000000
00000000
,
00000010
00000000
00000100
00000L00
00000000
00000000
00000000
00000000
,
00000001
00000000
00000010
000000L0
00000000
00000000
00000000
00000000
,
00000000
00000000
00000000
00000000
,
00000100
00000000
00010000
000L0000
00000000
00000000
00000000
00000000
,
01000000
00000000
10000000
L0000000
00000000
00100000
00100000
00000000
,
10000000
00000000
00000000
00000000
00010000
00000000
00000000
00100000
,
00000000
00001000
00000000
00010000
,
00010000
00000000
00000010
00000000
,
00000100
00000000
00000001
00000000
,
00000100
00000000
00000000
00000000
00000010
00000000
00000000
00010000
,
00000000
00001000
00000000
01000000
,
01000000
00000000
00100000
00000000
,
10000000
00000000
00010000
00000000
,
10000000
01000000
10000000
00000000
00100000
00000000
00000000
00000000
,
01000000
00010000
00100000
00001000
,
00010000
00000100
00010000
00000000
00000100
00000000
00000000
00000000
,
00001000
00000010
00000100
00000001
,
00001000
00000100
00001000
00000000
00000010
00000000
00000000
00000000
,
00010000
00001000
01000000
00100000
,
10000000
00010000
10000000
00000000
01000000
00000000
01000000
00000000
,
00100000
00001000
00010000
00000100
,
00001000
00000010
00000100
00000000
00000002
00000000
00000013
00000000
,
00000100
00010000
00001000
01000000
,
00100000
10000000
01000000
00000000
00200000
00000000
00301000
00000000
,
00010000
00000100
00001000
00000010
,
00000100
00000001
00001000
00000000
00000200
00000000
00010300
00000000
,
00001000
01000000
00100000
10000000
,
00010000
01000000
00001000
00000000
00020000
00000000
00030100
00000000
,
00000010
00000001
00000100
00000000
00000010
00010000
00001000
00000000
,
01000000
01010000
00100000
10100000
,
10000000
10010000
00100000
00011000
,
00000100
00000110
00000001
00001001
,
00000010
00001100
00100000
00011000
,
01000000
10100000
01000000
00101000
,
00010000
00000110
00000001
00001100
,
00000010
00010010
00000100
00101000
,
00010000
10010000
01000000
10100000
,
10000000
L0000000
00000000
00000000
,
00100000
00L00000
00000000
00000000
,
01000000
0L000000
00000000
00000000
,
00001000
0000L000
00000000
00000000
,
00010000
00000000
000L0100
00000000
,
00000L10
00000000
000000L1
00000000
,
0000010L
00000000
00010L00
00000000
,
010L0000
00000000
0L100000
10000000
,
22000000
00000000
00000000
00000000
,
00000000
00000000
00000000
00000000
,
33000000
00000000
00000000
00000000
;

//---------------dance-double - J. DeGarmo----------------
#NOTES:
     dance-double:
     J. DeGarmo:
     Hard:
     7:
     0.378,0.413,0.181,0.124,0.000,246.000,19.000,13.000,0.000,0.000:
00000000
00000000
00000000
00000000
,
00000000
00000000
00000000
00000000
,
00000000
00000000
00000000
00000000
,
00011000
00011000
00000000
000LL000
,
00100000
00010000
01000000
00000000
00100000
00000000
00100000
00000000
,
10000000
01000000
00100000
00001000
,
00010000
00000010
00000100
00000000
00000001
00000000
00000001
00000000
,
00000100
00010000
01000000
00100000
,
10000000
00010000
00100000
00000000
00001000
00000000
00001000
00000000
,
00100000
00001000
00010000
00000100
,
00001000
00000010
00000100
00000000
00000001
00000000
00000001
00000000
,
00000100
00000000
00000010
00000000
00001000
00000100
00010000
00001000
,
00100000
00000000
00010000
000L0000
00000000
00000000
00000000
00000000
,
00000000
00000000
00000000
00000000
00000000
00000000
01000000
00100000
,
01000000
00100000
01000000
00L00000
00000000
00000000
00000000
00000000
,
10000000
01000000
10000000
0L000000
00000000
00000000
00000000
00000000
,
00100000
00001000
00100000
0000L000
00000000
00000000
00000000
00000000
,
00000000
00000000
00000000
00000000
00000000
00000000
00010000
00000100
,
00010000
00000100
00010000
00000L00
00000000
00000000
00000000
00000000
,
00000010
00000001
00000010
0000000L
00000000
00001000
00001100
00000000
,
00010000
00000000
00001000
00010000
00000000
00000100
00001000
00000000
,
00000010
00000100
00000000
00000001
00000010
00000100
00000000
00010000
,
00001000
00000000
01000000
00100000
00000000
10000000
01000000
00100000
,
00000000
00000000
00001000
00010000
00000000
00000010
00000100
00000001
,
00001000
00000000
00000100
00010000
00000000
00001000
01000000
00000000
,
00100000
10000000
00000000
00010000
01000000
00100000
00000000
01000000
,
00001000
00000000
00010000
00000100
00000000
00000010
00000001
00001000
,
00000100
00000000
00010000
00001000
00000000
01000000
00100000
00000000
,
10000000
00010000
01000000
00100000
10000000
01000000
00000000
00000000
,
00100000
00001000
00010000
00000100
,
00001000
00000010
00000100
00000001
00001000
00000010
00000000
00000000
,
00000100
00000010
00001000
00000100
,
00010000
00001000
01000000
00100000
10000000
00010000
00000000
00000000
,
00100000
00001000
00010000
00000010
,
00000100
00000001
00001000
00000100
00000001
00000100
00000000
00000000
,
00010000
00001000
00200000
00000000
00010000
00000000
01300000
00000000
,
10000000
00010000
00100000
00001000
00010000
00000100
00000000
00000000
,
00001000
00001010
00000100
00000101
,
00000010
00001000
00000100
00010000
00001000
01000000
00000000
00000000
,
00100000
10100000
01000000
00101000
,
00010000
00000010
00000100
00000001
00001000
00000100
00000000
00000000
,
00000010
00000101
00001000
00010100
,
00001000
00100000
00010000
01000000
10000000
01000000
00000000
00000000
,
00100000
01000000
00010000
00100000
00001000
00010000
00000100
00000000
,
00000010
00000001
00000200
00000000
00000310
00010000
00002000
00000000
,
00103000
00010000
01000000
00100000
,
10000000
00010000
02000000
00000000
03100000
10000000
00020000
00000000
,
00130000
00001000
00010000
00000010
,
00001000
00000100
00000002
00000000
00000103
00010000
00002000
00000000
,
00103000
00010000
01000000
10000000
,
01000000
00100000
20000000
00000000
30010000
01000000
00002000
00000000
,
00013000
00000000
00000010
00000000
00001000
00000000
00000001
00000010
,
00000200
000000L0
00000000
000000L0
,
00000000
000000L0
00000000
000003L0
,
00020000
00000L00
00000000
00000L00
,
00000000
00000L00
00000000
00030L00
,
10000000
L0000000
00100000
00L00000
,
01010000
00110000
00010100
00001100
,
00001001
0000L00L
00010100
000L0L00
,
00101000
00L0L000
10010000
00011000
,
00002002
00000000
00000000
00000000
,
00000000
00000000
00000000
00000000
,
00003003
00000000
00000000
00000000
;

//---------------dance-double - J. DeGarmo----------------
#NOTES:
     dance-double:
     J. DeGarmo:
     Challenge:
     9:
     0.522,0.650,0.181,0.057,0.471,355.000,19.000,6.000,56.000,11.000:
00000000
00000000
00000000
00000000
,
00000000
00000000
00000000
00000000
,
00000000
00000000
00000000
00000000
,
02000020
00011000
00000000
030LL030
,
00100000
00000000
00001000
00000000
00010000
00000000
00000100
00001000
00000000
00000100
00001000
00000000
00000010
00000000
00000100
00000001
,
00000000
00000100
00000001
00000000
00001000
00000000
00000100
00010000
00000000
00000100
00010000
00000000
00001000
00000000
01000000
00100000
,
10000000
00000000
00010000
00000000
00100000
00000000
00001000
00010000
00000000
00000100
00000010
00000000
00000001
00000000
00000100
00000010
,
00000000
00010000
00001000
00000000
00100000
00000000
00010000
01000000
00000000
00100000
10000000
00000000
00010000
00000000
01000000
00000000
,
00001000
00000000
00010000
00000000
00000100
00000000
00000010
00000001
00000000
00000100
00001000
00000000
00000100
00000000
00000010
00010000
,
00000000
00001000
01000000
00000000
00100000
00000000
10000000
01000000
00000000
00010000
01000000
00000000
00100000
00001000
00010000
00000100
,
00000010
00000000
00000001
00000000
00000100
00000000
00000010
00001000
00000000
00000100
00010000
00000000
01000000
00000000
10000000
00100000
,
00000000
01000000
00001000
00000000
00010000
00000000
00000010
00000001
00000000
00000010
00000100
00000000
00000001
00000000
00001000
00000000
,
00000100
00010000
00001000
0000L000
00000000
0MMMMMM0
MMMMMMMM
00000000
,
0MMMMMM0
00000000
MMMMMMMM
00000000
00000000
00000000
01000000
00100000
,
10000000
01000000
00010000
000L0000
00000000
00000000
00000000
00000000
,
01000000
00100000
00001000
0000L000
00000000
00000000
00000000
00000000
,
00010000
00000100
00001000
0000L000
00000000
0MMMMMM0
MMMMMMMM
00000000
,
0MMMMMM0
00000000
MMMMMMMM
00000000
00000000
00000000
00000001
00000100
,
00001000
00000100
00000001
0000000L
00000000
00000000
00000000
00000000
,
00000010
00000100
00001000
0000L000
00000000
00011000
00011000
00000000
,
01000000
00000000
0L100000
10L00000
00000000
L1000000
0L010000
00000000
,
000L0100
00000L10
00000000
000000L1
0000010L
00001L00
00000000
0000L100
,
00000L10
00000000
000100L0
000L1000
00000000
0010L000
01L00000
1L000000
,
00000000
00000000
L0010000
001L0000
00000000
00L01000
0001L000
000L0010
,
000001L0
00000000
00000L01
0000100L
00000000
0000L100
00000L10
00000000
,
000000L1
0000100L
00000000
0000L100
00010L00
000L1000
00000000
0100L000
,
0L100000
00000000
10L00000
L0010000
00000000
001L0000
00L01000
0001L000
,
00000000
00000000
000L0010
000001L0
00000000
00010100
00011000
00000000
,
10000000
00000000
00100000
01000000
00000000
01000000
00010000
00000000
00100000
00000000
00001000
00000000
00000000
00000000
00010000
00000000
,
00000100
00000000
00000000
00000100
00001000
00000000
00000000
00001000
00000010
00000000
00000000
00000010
00010000
00000000
00000000
00010000
,
00001000
00000000
01000000
00100000
00000000
00100000
10000000
00000000
00010000
00000000
01000000
00000000
00000000
00000000
00100000
00000000
,
10000000
00000000
00000000
10000000
01000000
00000000
00000000
01000000
00010000
00000000
00000000
00010000
00000100
00000000
00000000
00000100
,
00000010
00000000
00000001
00001000
00000000
00001000
00000100
00000000
00010000
00000000
00001000
00000000
00000000
00000000
01000000
00000000
,
00100000
00000000
00000000
00100000
00010000
00000000
00000000
00010000
00000010
00000000
00000000
00000010
00000100
00000000
00000000
00000100
,
00000001
00000000
00001000
00000100
00000000
00000100
00000010
00000000
00000001
00000000
00001000
00000000
00000100
00000000
00010000
00000000
,
00001000
00000000
01000000
00100000
00000000
01000000
00100000
00000000
00000000
00000000
01000000
00000000
00010000
00000000
00000010
00000000
,
00000001
00000000
00000100
00000010
00000000
00000010
00001000
00000000
00000100
00000000
00010000
00000000
00000000
00000000
00001000
00000000
,
00100000
00000000
00000000
00100000
00010000
00000000
00000000
00010000
01000000
00000000
00000000
01000000
00001000
00000000
00000000
00001000
,
00010000
00000000
00000010
00000100
00000000
00000100
00000001
00000000
00001000
00000000
00000010
00000000
00000000
00000000
00000100
00000000
,
00000001
00000000
00000000
00000001
00000010
00000000
00000000
00000010
00001000
00000000
00000000
00001000
00100000
00000000
00000000
00100000
,
01000000
00000000
10000000
00010000
00000000
00010000
00100000
00000000
00001000
00000000
00010000
00000000
00000000
00000000
00000010
00000000
,
00000100
00000000
00000000
00000100
00001000
00000000
00000000
00001000
01000000
00000000
00000000
01000000
00100000
00000000
00000000
00100000
,
10000000
00000000
00010000
00100000
00000000
00100000
01000000
00000000
10000000
00000000
00010000
00000000
00100000
00000000
00001000
00000000
,
00010000
00000000
00000010
00000100
00000000
00000010
00000100
00000000
00000000
00000000
00000010
00000000
00001000
00000000
01000000
00000000
,
10000000
00000000
00000000
10000000
L0100000
00000000
00000000
00100000
01L00000
00000000
00000000
01000000
0L001000
00000000
00000000
00001000
,
0001L000
00000000
00000000
00010000
000L0010
00000000
00000000
00000010
000000L1
00000000
00000000
00000001
0000001L
00000000
00000000
00000010
,
000010L0
00000000
00000000
00001000
0000L100
00000000
00000000
00000100
00010L00
00000000
00000000
00010000
010L0000
00000000
00000000
01000000
,
1L000000
00000000
00000000
10000000
L0100000
00000000
00000000
00100000
01L00000
00000000
00000000
00000000
00011000
00000000
00000000
00000000
,
00000001
00000000
00000000
00000001
0000010L
00000000
00000000
00000100
00000L10
00000000
00000000
00000010
000100L0
00000000
00000000
00010000
,
000L1000
00000000
00000000
00001000
0100L000
00000000
00000000
01000000
1L000000
00000000
00000000
10000000
L1000000
00000000
00000000
01000000
,
0L010000
00000000
00000000
00010000
001L0000
00000000
00000000
00100000
00L01000
00000000
00000000
00001000
0000L010
00000000
00000000
00000010
,
000000L1
00000000
00000000
00000001
0000010L
00000000
00000000
00000100
00000L10
00000000
00000000
00000000
00011000
00000000
00000000
00000000
,
11010000
00000000
LL0L0000
00000000
,
00111000
00000000
00LLL000
00000000
,
00010110
00000000
000L0LL0
00000000
,
00000111
00000000
00000LLL
00000000
,
02002000
00000000
10000000
00000000
,
L0100000
10L00000
L0100000
10L00000
,
L3103000
00000000
00110000
00000000
,
01100000
0LL00110
01100LL0
0LL00110
,
02200LL0
00000000
00000000
00000000
,
00000000
00000000
00000000
00000000
,
03300000
00000000
00000000
00000000
;
