#TITLE:Emerald Sword;
#SUBTITLE:;
#ARTIST:Rhapsody;
#TITLETRANSLIT:;
#SUBTITLETRANSLIT:;
#ARTISTTRANSLIT:;
#CREDIT:;
#BANNER:Emeraldsword-bn.png;
#BACKGROUND:emeraldsword-bg.png;
#LYRICSPATH:;
#CDTITLE:!IzzyTitle.png;
#MUSIC:Rhapsody - Emerald Sword.mp3;
#OFFSET:1.800;
#SAMPLESTART:33.293;
#SAMPLELENGTH:12.000;
#SELECTABLE:YES;
#BPMS:0.000=180.000,540.000=120.000,544.000=180.000;
#STOPS:231.000=0.320
;
#BGCHANGES:;
// cache tags:
#FIRSTBEAT:5.500;
#LASTBEAT:769.000;
#SONGFILENAME:Songs/toune 2/Emerald Sword/emeraldsword.sm;
#HASMUSIC:1;
#HASBANNER:1;
#MUSICLENGTH:261.099;
// end cache tags

//---------------dance-double - Emerald Sword----------------
#NOTES:
     dance-double:
     Emerald Sword:
     Hard:
     13:
     1.000,1.000,1.000,1.000,1.000,2258.000,557.000,1109.000,0.000,1960.000:
00000000
00000000
00000000
00000000
,
00000000
00000000
00000000
20020000
00000000
00000000
00000000
30030000
,
22220011
00000100
33331000
00000010
00000110
00001001
00000000
00000001
,
00000110
00000000
00000011
00000000
00000000
00000000
00000100
00000000
00001000
00000100
00001000
00000100
00001000
00000000
00000000
00000000
,
22220011
33330000
00000100
00000000
00001100
00000000
00000001
00000000
00000101
00000000
00000110
00000000
00000000
00000000
00000100
00000000
,
00001010
00000000
00001001
00000000
00000000
00000000
00000010
00000000
00001010
00000000
00000101
00000000
22220110
33330000
00000000
00000000
,
22220101
33330000
00000010
00000000
00001100
00000000
00000011
00000000
00001100
00000000
00000110
00000000
00000000
00000000
00000011
00000000
,
00001010
00000000
00001100
00000000
00000000
00000000
00001010
00000000
00001000
00000010
00001000
00000010
00001000
00000000
00000000
00000000
,
22220011
33330000
00001000
00000000
00000110
00000000
00000001
00000000
00001100
00000000
00000011
00000000
00000000
00000000
00001001
00000000
,
00000110
00000000
00001010
00000000
00000000
00000000
00001010
00000000
22220011
33330000
00000110
00000000
22221000
33330100
00001000
00000100
,
22021000
00000010
00000100
00000001
00001000
00000001
00000010
33030100
22021000
00000100
00000010
00000001
00001000
00000010
00001000
33030100
,
22021000
00000001
00000010
00000100
00001000
00000001
00001000
33030001
22020010
00000100
00001000
33030100
22020010
00000001
00001000
33030001
,
20220010
00000100
00001000
00000010
00001000
00000100
00000010
30330001
20220010
00000001
00001000
00000010
00001000
00000010
00000100
30330001
,
20221000
00000001
00001000
00000010
00000100
00000001
00001000
30330010
20220100
00000010
00001000
30330001
20221000
00000010
00000100
30330001
,
22021000
00000100
00000010
00000001
00001000
00000100
00000010
33030001
22020100
00000010
00001000
00000001
00000010
00000100
00001000
33030001
,
22020010
00000100
00001000
00000010
00000100
00000010
00001000
33030001
22021000
00000010
00000100
33030010
22021000
00000001
00000100
33030010
,
20221000
00000100
00000010
00000001
00001000
00000010
00000100
30330001
20220010
00000100
00001000
00000010
00000100
00000001
00000010
30330001
,
20220100
00000010
00001000
00000100
00001000
00000001
00001000
30330010
20220100
00000001
00000010
30330100
20221000
00000001
00000010
30330100
,
00001000
00000010
00001000
00000001
00001000
00000000
00000010
00000000
00000102
00000000
00000000
00000000
00000000
00000000
00000000
00000003
,
00001000
00000100
00001000
00000100
00001000
00000000
00000000
00000010
00001100
00000000
00000010
00000000
00000110
00000000
00000001
00000000
,
00001000
00000100
00001000
00000100
00001000
00000000
00001000
00000000
00002001
00000000
00000000
00000000
00000000
00000000
00003000
00000000
,
00000001
00000010
00000100
00001000
00000010
00000100
00000001
00001000
00000010
00000000
00000000
00000000
00000001
00000000
00000010
00000000
,
00000100
00001000
00000100
00000000
00001000
00000000
00000001
00000000
00000101
00000000
00000000
00000000
00000000
00000000
00002000
00003000
,
00000001
00000100
00000001
00000100
00000001
00000000
00000100
00000000
00000110
00000000
00000000
00000000
00001001
00000000
00000000
00000000
,
00000001
00000010
00000100
00001000
00000001
00001000
00000100
00000010
00000001
00000000
00000100
00000000
00000010
00000000
00001000
00000000
,
00000001
00000010
00000001
00001000
00000001
00000100
00000010
00001000
00000012
00000000
00000000
00000003
00002200
00000000
00000000
00003300
,
20020001
00000010
00000100
00001000
00000001
30030010
20020100
00001000
00000010
00000100
00000010
30031000
20020001
00000100
00000010
30030100
,
20020001
00001000
00000100
00000010
00000001
30031000
20020001
00000010
00000100
00001000
00000010
30030100
20020001
00001000
00000010
30030100
,
20020001
00000010
00000100
00001000
00000100
30031000
20020100
00000010
00000001
00000010
00000100
30031000
20020100
00001000
00000010
30031000
,
11110100
00001000
11110010
00001000
11110001
00000100
11110010
00001000
11110001
00000100
11110010
00001000
11110001
00000010
11110100
00001000
,
22020001
00000100
00000010
00001000
00000001
33030100
22020010
00001000
00000100
00000010
00000001
33031000
22020100
00001000
00000010
33031000
,
22020001
00001000
00000001
00001000
00000100
33031000
22020010
00000100
00000001
00000010
00000001
33030100
22020001
00000100
00000001
33030010
,
22020100
00001000
00000001
00000010
00000100
33030010
22020001
00001000
00000100
00000010
00000100
33031000
22020010
00000100
00000010
33031000
,
22020001
00000100
00000010
00001000
00000100
00000010
00000001
33031000
22020100
00000010
33030001
22020010
00000100
33031000
22020010
33030100
,
22020001
00001000
00000010
00000100
00000010
00000100
00000001
33031000
22020010
00000100
33030001
22021000
00000010
33030100
22020001
33031000
,
22020100
00000010
00000001
00000010
00000001
33030010
22020100
00001000
00000010
00000100
00000001
33030010
22020100
00001000
00000100
33030010
,
22020001
00001000
00000001
00001000
00000001
33031000
22020010
00000100
00000010
00001000
00000001
33030100
22020010
00001000
00000001
33030100
,
11110001
00000010
11110100
00001000
11110010
00000100
11110001
00000010
11110100
00001000
11110100
00000010
11110001
00001000
11110001
00000010
,
22220100
00000010
33330001
22220010
00000100
33331000
22220001
33330010
22220100
00001000
00000100
00000010
00000100
00001000
00000100
33330010
,
22220001
00000010
33330100
22220010
00000001
33331000
22220010
33330100
22220001
00001000
00000010
00000100
00000001
00001000
00000010
33330100
,
00020001
00001000
00000010
00000100
00200001
00000010
00000100
00000010
02000001
00001000
00000100
00000010
20000100
00001000
00000010
33330100
,
22220001
00000010
00000100
00001000
00000010
00000100
00000010
00001000
00000001
00000100
00000010
33330100
10010001
00001000
10010010
00000100
,
20021001
00000000
00000000
00000000
00000000
00000000
00000010
30030000
20020110
00000000
00000000
30030000
20021000
00000000
00000001
30030000
,
20020101
00000000
00000000
00000000
00000000
00000000
00000000
00000000
02200000
00000000
00000000
33330000
20020000
00000000
00000000
30030000
,
20020101
00000000
00000000
00000000
00000000
00000000
00000000
00000000
00000010
00000000
00000000
00000000
00000000
00000000
00000000
00000000
00001000
00000000
00000000
00000000
00000000
30030000
00000000
00000000
20020100
00000000
00000000
00000000
00000000
00000000
00000000
00000000
00000010
30030000
00000000
00000000
20021000
00000000
00000000
00000000
00000001
00000000
00000000
00000000
00000000
30030000
00000000
00000000
,
20021001
00000000
00000000
00000000
00000000
00000000
00000010
00000000
00001001
00000000
00000000
30030000
20020000
00000000
00000000
30030000
,
22020101
00000000
00000000
00000000
00001000
00000000
00000010
33030000
22020101
00000000
00000000
33030000
22020001
00000000
00000100
33030000
,
22021010
00000000
00000000
00000000
00000000
00000000
00000000
00000000
00000000
00000000
00000000
33030000
22020000
00000000
00000000
33030000
,
22220101
00000000
00000000
00000000
00000000
00000000
00000000
00000000
00001000
00000000
00000000
00000000
00000000
00000000
00000000
00000000
00000001
00000000
00000000
00000000
00000000
33330000
00000000
00000000
22221010
00000000
00000000
00000000
00000000
00000000
00000000
00000000
00000010
33330000
00000000
00000000
22220000
00000000
00000000
00000000
00000001
00000000
00000000
00000000
00001000
33330000
00000000
00000000
,
22220110
00000000
00000000
00000000
00000000
00000000
00000000
00000000
00000100
00000000
00000000
00000000
00000000
00000000
00000000
00000000
00000001
00000000
00000000
00000000
00000000
00000000
00000000
00000000
00001000
00000000
00000000
00000000
00000010
00000000
00000000
00000000
00001000
00000000
00000000
00000000
00000001
00000000
00000000
00000000
00001000
00000000
00000000
00000000
00000010
33330000
00000000
00000000
,
22221001
00000000
00000000
00000000
33330000
00000010
00000001
00000100
,
22220110
00000000
00000000
00000000
33330000
00000100
00001000
00000100
,
22220100
00000010
00000010
00000001
33330001
00001000
00001000
00000010
,
22220010
00000000
00000000
00000000
00000000
00000000
00000000
00000000
33331000
00000100
00001000
00000100
00001000
00000000
00000000
00000000
,
22221001
00000000
00000000
00000000
00000000
00000000
00000000
00000000
00000100
00000000
00000001
00000000
33331000
00000000
00000000
00000100
00000000
00000000
00000101
00000000
00000000
00001000
00000000
00000000
,
22221100
00000010
00000100
00001000
33330100
00001000
00000100
00000010
,
22221010
00000001
00000010
00000100
33331001
00000010
00000100
00001000
,
22221001
00000000
00000000
00000000
00000001
00000000
00001000
00000000
33331000
00000010
00001000
00000010
00001000
00000000
00000000
00000000
,
20020001
00000010
00000100
00001000
00000001
30030010
20020100
00001000
00000010
00000100
00000010
30031000
20020001
00000100
00000010
30030100
,
20020001
00001000
00000100
00000010
00000001
30031000
20020001
00000010
00000100
00001000
00000010
30030100
20020001
00001000
00000010
30030100
,
20020001
00000010
00000100
00001000
00000100
30031000
20020100
00000010
00000001
00000010
00000100
30031000
20020100
00001000
00000010
30031000
,
11110100
00001000
11110010
00001000
11110001
00000100
11110010
00001000
11110001
00000100
11110010
00001000
11110001
00000010
11110100
00001000
,
22020001
00000100
00000010
00001000
00000001
33030100
22020010
00001000
00000100
00000010
00000001
33031000
22020100
00001000
00000010
33031000
,
22020001
00001000
00000001
00001000
00000100
33031000
22020010
00000100
00000001
00000010
00000001
00000100
00000001
00000100
00000001
33030010
,
22020100
00001000
00000001
00000010
00000100
33030010
22020001
00001000
00000100
00000010
00000100
33031000
22020010
00000100
00000010
33031000
,
22020001
00000100
00000010
00001000
00000100
00000010
00000001
33031000
22020100
00000010
33030001
22020010
00000100
33031000
22020010
33030100
,
22020001
00001000
00000010
00000100
00000010
00000100
00000001
33031000
22020010
00000100
00000001
00001000
00000010
33030100
22020001
33031000
,
22020100
00000010
00000001
00000010
00000001
33030010
22020100
00001000
00000010
00000100
00000001
33030010
22020100
00001000
00000100
33030010
,
22020001
00001000
00000001
00001000
00000001
33031000
22020010
00000100
00000010
00001000
00000001
33030100
22020010
00001000
00000001
33030100
,
11110001
00000010
11110100
00001000
11110010
00000100
11110001
00000010
11110100
00001000
11110100
00000010
11110001
00001000
11110001
00000010
,
22220100
00000010
33330001
22220010
00000100
33331000
22220001
33330010
22220100
00001000
00000100
00000010
00000100
00001000
00000100
33330010
,
22220001
00000010
33330100
22220010
00000001
33331000
22220010
33330100
22220001
00001000
00000010
00000100
00000001
33331000
00020010
00030100
,
00020001
00001000
00000010
00000100
00200001
00000010
00000100
00000010
02000001
00001000
00000100
00000010
20000100
00001000
00000010
33330100
,
22220001
00000010
00000100
00001000
00000010
00000100
00000010
00001000
00000001
00000100
00000010
33330100
10010001
00001000
10010010
00000100
,
20021001
00000000
00000000
00000000
00000000
00000000
00000001
30030000
20021001
00000000
00000000
30030000
20020010
00000000
00000100
30030000
,
20021001
00000000
00000000
00000000
00000000
00000000
00000000
00000000
02200000
00000000
00000000
33330000
20020000
00000000
00000000
30030000
,
20021100
00000000
00000000
00000000
00000000
00000000
00000000
00000000
00000010
00000000
00000000
00000000
00000000
00000000
00000000
00000000
00001000
00000000
00000000
00000000
00000000
30030000
00000000
00000000
20020101
00000000
00000000
00000000
00000000
00000000
00000000
00000000
00000010
30030000
00000000
00000000
20020100
00000000
00000000
00000000
00000001
00000000
00000000
00000000
00001000
30030000
00000000
00000000
,
20020110
00000000
00000000
00000000
00000000
00000000
00000010
00000000
00001100
00000000
00000000
30030000
20020000
00000000
00000000
30030000
,
22020011
00000000
00000000
00000000
00001000
00000000
00000100
33030000
22021001
00000000
00000000
33030000
22020001
00000000
00000100
33030000
,
22021001
00000000
00000000
00000000
00000000
00000000
00000000
00000000
00000000
00000000
00000000
33030000
22020000
00000000
00000000
33030000
,
22220011
00000000
00000000
00000000
00000000
00000000
00000000
00000000
00000101
00000000
00000000
00000000
00000000
00000000
00000000
00000000
00001010
00000000
00000000
00000000
00000000
33330000
00000000
00000000
22221001
00000000
00000000
00000000
00000000
00000000
00000000
00000000
00001010
33330000
00000000
00000000
22220000
00000000
00000000
00000000
00000110
00000000
00000000
00000000
00000000
33330000
00000000
00000000
,
22221001
00000000
00000000
00000100
00001001
00000000
00000000
00000000
,
00001001
00000000
00000000
00000000
33330000
00000000
00000000
00000000
20022002
00000000
00000000
30033003
20022002
00000000
00000000
30033003
,
20020001
00000100
00000010
00001000
00000001
00000010
00000001
30031000
20020100
00001000
00000010
30030100
20020010
00001000
00000001
30030010
,
20020100
00001000
00000100
00000010
00000001
00001000
00000010
30030100
20020001
00001000
00000001
30030010
20020100
00001000
00000010
30031000
,
20020001
00000010
00000100
00001000
00000001
00000010
00000001
00001000
00000100
00001000
00000100
00000010
00000001
00000010
00000001
30031000
,
20020010
00001000
00000010
00000100
00000001
00000100
00000001
30030010
20020100
00000010
00000100
30030010
20020001
00001000
00000001
30030010
,
22020100
00001000
00000001
00000010
00000100
00001000
00000001
33030010
22020100
00001000
00000010
33030100
22020001
00001000
00000001
33031000
,
22020001
00001000
00000010
00000100
00000010
00000100
00000001
33031000
22020010
00000100
00000001
33030010
22020100
00001000
00000001
33030010
,
22020100
00001000
00000010
00001000
00000100
00001000
00000010
00001000
00000001
00000100
00000001
00000010
00000001
00001000
00000100
00000010
,
33030001
00001000
00000001
00000010
00000100
00001000
00000100
00000010
22020001
00001000
00000001
33030100
22020001
00000100
00000010
33031000
,
22220001
00001000
00000010
00000100
00000001
00000010
00000100
33331000
22220010
00000100
00000001
33330010
22220100
00001000
00000001
33330010
,
22220100
00000010
00000001
00001000
00000100
00000010
00000100
33331000
22220001
00000010
00000001
33330100
22220010
00001000
00000100
33331000
,
22220010
00000100
00000010
00001000
00000100
00000010
00000001
33331000
22220010
00000100
00000001
33330010
22220100
00001000
00000001
33331000
,
22220100
00000010
00000001
00000100
00000001
00000010
00000100
33331000
22220010
00000100
00000010
33331000
22220001
00000100
00000010
33330100
,
22220001
00001000
00000010
00000100
00000001
00000010
00000100
33331000
22220100
00000010
00000001
33331000
00020010
00000100
00000001
00001000
,
00200010
00000100
00000001
00000010
00000100
00000010
00000001
00001000
02000100
00000010
00000100
00001000
00000100
00000010
00000001
00000010
,
20000100
00001000
00000001
00000100
00000001
00001000
00000100
00000010
00000001
00000100
00000010
00001000
00000001
00000010
00000100
00001000
,
00000010
00000100
00000001
00001000
33330010
00000100
00000001
00000010
22220100
00001000
00000001
00000010
00000100
00001000
00000001
33330010
,
22221100
00000000
00000001
00001000
00000100
00000000
00001000
00000000
00000100
00000000
00000010
00000000
00000001
00000000
00000000
33330000
,
22221010
00000000
00000001
00000100
00000001
00000000
00000010
00000000
00000001
00000000
00001000
00000000
00000100
00000000
00000000
33330000
,
22221010
00000000
00000001
00001000
00000010
00000000
00000100
00000000
00000001
00000000
00000000
00000000
00000010
00000000
00000000
00000000
,
00000100
00000000
00000000
00000000
00001000
00000000
00000000
00000000
00000010
00000000
00000100
00000000
00000001
00000000
00000000
33330000
,
22221100
00000000
00000001
00001000
00000100
00000000
00000010
00000000
00000001
00000000
00001000
00000000
00000100
00000000
00000000
33330000
,
22220110
00000000
00001000
00000001
00001000
00000000
00000010
00000000
00000100
00000000
00000001
00000000
00001000
00000000
00000000
33330000
,
22220101
00000000
00000010
00001000
00000100
00000000
00000010
00000000
00000001
00000000
00000000
00000000
00000010
00000000
00000000
00000000
,
00001000
00000000
00000000
00000000
00000001
00000000
00000000
00000000
00000100
00000000
00000010
00000000
00001000
00000000
00000000
33330000
,
22220001
00000100
00000010
00001000
00000001
00000010
00000100
00001000
00000100
00000010
00000001
00001000
00000010
00001000
00000100
33331000
,
22220001
00000010
00000001
00001000
00000100
00001000
00000010
00000100
00000001
00001000
00000010
00000100
00000001
00001000
00000010
33330100
,
22220001
00000010
00000100
00001000
00000001
00000010
00000100
00001000
00000100
00000010
00000001
00001000
00000100
00001000
00000001
00000010
,
00000001
00000100
00000001
00001000
00000100
00000010
00000001
00001000
00000100
00000010
00000001
00001000
00000010
00001000
00000001
33330100
,
22220001
00001000
00000010
00001000
00000010
00000100
00000001
00000100
00000001
00001000
00000100
00001000
00000001
00000010
00000001
33331000
,
22220010
00000100
00000001
00001000
00000001
00000010
00000100
00001000
00000100
00000010
00000001
00001000
00000010
00001000
00000100
33331000
,
22220001
00000100
00000010
00001000
00000001
00000100
00000010
00000100
00000010
00000100
00000001
00001000
00000010
00000100
00000001
00001000
,
00000001
00000010
00000100
00001000
00000010
00000100
00000010
00001000
00000100
00000010
00000001
00001000
00000010
00001000
00000001
33330100
,
10010010
00000010
10010001
00000100
10011001
10011001
10010010
00000000
,
10011100
00000001
10010010
00000001
10011100
10011100
10010001
00000000
,
10011010
00000100
10010001
00001000
10010101
10010101
10010010
00000000
,
10011010
00000001
10010100
00000001
10011010
10011010
10010001
00000100
,
11011010
00000100
11010001
00000100
11010011
11010011
11011000
00000000
,
11010110
00000001
11010010
00000001
11010110
11010110
11011000
00000100
,
11011001
00000000
00000000
00000000
11010010
00000000
00000100
00000000
11010010
00000000
11011000
00000010
11011000
00000000
00000001
00000000
,
11011000
00000010
00001000
00000001
11010100
00000001
00001000
00000010
11011000
00000001
11010100
00000001
11011000
00000010
00001000
00000001
,
10011100
00000000
10011000
00000000
10011010
00000000
10011001
00000000
20021000
00000000
00001000
30030000
20021010
00000000
00001000
30030000
,
10011010
00000000
10011100
00000000
10011001
00000000
10011010
00000000
20021001
00000000
00000100
00000000
00000010
00000000
00000001
30030000
,
10010011
00000000
10011001
00000000
10010101
00000000
10010011
00000000
20020001
00000000
00000001
30030000
20021001
00000000
00000001
30030000
,
10010101
10010011
10011001
10010101
10011001
10010011
10011010
10010101
,
10010110
00000000
10011001
00000000
10011100
00000000
10010011
00000000
20021000
00000000
00000010
30030000
20020101
00000000
00000010
30030000
,
10011100
00000000
10011001
00000000
10010101
00000000
10011010
00000000
20020011
00000000
00000100
30030000
10010011
00000000
10011010
00000000
,
10010110
00000000
00000001
00000000
10010110
00000000
10011000
00000000
10010101
00000000
10011000
10010010
10010100
00000000
10011000
00000000
,
20020010
00000100
00000001
00001000
00000010
00000100
00000001
00001000
00000010
00000100
00000001
00001000
00000010
00000100
00000001
30031000
,
11110100
00000000
00000001
00001000
11110110
00000000
00001000
00000010
,
11110101
00000010
00000100
00001000
11110101
00000000
00000010
00000000
,
11110011
00000000
00000100
00000010
11111010
00000000
00000100
00000010
,
11111001
00000100
00000010
00001000
11110011
00000000
00000000
00000000
,
22220220
00000000
00000000
00000000
00000000
00000000
00000000
00000000
00000000
00000000
00000000
00000000
00000000
00000000
00000000
33330330
,
20020001
00000100
00000010
00001000
00000001
00000010
30030001
20021000
00000100
00001000
00000010
30030100
20020010
00001000
00000001
30030010
,
20020100
00001000
00000100
00000010
00000001
00001000
00000010
30030100
20020001
00001000
00000001
00000010
00000100
00001000
00000010
30031000
,
20020001
00000010
00000100
00001000
00000001
30030010
20020001
00001000
00000100
00001000
00000100
30030010
20020001
00000010
00000001
30031000
,
11110010
00001000
11110010
00000100
11110001
00000100
11110001
00000010
11110100
00000010
11110100
00000010
11110001
00001000
11110001
00000010
,
22020100
00001000
00000001
00000010
00000100
33031000
22020001
00000010
00000100
00001000
00000010
33030100
22020001
00001000
00000001
33031000
,
22020001
00001000
00000010
00000100
00000010
33030100
22020001
00001000
00000010
33030100
22020001
33030010
22020100
00001000
00000001
33030010
,
22020100
00001000
00000010
00001000
00000100
33031000
22020010
00001000
00000001
00000100
00000001
33030010
22020001
00001000
00000100
33030010
,
22020001
00001000
00000001
00000010
00000100
00001000
00000100
33030010
22020001
00001000
33030001
22020100
00000001
33030100
22020010
33031000
,
22220001
00001000
00000010
00000100
00000001
00000010
00000100
33331000
22220010
00000100
33330001
22220010
00000100
33331000
22220001
33330010
,
22220100
00000010
00000001
00001000
00000100
33330010
22220100
00001000
00000001
00000010
00000001
33330100
22220010
00001000
00000100
33331000
,
22220010
00000100
00000010
00001000
00000100
33330010
22220001
00001000
00000010
00000100
00000001
33330010
22220100
00001000
00000001
33331000
,
11110100
00000010
11110001
00000100
11110001
00000010
11110100
00001000
11110010
00000100
11110010
00001000
11110001
00000100
11110010
00000100
,
22220001
00001000
33330010
22220100
00000001
33330010
22220100
33331000
22220100
00000010
00000001
00001000
00000010
00000100
00000001
33331000
,
22220010
00000100
33330001
22220010
00000100
33330010
22220001
33331000
22220100
00000010
00000100
00001000
00000100
00000010
00000001
33330010
,
22220100
00001000
00000001
33330100
00020001
00001000
00000100
00000010
00200001
00000100
00000010
00001000
02000001
00000010
00000100
00001000
,
20000010
00000100
00000001
00001000
00000010
00000100
00000001
00000010
00000100
00001000
00000001
33330010
22220100
33331000
22220001
33330010
,
20021100
00000000
00000000
00000000
00000000
00000000
00000100
30030000
20021001
00000000
00000000
30030000
20020001
00000000
00001000
30030000
,
20020011
00000000
00000000
00000000
00000000
00000000
00000000
00000000
00200000
00000000
00000000
00000000
02000000
00000000
00000000
33330000
,
20021100
00000000
00000000
00000000
00000000
00000000
00000000
30030000
20020000
00000000
00000000
30030000
20020000
00000000
00000000
30030000
,
20020011
00000000
00000000
00000000
00000000
00000000
00001000
00000000
00001001
00000000
00000000
30030000
20020000
00000000
00000000
30030000
,
22020101
00000000
00000000
00000000
00000010
00000000
00001000
33030000
22021100
00000000
00000000
33030000
22020010
00000000
00000001
33030000
,
22021001
00000000
00000000
00000000
00000000
00000000
00000000
00000000
00000000
00000000
00000000
33030000
22020000
00000000
00000000
33030000
,
22220101
00000000
00000000
00000000
00000000
00000000
00000000
33330000
22220000
00000000
00000000
33330000
22220000
00000000
00000000
33330000
,
22221010
00000000
00000000
00000010
00000110
00000000
00000000
00000000
,
00001001
00000000
00000000
00000000
33330000
00000000
00000000
00000000
02200000
00000000
00000000
00000000
20020000
00000000
00000000
33330000
,
20020001
00000100
00000010
00001000
00000001
00000010
00000001
30031000
20020100
00001000
00000010
30030100
20020010
00001000
00000001
30030010
,
20020100
00001000
00000100
00000010
00000001
00001000
00000010
30030100
20020001
00001000
00000001
30030010
20020100
00001000
00000010
30031000
,
20020001
00000010
00000100
00001000
00000001
00000010
00000001
00001000
00000100
00001000
00000100
00000010
00000001
00000010
00000001
30031000
,
20020010
00001000
00000010
00000100
00000001
00000100
00000001
30030010
20020100
00000010
00000100
30030010
20020001
00001000
00000001
30030010
,
22020100
00001000
00000001
00000010
00000100
00001000
00000001
33030010
22020100
00001000
00000010
33030100
22020001
00001000
00000001
33031000
,
22020001
00001000
00000010
00000100
00000010
00000100
00000001
33031000
22020010
00000100
00000001
33030010
22020100
00001000
00000001
33030010
,
22020100
00001000
00000010
00001000
00000100
00001000
00000010
00001000
00000001
00000100
00000001
00000010
00000001
00001000
00000100
00000010
,
33030001
00001000
00000001
00000010
00000100
00001000
00000100
00000010
22020001
00001000
00000001
33030100
22020001
00000100
00000010
33031000
,
22220001
00001000
00000010
00000100
00000001
00000010
00000100
33331000
22220010
00000100
00000001
33330010
22220100
00001000
00000001
33330010
,
22220100
00000010
00000001
00001000
00000100
00000010
00000100
33331000
22220001
00000010
00000001
33330100
22220010
00001000
00000100
33331000
,
22220010
00000100
00000010
00001000
00000100
00000010
00000001
33331000
22220010
00000100
00000001
33330010
22220100
00001000
00000001
33331000
,
22220100
00000010
00000001
00000100
00000001
00000010
00000100
33331000
22220010
00000100
00000010
33331000
22220001
00000100
00000010
33330100
,
22220001
00001000
00000010
00000100
00000001
00000010
00000100
33331000
22220100
00000010
00000001
33331000
00020010
00000100
00000001
00001000
,
00200010
00000100
00000001
00000010
00000100
00000010
00000001
00001000
02000100
00000010
00000100
00001000
00000100
00000010
00000001
00000010
,
20000100
00001000
00000001
00000100
00000001
00001000
00000100
00000010
00000001
00000100
00000010
00001000
00000001
00000010
00000100
00001000
,
00000010
00000100
00000001
00001000
00000010
00000100
00000001
33330010
22220100
00001000
00000001
33330010
22220100
00001000
00000001
33330010
,
20020001
00000100
00000010
00001000
00000001
00000010
00000001
30031000
20020100
00001000
00000010
30030100
20020010
00001000
00000001
30030010
,
20020100
00001000
00000100
00000010
00000001
00001000
00000010
30030100
20020001
00001000
00000001
30030010
20020100
00001000
00000010
30031000
,
20020001
00000010
00000100
00001000
00000001
00000010
00000001
00001000
00000100
00001000
00000100
00000010
00000001
00000010
00000001
30031000
,
20020010
00001000
00000010
00000100
00000001
00000100
00000001
30030010
20020100
00000010
00000100
30030010
20020001
00001000
00000001
30030010
,
22020100
00001000
00000001
00000010
00000100
00001000
00000001
33030010
22020100
00001000
00000010
33030100
22020001
00001000
00000001
33031000
,
22020001
00001000
00000010
00000100
00000010
00000100
00000001
33031000
22020010
00000100
00000001
33030010
22020100
00001000
00000001
33030010
,
22020100
00001000
00000010
00001000
00000100
00001000
00000010
00001000
00000001
00000100
00000001
00000010
00000001
00001000
00000100
00000010
,
33030001
00001000
00000001
00000010
00000100
00001000
00000100
00000010
22020001
00001000
00000001
33030100
22020001
00000100
00000010
33031000
,
22220001
00001000
00000010
00000100
00000001
00000010
00000100
33331000
22220010
00000100
00000001
33330010
22220100
00001000
00000001
33330010
,
22220100
00000010
00000001
00001000
00000100
00000010
00000100
33331000
22220001
00000010
00000001
33330100
22220010
00001000
00000100
33331000
,
22220010
00000100
00000010
00001000
00000100
00000010
00000001
33331000
22220010
00000100
00000001
33330010
22220100
00001000
00000001
33331000
,
22220100
00000010
00000001
00000100
00000001
00000010
00000100
33331000
22220010
00000100
00000010
33331000
22220001
00000100
00000010
33330100
,
22222002
00000000
00000000
00000000
00000000
00000000
00000000
33330000
22220000
00000000
00000000
33330000
22220000
00000000
00000000
33333003
,
00022002
00000000
00000000
00000000
00000000
00000000
00000000
00000000
00200000
00000000
00000000
00000000
00000000
00000000
00000000
00003003
,
02002002
00000000
00000000
00000000
00000000
00000000
00000000
00000000
00000000
00000000
00000000
00000000
00000000
00000000
00000000
00003003
,
20002002
33333003
00000000
00000000
;
