#TITLE:Under Scarlet Moonlight;
#SUBTITLE:-1st Anniversary Remix-;
#ARTIST:EastNewSound;
#TITLETRANSLIT:;
#SUBTITLETRANSLIT:;
#ARTISTTRANSLIT:;
#CREDIT:;
#BANNER:Under Scarlet Moonlight -bn.jpg;
#BACKGROUND:Under Scarlet Moonlight -bg.jpg;
#LYRICSPATH:;
#CDTITLE:!StepmaniaFreak Title.png;
#MUSIC:Under Scarlet Moonlight.mp3;
#OFFSET:-7.340;
#SAMPLESTART:84.100;
#SAMPLELENGTH:12.800;
#SELECTABLE:YES;
#DISPLAYBPM:150.000;
#BPMS:0.000=37.500,4.000=74.000,11.000=75.000,18.000=300.000,19.000=225.000,20.000=187.500,21.000=150.000,51.000=300.000,52.000=225.000,53.000=186.500,54.000=150.000,86.000=75.000,86.500=150.000,115.000=300.000,116.000=225.000,117.000=187.500,118.000=150.000,148.000=300.000,149.000=225.000,150.000=187.500,151.000=150.000,153.000=75.000,160.000=77.000,161.000=150.500,162.000=150.000,174.000=151.500,175.000=75.000,175.500=150.000,189.000=149.000,192.000=150.000,204.000=300.000,205.000=225.000,206.000=187.500,207.000=150.000,237.000=300.000,238.000=225.000,239.000=187.500,240.000=150.000,242.000=76.500,243.000=75.000,249.000=74.000,250.000=75.000;
#STOPS:18.000=0.010
,51.000=0.010
,86.500=0.210
,115.000=0.020
,148.000=0.010
,175.500=0.200
,204.000=0.020
,237.000=0.020
;
#BGCHANGES:;
// cache tags:
#FIRSTBEAT:4.000;
#LASTBEAT:258.000;
#SONGFILENAME:Songs/StepmaniaFreak's Favorites/Under Scarlet Moonlight (SMF)/Under Scarlet Moonlight.sm;
#HASMUSIC:1;
#HASBANNER:1;
#MUSICLENGTH:131.056;
// end cache tags

//---------------dance-single - ----------------
#NOTES:
     dance-single:
     :
     Hard:
     11:
     0.985,1.000,1.000,0.107,0.782,642.000,248.000,14.000,0.000,0.000:
0000
0000
0000
0000
,
1010
0001
0110
0000
0011
1000
0101
0000
1001
0000
0110
0001
1100
0000
0011
0000
,
1010
0000
0000
0000
0110
0000
0001
0000
1000
0000
0010
0100
0001
0000
0010
0000
0100
0000
1000
0000
0010
0000
0100
0000
0011
0000
0000
0000
0000
0000
0000
0000
,
1010
0001
1100
0000
0101
0010
1100
0000
0110
0000
1100
0010
1001
0000
0011
0000
,
1010
0000
0000
0000
0011
0000
1000
0000
0001
0000
0100
0010
1000
0000
0001
0000
2200
0000
0000
0000
0000
0000
0000
0000
0000
0000
0000
0000
0000
0000
0000
0000
,
0000
0000
3300
0000
0010
1000
0100
0000
0010
1000
0100
1000
0011
0000
1100
0000
,
0011
0000
1000
0010
0000
0100
0001
0010
0100
1000
0010
0100
0011
0000
1010
0000
,
0101
0000
0100
0010
0000
1000
0001
0010
1000
0100
0010
1000
0101
0000
0110
0000
,
1001
0000
0100
0010
0000
1000
0001
0010
1000
0100
0010
1000
0011
0000
0110
0000
,
1100
0000
0011
1100
0000
0001
1000
0010
0100
0001
0010
0001
1100
0000
0110
0000
,
0011
0000
0100
0010
0000
1000
0001
1000
0010
0100
1000
0100
0011
0000
1010
0000
,
0110
0000
1000
0010
0000
0100
0001
0100
0010
0001
1000
0100
0011
0000
0110
0000
,
0011
0000
1000
0100
0000
0010
0001
0100
0010
1000
0100
1000
0022
0000
0000
0000
,
0000
0000
0000
0000
0000
0000
0033
0000
1000
0010
0100
0000
0001
0010
0100
1000
,
0011
1000
0011
0110
1000
0101
0001
0101
,
0010
1001
0010
0110
0101
0011
0101
1000
,
0011
1000
0011
0101
0010
1100
1000
1010
,
0100
0101
0011
0101
1001
0110
1001
1001
,
1100
0001
1010
0011
1000
0101
1000
0011
,
0100
0101
1001
0101
1100
1000
1010
0001
,
1010
0100
0101
1001
0010
1010
1001
1010
,
0110
0000
0011
0000
1010
0000
0110
0000
1010
1010
0011
0000
1000
0000
0001
0100
,
0010
0000
1000
0100
0010
0000
0001
1000
0010
0000
1000
0001
0100
0000
0001
0010
,
0100
0000
1000
0010
0100
0000
0001
0010
0100
1000
0010
0100
0011
0000
1000
0100
,
0011
0000
0001
0010
0100
0000
1100
0000
0100
0010
0001
0100
1010
0000
0001
0100
,
1010
0000
0010
0100
0011
0000
0101
0000
0011
0000
0101
0000
1001
0000
0010
0100
,
0001
1000
0100
1000
0001
0100
0010
0001
0010
1000
0100
0010
0001
0100
0010
0001
,
0100
1000
0010
0100
0001
0010
0100
0010
0001
1000
0100
0001
0010
0100
0001
1000
,
0100
0010
0001
1000
0011
0000
0101
0000
0011
0000
0101
0000
2002
0000
0000
0000
,
0000
0000
0000
0000
0000
0000
3003
0000
0001
0010
0100
0000
1000
0010
0100
0001
,
0101
0000
0000
0001
1000
0000
0010
0000
0101
0000
0000
1000
0011
0000
1100
0000
,
0011
0000
0000
1010
0000
0000
0011
0000
1001
0000
0001
0100
0010
1000
0100
0010
,
0101
0000
1000
0010
1100
0000
1100
0000
0101
0000
1000
0001
1100
0000
0011
0000
,
1001
0000
0001
1000
0101
0000
1000
0011
0000
0000
0000
0000
0000
0000
0010
1000
,
0101
0000
1000
0000
0011
0000
0100
0010
1001
0000
0001
1000
0010
0000
0100
0000
,
0011
0000
0000
0101
0000
0000
1100
0000
1010
0000
0001
0100
0010
1000
0100
0010
,
0101
0000
1000
0101
0000
0000
0001
0000
1100
0000
0001
1100
0000
0010
0100
0000
,
2002
0000
0000
0000
0000
0000
0000
0000
0000
0000
3003
0000
1000
0010
0100
0000
,
0001
0100
0010
1000
0101
0000
1001
1100
0000
1001
0101
0011
0000
1001
1100
1010
,
1001
0101
1001
0000
0011
0000
1010
0110
0000
1001
0101
1001
0000
0011
1100
0110
,
0011
1010
0011
0011
1100
0000
0001
0000
1100
0000
0110
0000
0001
0000
1010
0000
,
1100
1010
0100
1001
0100
0110
1010
1100
,
1010
0001
1100
0001
1100
1010
0100
0011
,
0101
0000
0011
0000
0100
0000
1010
0000
1100
0000
1000
0000
1010
1010
0011
0000
,
1100
0000
0001
0100
0010
0000
1000
0100
0010
0000
0001
1000
0100
0000
0010
0001
,
1000
0000
0010
0100
0001
0000
0010
0100
1000
0000
0001
0100
0010
0001
1000
0100
,
0011
0000
1000
0100
0011
0000
0001
0010
0100
0000
0011
0000
1000
0010
0100
0001
,
1010
0000
0100
0001
1010
0000
0001
0010
1100
0000
0011
0000
1100
0000
0011
0000
,
1100
0001
0010
0100
1000
0100
0010
0100
0001
1000
0100
0001
0010
0100
1000
0010
,
0100
0001
0010
0001
0100
0010
1000
0100
1000
0001
0100
0010
0001
0010
0100
0001
,
1000
0100
1000
0010
0001
0010
1000
0001
1100
0000
1010
0000
1100
0000
1010
0000
,
2002
0000
0000
0000
0000
0000
0000
0000
0000
0000
3003
0000
0001
0100
0010
0000
,
1000
0010
0100
0001
1010
0000
0000
0001
0100
0000
0010
0000
1001
0000
0000
0001
,
1010
0000
0011
0000
1100
0000
0000
0011
0000
0000
0110
0000
1001
0000
1000
0010
,
0100
0001
1000
0100
1010
0000
0001
0010
0101
0000
0101
0000
1100
0000
0010
0100
,
1001
0000
0011
0000
1001
0000
1000
0010
1100
0000
0101
0000
0110
0000
0000
0000
,
0000
0000
0001
0100
1010
0000
0001
0000
0101
0000
1000
0010
1001
0000
0001
1000
,
0100
0000
1000
0000
0011
0000
0000
1100
0000
0000
0101
0000
1010
0000
0001
1000
,
0010
0100
0001
0010
0101
0000
1000
0101
0000
0000
0001
0000
0110
0000
0001
1100
,
0000
0010
0100
0000
2002
0000
0000
0000
0000
0000
0000
0000
0000
0000
0000
0000
,
0000
0000
0000
0000
0000
0000
3003
0000
1010
0001
0110
0000
1100
0001
1010
0000
,
0110
0000
0000
0000
0011
0000
0100
0000
1010
0000
0000
0000
1001
0000
0000
0000
0011
0000
0000
0000
1000
0000
0010
0000
0100
0000
0001
1000
0010
0000
1000
0000
,
0001
0010
0100
1000
0101
0000
0000
0000
0110
1000
0101
0000
1010
0001
0110
0000
,
0011
0000
0000
0000
1001
0000
0100
0000
1010
0000
0000
0000
1001
0000
0000
0000
0110
0000
0000
0000
0001
0000
1000
0000
0010
0000
0100
0001
0010
0000
0100
0000
,
2002
0000
3003
0000
;
