#TITLE:Trip To;
#SUBTITLE:Beyond Abilities (2002);
#ARTIST:Warmen;
#TITLETRANSLIT:;
#SUBTITLETRANSLIT:;
#ARTISTTRANSLIT:;
#CREDIT:;
#BANNER:Trip To.jpg;
#BACKGROUND:Trip To-bg.jpg;
#LYRICSPATH:;
#CDTITLE:!ElectricWerewolf.png;
#MUSIC:Warmen - Trip To.mp3;
#OFFSET:1.122;
#SAMPLESTART:71.237;
#SAMPLELENGTH:12.000;
#SELECTABLE:YES;
#BPMS:0.000=192.190;
#STOPS:;
#BGCHANGES:;
// cache tags:
#FIRSTBEAT:3.667;
#LASTBEAT:465.000;
#SONGFILENAME:Songs/Astronomic Metal Collection/Trip To (ElectricWerewolf)/Trip To.sm;
#HASMUSIC:1;
#HASBANNER:1;
#MUSICLENGTH:145.528;
// end cache tags

//---------------dance-single - ----------------
#NOTES:
     dance-single:
     :
     Medium:
     12:
     1.000,1.000,0.014,0.392,1.000,1226.000,2.000,57.000,0.000,0.000:
0000
0000
0000
0000
0000
0000
0000
0000
0000
0000
0000
0000
0000
0000
0000
0000
0000
0000
0000
0000
0000
0000
1000
0100
,
0010
0001
1000
0100
1000
0100
0010
0001
1000
0100
1000
0100
,
0010
0001
0100
0010
0100
0010
1000
0001
0010
0100
0010
0100
,
1000
0001
0100
0010
1000
0001
1000
0100
0010
0100
1000
0010
,
0100
0000
0001
1000
0001
0000
0010
0000
0100
0000
1000
0000
0010
0000
0100
0000
0001
0000
1000
0000
0001
0000
0010
0000
,
0100
1000
0001
0010
0100
0010
0001
1000
0010
0100
0001
1000
,
0010
1000
0100
0010
0001
0100
0010
1000
0100
1000
0001
0100
,
0010
1000
0001
0010
0100
0010
0001
0100
0001
1000
0100
0010
,
0001
1000
0010
1000
0100
0010
0001
0100
0001
0010
0100
0010
,
0001
0100
0001
1000
0100
1000
0010
0100
0010
1000
0100
0010
,
0001
0100
0001
0010
0100
1000
0001
0100
0001
1000
0100
0010
,
0001
1000
0010
1000
0100
1000
0001
1000
0100
0010
0001
0100
,
0010
1000
0100
0010
0001
0100
0001
1000
0010
0100
0001
1000
,
0010
1000
0100
1000
0100
1000
0010
1000
0100
1000
0100
1000
,
0010
0100
0001
0010
0100
0010
0001
0100
0010
1000
0001
0100
,
0020
0000
0000
0000
0000
0000
0000
0000
0000
0030
0000
0000
0100
0001
0000
0000
0000
0000
0000
0000
0000
0010
0000
0000
,
0000
0001
0000
1000
0000
0100
0100
0000
,
0010
0000
0000
0000
0001
0000
0000
0001
0000
0000
0100
0000
0000
0010
1000
0000
,
1000
0100
0000
0100
0010
0000
0001
0100
0000
0100
0010
1000
0001
0010
0100
0000
,
1000
0000
0000
0000
0001
0000
0100
0010
0100
0001
1000
0100
0000
0001
0100
0010
,
1000
0010
0000
0100
0001
1000
0100
0010
0000
0100
1000
0001
0100
0010
0000
0000
,
0001
0010
0001
0010
0100
1000
0001
0100
0001
1000
0100
0010
,
0100
0010
0001
0100
0010
1000
0100
0000
0100
1000
0000
0000
,
0101
0000
2000
0100
0010
0000
0100
0100
,
0000
0000
0000
0100
0010
0000
0001
0010
,
0100
0000
0000
0100
0010
0000
0100
0100
,
0000
0000
0000
0100
3002
0000
0010
1000
,
0100
0000
0000
0100
1000
0000
0100
0100
,
0000
0000
0000
0000
0000
0000
0000
1003
0100
0010
0001
0010
0100
1000
0010
0100
,
0001
1000
0100
0010
0100
1000
0010
0100
0001
1000
0001
0020
0000
0000
0000
0000
,
0130
1000
0001
0100
0010
1000
0100
1000
0001
0100
0020
0000
0000
0000
0000
1030
,
0100
0010
0100
1000
0001
0100
0010
0100
0001
0010
0001
1000
0010
2000
0000
0000
,
0000
3100
0010
0001
0100
0010
1000
0010
0100
0001
1000
0100
0010
0100
0010
0001
,
1000
0001
0100
0001
0010
0100
0010
0001
1000
0100
0010
0100
1000
0010
0100
0010
,
1000
0001
0100
0001
0010
0001
1000
0010
0100
0001
1000
0100
1000
0010
0100
0001
,
0020
0000
0000
0000
0130
1000
0020
0000
0000
0130
0001
1000
0001
0100
0010
1000
,
0200
0000
0000
0320
0000
0230
1300
0001
,
1000
0100
0010
0100
1000
0100
0010
0100
1000
0100
0010
0001
0010
0100
0010
0001
,
0010
0100
0010
0100
1000
0100
0010
0001
0010
0100
1000
0100
1000
0100
0010
0001
,
1000
0010
0100
0001
0100
0010
0100
0001
0100
0010
1000
0010
0100
0001
0100
0010
,
1000
0100
1000
0010
0100
0001
0100
0020
0000
1030
0100
0010
0100
1000
0001
0100
,
0010
0100
0001
1000
0010
0100
0001
1000
0001
0100
0001
0010
0100
1000
0010
0100
,
0002
0000
0000
0000
0000
0103
0001
1000
0100
0010
0100
1000
0010
0100
0001
1000
,
0200
0000
0000
0310
0000
0001
0200
0000
0000
0310
0000
0000
,
1000
0000
0000
0000
0000
0000
1000
0000
0000
0100
0000
0000
0010
0000
0000
0000
0000
0000
0000
0000
0001
0000
0000
0000
2000
0000
0000
0000
0000
0000
0000
0000
0000
0000
0000
0000
3010
0000
0000
0000
0000
0000
0000
0000
0000
0000
0000
0000
,
0100
0000
0000
0000
0000
0000
0100
0000
0000
0001
0000
0000
0010
0000
0000
0000
0000
0000
0000
0000
0100
0000
0000
0000
0010
0000
0000
0000
0000
0000
0000
0000
0001
0000
0000
0000
1000
0000
0000
0000
0000
0000
0000
0000
0010
0000
0000
0000
,
0100
0001
1000
0100
0010
0100
1000
0001
0020
0000
0000
0031
0010
0100
1000
0010
,
0100
0001
1000
0100
0010
0001
1000
0010
0200
0000
0000
0000
0000
0000
0000
0000
,
0000
0000
0300
0100
0010
1000
0100
0010
0001
0100
0001
1000
0100
0010
0001
0010
,
0002
0000
0000
2003
0000
0000
0000
0000
3100
0010
0100
1000
0001
0100
0010
1000
,
0010
0100
0001
0010
0001
0000
1000
0100
0010
0001
0010
0100
1000
0001
0100
0010
,
2000
0000
0000
0000
0000
0000
3100
0000
0010
0001
0100
0001
1000
0100
0010
0100
,
1000
0010
0100
0001
0010
0100
0010
0001
1000
0010
0100
0001
0100
0010
1000
0100
,
1000
0001
0020
0000
0130
1000
0100
0010
0001
0020
0000
0000
0031
1000
0010
0100
,
0010
1000
0100
1000
0001
0100
0010
0100
0001
0010
0100
1000
0010
0100
0001
1000
,
0020
0000
0000
0000
,
1030
0001
0010
0100
0010
0001
0100
0010
1000
0001
0100
0001
,
1000
0100
0010
0100
1000
0010
0100
0001
1000
0100
1000
0001
,
0010
0100
0010
0001
1000
0001
0100
0010
1000
0010
0100
0001
,
0010
0100
0010
0001
1000
0100
0010
0001
0100
0010
0100
0001
,
1000
0010
1000
0001
0010
0001
0100
0010
0100
0001
1000
0100
,
0010
0100
1000
0010
0100
0010
1000
0100
0010
0001
0100
0001
,
0010
0100
1000
0001
0100
0001
0010
0100
0010
0001
1000
0001
,
0100
0010
1000
0100
0010
0100
1000
0001
1000
0010
0100
0010
,
1000
0001
0010
0001
0100
0010
1000
0100
0010
0001
0100
0001
,
1000
0100
1000
0010
0100
0010
1000
0001
1000
0001
0010
0001
,
0100
0010
1000
0010
1000
0010
0100
0010
1000
0010
1000
0010
,
0100
0001
1000
0100
0010
0100
1000
0010
0100
0001
1000
0100
,
1000
0010
0100
0001
0100
0010
1000
0010
0100
0001
0100
0010
,
1000
0010
1000
0010
0100
0001
0100
0010
1000
0010
1000
0010
0100
0001
0100
0001
,
0010
0100
1000
0001
1000
0100
0010
0100
1000
0001
1000
0100
,
0010
0100
0010
0100
1000
0001
1000
0100
0010
0100
0010
0100
1000
0001
1000
0100
,
0010
0001
1000
0100
1000
0001
0010
0001
1000
0100
1000
0001
,
0010
0001
0010
0001
1000
0100
1000
0001
0010
0001
0010
0001
1000
0100
1000
0001
,
0100
0010
1000
0001
1000
0010
0100
0010
1000
0001
1000
0010
,
0100
0010
0100
0010
1000
0001
1000
0010
0100
0010
0100
0010
1000
0001
1000
0010
,
0100
0010
0100
0010
1000
0001
1000
0010
0100
0010
0100
0010
1000
0001
1000
0010
,
0100
0001
0010
0100
0010
0001
0100
0010
1000
0001
0100
0001
1000
0100
0010
0001
,
0200
0000
0000
0000
0000
0000
0000
0000
0000
0000
0310
0000
0000
0010
0000
0000
,
0020
0000
0000
0000
1030
0010
0100
0001
,
0200
0000
0000
0000
0000
0000
0300
0020
,
0000
0000
0000
0000
0000
0000
1030
0000
0100
0000
1000
0000
0200
0000
0000
0000
0000
0000
0310
0000
0000
0002
0000
0000
,
0000
0000
0103
0010
2000
0000
3001
0010
,
0002
0000
0103
0010
0200
0000
0301
1000
,
0001
1000
0100
0010
0001
0010
0100
0200
,
0000
0000
0000
0000
0000
0000
0000
2300
,
0000
0000
3001
0010
0001
0010
0100
0001
,
1000
0010
1000
0010
0100
0001
0000
0020
,
0000
0130
0010
0100
1000
0001
0100
0001
,
0010
0100
0010
0001
2000
0000
0000
0000
,
3200
0000
0000
0000
0320
0000
0230
0000
0320
0000
0230
0000
,
0320
0000
0230
0000
2300
0000
0000
0000
0000
0000
0000
0000
,
3001
0000
0020
0000
0000
0000
0000
0030
0020
0000
0130
0000
1000
0000
0001
0000
,
1000
0001
0200
0000
0000
0000
0000
0000
,
0310
1000
0001
0010
0100
0010
0001
0100
0010
1000
0100
0010
0001
0010
0100
1000
,
0100
0010
0100
1000
0001
0100
0010
1000
0010
0100
0001
0010
0100
1000
0001
0100
,
0010
1000
0100
0010
0001
0010
0100
1000
0001
0100
0001
0010
0100
0010
0001
1000
,
0010
1000
0100
0010
0001
0010
0100
1000
0001
0100
0001
1000
0010
1000
0001
0100
,
0010
1000
0100
0010
0001
0010
0100
1000
0001
0100
0001
0010
0100
0010
0001
1000
,
0010
1000
0100
0010
0001
0010
0100
1000
0001
0100
0001
0010
0100
0010
0001
1000
,
0010
1000
0100
0010
0001
0010
0100
1000
0020
0000
0000
0000
0130
0000
0001
0000
,
0001
0001
0001
0001
1001
0000
2000
0000
,
3100
0000
0100
0010
0001
0100
0010
1000
0010
0100
0001
1000
0100
0010
0100
1000
,
0010
0100
0001
1000
0001
0100
0010
1000
0100
1000
0001
0100
0010
0100
0001
1000
,
0020
0000
0030
2000
0000
0000
0000
3000
,
0001
0000
0000
0000
0000
0000
0002
0000
0000
0003
0000
0000
0002
0000
0000
0000
0000
0000
0003
0000
0000
0000
0000
0020
,
0000
0000
0000
0000
0000
0000
0000
0000
0000
0030
0000
0000
0010
0000
0000
0000
0100
0000
0000
0000
0100
0000
0000
0000
,
0020
0000
0000
0000
0030
0000
0000
0000
0010
0000
0000
0000
0001
0010
0100
1000
,
0010
0100
0001
1000
0100
0010
0001
0100
0010
1000
0001
0010
,
0001
0100
0010
1000
0100
1000
0001
0100
0010
1000
0100
0010
,
0001
0100
0001
1000
0100
1000
0010
0100
0010
1000
0100
0010
,
0001
0100
0001
1000
0010
1000
0001
0010
0100
0010
0001
0100
,
0010
1000
0001
0100
0001
1000
0100
0010
0001
0100
0001
1000
,
0010
1000
0100
0010
0100
1000
0010
0100
0001
1000
0001
1000
,
0010
0100
0001
0100
0001
0100
0010
0100
0001
0100
0001
0100
,
0010
1000
0001
0010
0100
1000
0001
0100
0010
1000
0001
1000
,
0020
0030
0000
0000
;

//---------------dance-single - ----------------
#NOTES:
     dance-single:
     :
     Easy:
     7:
     0.581,0.717,0.474,0.199,0.072,494.000,69.000,29.000,0.000,0.000:
0000
0000
0000
0000
,
0000
0000
0000
0000
,
0000
0000
0000
0000
,
0000
0000
0000
0000
,
0000
0000
0000
0000
,
0001
1000
0100
0010
,
0100
1000
0010
0100
,
0001
1000
0100
0010
,
0100
1000
0001
0100
,
0010
1000
0001
0010
,
0100
1000
0001
0100
,
0010
1000
0001
0010
,
0100
1000
0010
0100
,
0001
0000
0001
0000
,
0001
0001
1000
1000
,
0010
0000
0000
0000
0100
0000
0000
0001
,
0000
1000
0000
0100
0000
1000
0010
0000
,
0100
0000
0000
0000
0001
0000
0000
0001
0000
0000
1000
0000
0000
0001
0000
0000
,
0010
0000
0000
0100
0000
0000
1000
0000
0000
0010
0000
0000
0000
0000
0000
0000
,
0101
0000
0000
1000
0000
0000
0000
0000
1000
0000
0000
0000
,
0000
0000
1000
0000
0000
0000
0000
0000
0000
0000
0000
0000
0000
0000
0000
0000
0000
0000
0000
0000
0000
1000
0000
0000
0000
0000
0000
0000
0000
0000
0000
0000
0000
0000
0000
0000
0000
0000
0000
1000
0000
0000
0000
0000
0000
0000
0000
0000
,
0001
0000
0000
0000
0010
0000
0000
0100
,
0000
1000
0010
0100
,
2001
0000
0000
0000
0010
0000
0000
0001
,
0000
0000
0100
0001
,
0001
0000
0000
0000
0100
0000
0000
0010
,
0000
0000
3002
1000
,
1000
0000
0000
0000
0010
0000
0000
0100
,
0000
0000
1003
0100
,
0100
0000
0000
0000
0010
0000
0000
0001
,
0000
0100
0010
1000
0000
0000
0010
0000
,
0100
0000
0000
0100
0001
0000
1000
0100
,
0000
0000
0010
0100
1000
0000
0001
0010
,
0001
1000
0000
1000
0010
0000
0010
0100
,
0000
0001
1000
0100
0000
0100
0010
0001
,
0100
0010
0000
0010
1000
0000
1000
0001
,
0000
0000
0100
0001
0010
0000
0010
0001
,
0010
0100
0000
0100
1000
0000
0001
1000
,
0010
0000
1000
0000
0000
0000
1000
0000
0001
1000
0000
0000
0100
0000
0010
0000
,
0001
1000
0000
1000
0010
0000
1000
0100
,
0000
0010
0000
0100
0000
0100
0010
0001
,
0010
0100
0000
0100
1000
0000
0001
0100
,
0010
1000
0000
1000
0000
1000
0000
1000
,
0001
0000
0010
0100
0010
0000
0001
1000
,
0000
0010
0000
0100
0000
0100
0001
0010
,
0001
1000
0000
1000
0010
0000
0100
0001
,
1000
0001
0000
0000
0000
0000
0000
0000
0010
0001
0000
0000
1000
0000
0010
0000
,
1000
0000
0000
1000
0001
0000
0010
0100
,
0000
1000
0000
0010
0000
0010
0100
0001
,
0100
0001
0000
0001
0010
0000
0100
1000
,
0000
0001
0000
0001
1000
0000
0100
1000
,
0100
0000
0000
0010
0001
0000
0010
0100
,
0000
0000
1000
0100
0000
0100
1000
0001
,
0100
0010
0000
0010
1000
0000
0001
0010
,
0000
0100
0010
0001
0010
0010
0100
1000
,
0001
0000
0000
0000
,
2000
0100
3010
0002
,
0010
0000
0000
1003
0000
0200
1000
0000
0300
0010
0000
0000
,
1001
0011
1010
0110
,
1100
0110
1001
1010
,
0110
0101
1100
0110
,
0011
1001
1010
0110
,
1100
0101
1001
1100
,
0110
0011
1010
1001
,
0011
0110
0101
0011
,
1010
0110
1100
0011
,
1001
0000
0001
0000
,
0011
0010
0100
0100
,
1000
0011
1000
0101
,
1010
0000
0000
0000
,
0001
0110
0001
1010
,
0101
0000
0000
0000
,
0100
1001
0100
0011
,
1100
0000
0000
0000
,
0010
0000
0000
0000
0101
0000
0000
0000
0010
0000
0000
0000
1001
0000
0000
1000
,
0100
0100
0010
0010
0001
0001
1000
1000
,
0010
0000
0000
0000
,
1000
0000
0100
0000
0010
0000
1001
0001
,
0200
0000
0000
0000
0000
0000
0000
0000
0000
0000
0310
0000
0000
0010
0000
0000
,
0020
0000
0000
0000
1030
0010
0100
0001
,
0200
0000
0000
0000
0000
0000
0300
0020
,
0000
0000
0000
0000
0000
0000
1030
0000
0100
0000
1000
0000
0200
0000
0000
0000
0000
0000
0310
0000
0000
0002
0000
0000
,
0000
0000
0103
0010
2000
0000
3001
0010
,
0002
0000
0103
0010
0200
0000
0301
1000
,
0001
1000
0100
0010
0001
0010
0100
2000
,
0000
0000
0000
0000
0000
0000
0000
3200
,
0000
0000
0310
0100
0010
0001
0100
0001
,
1000
0010
1000
0010
0100
0001
0000
0020
,
0000
0130
0010
0100
1000
0001
0100
0001
,
0010
0100
0010
0001
2000
0000
0000
0000
,
3200
0000
0000
0000
0320
0000
0230
0000
0320
0000
0230
0000
,
0320
0000
0230
0000
2300
0000
0000
0000
0000
0000
0000
0000
,
3001
0020
0000
0000
0031
0000
1000
0000
,
1000
0020
0000
0000
,
0130
0001
0100
0010
1000
0100
0010
0100
,
1000
0001
0100
0010
1000
0010
0100
0001
,
0010
0100
1000
0100
0010
0001
0100
0001
,
0010
0100
1000
0100
0010
0001
1000
0001
,
0010
0100
1000
0100
0010
0001
0100
0001
,
0010
0100
1000
0100
0010
0001
0100
0001
,
0010
0100
1000
0010
0100
0000
0001
0100
,
0000
0010
0100
0010
2000
0000
0000
0000
,
3001
1010
0100
0011
,
1000
0110
0001
0101
,
1000
1100
0010
0110
,
0001
1010
0100
0011
,
1000
1010
0001
1100
,
0100
1010
0001
0110
,
1000
0101
0010
0101
,
1000
0101
0010
0101
,
1001
1000
0100
0010
,
0100
1000
0010
0100
,
0001
1000
0100
0010
,
0100
1000
0010
0100
,
1001
0000
0001
0000
,
1100
1000
0011
0010
,
1001
0000
0000
0000
;

//---------------dance-single - ----------------
#NOTES:
     dance-single:
     :
     Hard:
     13:
     1.000,1.000,0.708,0.316,1.000,1362.000,103.000,46.000,0.000,0.000:
0000
0000
0000
0000
0000
0000
0000
0000
0000
0000
0000
0000
0000
0000
0000
0000
0000
0000
0000
0000
0000
0000
0000
0000
0000
0000
0000
0000
0000
0000
0000
0000
0000
0000
0000
0000
0000
0000
0000
0000
0000
0000
0000
0000
0100
0010
0000
0000
,
1001
0100
0010
0100
0010
0100
0011
0100
0010
0100
0010
0100
,
1010
0100
0010
0100
0010
0100
0011
0100
0010
0100
0010
0100
,
1001
0100
0010
0100
0001
0010
1100
0010
0100
1000
0001
0100
,
0011
0000
0000
1000
0000
0001
0000
0100
0000
0000
0000
0001
0000
0000
0000
0010
0000
0000
0000
0100
0000
0000
0000
1001
0000
0000
0000
0010
0000
0000
0000
0001
0000
0000
0000
1000
0000
0000
0000
0010
0000
0000
0000
0100
0000
0000
0000
0000
,
1001
0100
0100
0010
0001
0001
0100
0010
0010
1000
0001
0001
,
0010
0100
0100
1000
0010
0010
0100
0001
0001
0010
0100
0100
,
0010
0001
0001
0100
0010
0010
1000
0001
0001
0010
0100
0100
,
1000
0100
0100
0010
0001
0001
0100
0010
0010
1000
0001
0001
,
1010
0100
0100
0001
1000
1000
0100
0010
0010
0001
0100
0100
,
0010
1000
1000
0001
1000
1000
0010
0100
0100
0001
0010
0010
,
0100
0010
0010
0001
1000
1000
0010
0100
0100
0001
0100
0100
,
0010
1000
1000
0001
1000
1000
0100
0010
0010
0001
0100
0100
,
0011
1000
0100
1000
0100
1000
0001
1000
0100
1000
0100
1000
,
0010
0100
0001
0010
0100
1000
0100
1000
0010
0100
0001
1000
,
0120
0000
0000
0000
0000
0000
0000
0000
0000
0000
0000
0000
0030
0000
0000
0000
1000
0001
0000
0000
0000
0000
0000
0000
0000
0000
0000
0000
0100
0000
0000
0000
,
0000
0001
0000
0010
0000
0100
0100
0000
,
2000
0000
0000
0000
0001
0000
0000
0001
3000
0000
0100
0000
0000
0010
1000
0000
,
0001
0010
0000
0010
0001
0000
0100
0010
0000
1000
0100
0010
0100
1000
0001
0000
,
1010
0000
0000
0000
0000
0000
0000
0000
0000
0000
0000
0000
0000
0000
0000
0000
0000
0000
0000
0000
0000
0000
0000
0000
0000
0000
0000
0000
0000
0000
0000
0000
0000
0000
0000
0000
0000
0000
0000
0000
0000
0000
0000
0000
0000
0000
0000
0000
0011
0000
0000
0000
0000
0000
0000
0000
0000
0000
0000
0000
0000
0000
0000
0000
0000
0000
0000
0000
0000
0000
0000
0000
0000
0000
0000
0000
0100
0000
0000
0000
0000
0000
0000
0000
1000
0000
0000
0000
0000
0000
0000
0000
0010
0000
0000
0000
0000
0000
0000
0000
0100
0000
0000
0000
0000
0000
0000
0000
0000
0000
0000
0001
0000
0000
0000
0000
0000
0000
0000
0000
0100
0000
0000
0000
0000
0000
0000
0000
1010
0000
0000
0000
0000
0000
0000
0000
0000
0000
0000
0000
0000
0000
0000
0000
0000
0000
0000
0000
0000
0000
0000
0000
0000
1000
0000
0000
0000
0000
0000
0000
0010
0000
0000
0000
0000
0000
0000
0000
0100
0000
0000
0000
0000
0000
0000
0000
0001
0000
0000
0000
0000
0000
0000
0000
0010
0000
0000
0000
0000
0000
0000
0000
,
0100
0000
0000
0000
0000
0000
0000
0000
1001
0000
0000
0000
0000
0000
0000
0000
0000
0000
0000
0000
0000
0000
0000
0000
0000
0000
0000
0000
0000
0000
0000
0000
0000
0000
0000
0000
0010
0000
0000
0000
0000
0000
0000
0000
1000
0000
0000
0000
0000
0000
0000
0000
0001
0000
0000
0000
0000
0000
0000
0000
0010
0000
0000
0000
0000
0000
0000
0000
0100
0000
0000
0000
0000
0000
0000
1000
0000
0000
0000
0000
0000
0000
0000
0000
0101
0000
0000
0000
0000
0000
0000
0000
0000
0000
0000
0000
0000
0000
0000
0000
0000
0000
0000
0000
0000
0100
0000
0000
0000
0000
0000
0000
0000
0000
0001
0000
0000
0000
0000
0000
0000
0000
0000
0100
0000
0000
0000
0000
0000
0010
0000
0000
0000
0000
0000
0000
0000
0000
1000
0000
0000
0000
0000
0000
0000
0000
0000
0000
0001
0000
0000
0000
0000
0000
0000
0000
0110
0000
0000
0000
0000
0000
0000
0000
0000
0000
0000
0000
0000
0000
0000
0000
0000
0000
0000
0000
0000
0000
0000
0000
0000
0000
0000
0000
0000
0000
0000
0000
0000
0000
0000
0000
,
1002
1000
1000
1000
0010
0100
0013
0010
1000
0001
0100
0100
,
0100
0100
0001
0010
0001
1000
0100
0000
0100
1000
0000
0000
,
0101
0000
0000
0000
0000
2000
0000
0000
0000
0100
0000
0000
0010
0000
0000
0000
0000
0000
0100
0000
0000
0100
0000
0000
,
0000
0000
0000
0100
0010
0000
0001
0010
,
0100
0000
0000
0100
0010
0000
0100
0100
,
0000
0000
0000
0100
3020
0000
0001
1000
,
0100
0000
0000
0100
1000
0000
0100
0100
,
0000
0000
0000
0000
0000
0000
0000
0000
0000
0000
0000
0000
0000
0000
0000
0000
0000
0000
0000
0000
0000
0000
0000
0000
0000
0000
0000
0000
0000
0000
0000
0000
0000
0000
0000
0000
0000
0000
0000
0000
0000
0000
0000
0000
0000
0000
0000
0000
0000
0000
0000
0000
0000
0000
0000
0000
0000
0000
0000
0000
0000
0000
0000
0000
0000
0000
0000
0000
0000
0000
0000
0000
0000
0000
0000
0000
0000
0000
1030
0000
0000
0000
0000
0000
0000
0000
0000
0000
0000
0000
0001
0000
0000
0000
0000
0000
0000
0000
0000
0000
0000
0000
0010
0000
0000
0000
0000
0000
0000
0000
0000
0000
0000
0000
0100
0000
0000
0000
0000
0000
0000
0000
0000
0000
0000
0000
0000
0000
0010
0000
0000
0000
0000
0000
0000
0000
0000
0000
0000
0000
0000
0000
0000
0000
0001
0000
0000
0000
0000
0000
0000
0000
0000
0000
0000
0000
1000
0000
0000
0000
0000
0000
0000
0000
0000
0000
0000
0000
0010
0000
0000
0000
0000
0000
0000
0000
0000
0000
0000
0000
0100
0000
0000
0000
0000
0000
0000
0000
0000
0000
0000
0000
,
0001
0000
0000
0000
0000
0000
0000
0000
0000
0000
0000
0000
0010
0000
0000
0000
0000
0000
0000
0000
0000
0000
0000
0000
0001
0000
0000
0000
0000
0000
0000
0000
0000
0000
0000
0000
1000
0000
0000
0000
0000
0000
0000
0000
0000
0000
0000
0000
0010
0000
0000
0000
0000
0000
0000
0000
0000
0000
0000
0000
0100
0000
0000
0000
0000
0000
0000
0000
0000
0000
0000
0000
0001
0000
0000
0000
0000
0000
0000
0000
0000
0000
0000
0000
1000
0000
0000
0000
0000
0000
0000
0000
0000
0000
0000
0000
0100
0000
0000
0000
0000
0000
0000
0000
0000
0000
0000
0000
0010
0000
0000
0000
0000
0000
0000
0000
0000
0000
0000
0000
0001
0000
0000
0000
0000
0000
0000
0000
0100
0000
0000
0000
0000
0000
0000
0000
0020
0000
0000
0000
0000
0000
0000
0000
0000
0000
0000
0000
0000
0000
0000
0000
0000
0000
0000
0000
0000
0000
0000
0000
0000
0000
0000
0000
0000
0000
0000
0000
0000
0000
0000
0000
0000
0000
0000
0000
0000
0000
0000
0000
0000
0000
0000
0000
0000
0000
0130
0000
0000
0000
0000
0000
,
1000
0000
0000
0000
0000
0000
0000
0000
0000
0000
0000
0000
0001
0000
0000
0000
0000
0000
0000
0000
0000
0000
0000
0000
0100
0000
0000
0000
0000
0000
0000
0000
0000
0000
0000
0000
0010
0000
0000
0000
0000
0000
0000
0000
0000
0000
0000
0000
1000
0000
0000
0000
0000
0000
0000
0000
0001
0000
0000
0000
0000
0000
0000
0000
0010
0000
0000
0000
0000
0000
0000
0000
0000
0000
0000
0000
0000
0000
0100
0000
0000
0000
0000
0000
0000
0000
0000
0000
1000
0000
0000
0000
0000
0000
0000
0000
0010
0000
0000
0000
0000
0000
0000
0000
0100
0000
0000
0000
0000
0000
0000
0000
0001
0000
0000
0000
0000
0000
0000
0000
1000
0000
0000
0000
0000
0000
0000
0000
0002
0000
0000
0000
0000
0000
0000
0000
0000
0000
0000
0000
0000
0000
0000
0000
0000
0000
0000
0000
0000
0000
0000
0000
0000
0000
0000
0000
0000
0000
0000
0000
0000
0000
0000
0000
0000
0000
0000
0000
0000
0000
0000
0000
0000
0000
0000
0000
0103
0000
0000
0000
0000
0000
0000
0000
0010
0000
0000
0000
0000
0000
0000
0000
,
1000
0000
0000
0000
0000
0000
0000
0000
0000
0000
0000
0000
0001
0000
0000
0000
0000
0000
0000
0000
0000
0000
0000
0000
1000
0000
0000
0000
0000
0000
0000
0000
0000
0000
0000
0000
0001
0000
0000
0000
0000
0000
0000
0000
0000
0000
0000
0000
0010
0000
0000
0000
0000
0000
0000
0000
0000
0000
0000
0000
0100
0000
0000
0000
0000
0000
0000
0000
0000
0000
0000
0000
1000
0000
0000
0000
0000
0000
0000
0000
0000
0000
0000
0000
0010
0000
0000
0000
0000
0000
0000
0000
0000
0000
0000
0000
1000
0000
0000
0000
0000
0000
0000
0000
0000
0000
0000
0000
0010
0000
0000
0000
0000
0000
0100
0000
0000
0000
0000
0000
0000
0000
0000
0000
0000
0000
0001
0000
0000
0000
0000
0000
0000
0000
0000
0000
0000
0000
1000
0000
0000
0000
0000
0000
0000
0000
0000
0000
0000
0000
0000
0000
0200
0000
0000
0000
0000
0000
0000
0000
0000
0000
0000
0000
0000
0000
0000
0000
0000
0000
0000
0000
0000
0000
0000
0000
0000
0000
0000
0000
0000
0000
0000
0000
0000
0000
0000
0000
0000
0000
0000
0000
,
0000
0000
0000
0000
0000
0000
0000
0000
0000
0000
0000
0000
0310
0000
0000
0000
0000
0000
0001
0000
0000
0000
0000
0000
1000
0000
0000
0000
0000
0000
0000
0000
0000
0000
0000
0000
0000
0000
0000
0000
0100
0000
0000
0000
0000
0000
0000
0000
0010
0000
0000
0000
0000
0000
0000
0000
0000
0000
0000
0000
0000
0000
0000
0000
0001
0000
0000
0000
0000
0000
0000
0000
1000
0000
0000
0000
0000
0000
0000
0000
0100
0000
0000
0000
0000
0000
0000
0000
0000
0000
0000
0000
0000
0000
0000
0000
1000
0000
0000
0000
0000
0000
0000
0000
0000
0000
0000
0000
0010
0000
0000
0000
0000
0000
0000
0000
0000
0000
0000
0000
0100
0000
0000
0000
0000
0000
0000
0000
0000
0000
0000
0000
0001
0000
0000
0000
0000
0000
0000
0000
0000
0000
0000
0000
0010
0000
0000
0000
0000
0000
0000
0000
0000
0000
0000
0000
0100
0000
0000
0000
0000
0000
0000
0000
0000
0000
0000
0000
1000
0000
0000
0000
0000
0000
0000
0000
0000
0000
0000
0000
0001
0000
0000
0000
0000
0000
0000
0000
0000
0000
0000
0000
,
0010
0000
0000
0100
0000
0000
0010
0000
0001
0000
0100
0000
0010
0000
1000
0000
0100
0000
1000
0000
0000
0001
0000
0000
1000
0000
0010
0000
0100
0000
0001
0000
0000
0010
0000
0000
0100
0000
1000
0000
0100
0000
0010
0000
0000
0001
0000
0000
,
0010
0000
0000
0000
0000
0000
0100
0000
0000
0000
0000
0000
1000
0000
0000
0000
0000
0000
0001
0000
0000
0000
0000
0000
0000
0000
0000
0000
0000
0000
0000
0000
0000
0000
0000
0000
0100
0000
0000
0000
0000
0000
0000
0000
0000
0000
0000
0000
0010
0000
0000
0000
0000
0000
0000
0000
0000
0000
0000
0000
1000
0000
0000
0000
0000
0000
0000
0000
0000
0000
0000
0000
0100
0000
0000
0000
0000
0000
0000
0000
0000
0000
0000
0000
0010
0000
0000
0000
0000
0000
0000
0000
0000
0000
0000
0000
0100
0000
0000
0000
0000
0000
0000
0000
0000
0000
0000
0000
1000
0000
0000
0000
0000
0000
0000
0000
0000
0000
0000
0000
0001
0000
0000
0000
0000
0000
0000
0000
0100
0000
0000
0000
0000
0000
0000
0000
0010
0000
0000
0000
0000
0000
0000
0000
0000
0000
0000
0000
0000
0000
0000
0000
0100
0000
0000
0000
0000
0000
0000
0000
0000
0000
0000
0000
0000
0000
0000
0000
0001
0000
0000
0000
0000
0000
0000
0000
0000
0000
0000
0000
0010
0000
0000
0000
0000
0000
0000
0000
0000
0000
0000
0000
,
0200
0000
0000
0000
0000
0000
0000
0000
0000
0000
0000
0000
0310
0000
0001
0000
1000
0000
0020
0000
0000
0000
0000
0000
0000
0000
0000
0000
1030
0000
0100
0000
0000
0010
0000
0000
0001
0000
0000
0100
0000
0000
0010
0000
1000
0000
0001
0000
,
2000
0000
0000
0000
0000
0000
0000
0000
0000
3200
0000
0000
0000
0000
0000
0000
2300
0000
3010
0000
0000
0100
0000
0000
,
0010
0000
0000
0000
0000
0000
0000
0000
0000
0000
0000
0000
1000
0000
0000
0000
0000
0000
0000
0000
0000
0000
0000
0000
0001
0000
0000
0000
0000
0000
0000
0000
0000
0000
0000
0000
0100
0000
0000
0000
0000
0000
0000
0000
0000
0000
0000
0000
0001
0000
0000
0000
0000
0000
0000
0000
1000
0000
0000
0000
0000
0000
0000
0000
0010
0000
0000
0000
0000
0000
0000
0000
1000
0000
0000
0000
0000
0000
0000
0000
0001
0000
0000
0000
0000
0000
0000
0000
0000
0000
0010
0000
0000
0000
0000
0000
0000
0000
0000
0000
0000
0000
0000
0000
0100
0000
0000
0000
0000
0000
0000
0000
1000
0000
0000
0000
0000
0000
0000
0000
0010
0000
0000
0000
0000
0000
0000
0000
1000
0000
0000
0000
0000
0000
0000
0000
0100
0000
0000
0000
0000
0000
0000
0000
0010
0000
0000
0000
0000
0000
0000
0000
0000
0000
0000
0000
0001
0000
0000
0000
0000
0000
0000
0000
0000
0000
0000
0000
0100
0000
0000
0000
0000
0000
0000
0000
0010
0000
0000
0000
0000
0000
0000
0000
0000
0000
1000
0000
0000
0000
0000
0000
,
0000
0000
0000
0000
0000
0000
0100
0000
0000
0000
0000
0000
0000
0000
0000
0000
0010
0000
0000
0000
0000
0000
0000
0000
0001
0000
0000
0000
0000
0000
0000
0000
0100
0000
0000
0000
0000
0000
0000
0000
0010
0000
0000
0000
0000
0000
0000
0000
1000
0000
0000
0000
0000
0000
0000
0000
0001
0000
0000
0000
0000
0000
0000
0000
0010
0000
0000
0000
0000
0000
0000
0000
0000
0000
0000
0000
0000
0000
0100
0000
0000
0000
0000
0000
0000
0000
0000
0000
0010
0000
0000
0000
0000
0000
0000
0000
0001
0000
0000
0000
0000
0000
1000
0000
0000
0000
0000
0000
0010
0000
0000
0000
0000
0000
0100
0000
0000
0000
0000
0000
0000
0000
0000
0000
0000
0000
0001
0000
0000
0000
0000
0000
1000
0000
0000
0000
0000
0000
0000
0000
0000
0000
0000
0000
0100
0000
0000
0000
0000
0000
0000
0000
0000
0000
0000
0000
1000
0000
0000
0000
0000
0000
0000
0000
0000
0000
0000
0000
0010
0000
0000
0000
0000
0000
0000
0000
0000
0000
0000
0000
0100
0000
0000
0000
0000
0000
0000
0000
0000
0000
0000
0000
,
0001
0000
0000
0000
0000
0000
0000
0000
0010
0000
0000
0000
0000
0000
0000
0000
0100
0000
0000
0000
0000
0000
0000
0000
1000
0000
0000
0000
0000
0000
0000
0000
0000
0000
0000
0000
0100
0000
0000
0000
0000
0000
0000
0000
0000
0000
0000
0000
0010
0000
0000
0000
0000
0000
0000
0000
0000
0000
0000
0000
0001
0000
0000
0000
0000
0000
0000
0000
0000
0000
0000
0000
0100
0000
0000
0000
0000
0000
0000
0000
0000
0000
0000
0000
1000
0000
0000
0000
0000
0000
0000
0000
0000
0000
0000
0000
0100
0000
0000
0000
0000
0000
0000
0000
0010
0000
0000
0000
0000
0000
0000
0000
0000
0000
0001
0000
0000
0000
0000
0000
0010
0000
0000
0000
0000
0000
0100
0000
0000
0000
0000
0000
0000
0000
0000
0000
1000
0000
0000
0000
0000
0000
0000
0000
0100
0000
0000
0000
0000
0000
0000
0000
0000
0000
0000
0000
0010
0000
0000
0000
0000
0000
0000
0000
0000
0000
0000
0000
0001
0000
0000
0000
0000
0000
0000
0000
0010
0000
0000
0000
0000
0000
0000
0000
0100
0000
0000
0000
0000
0000
0000
0000
,
1000
0000
0000
0000
0000
0000
0000
0000
0100
0000
0000
0000
0000
0000
0000
0000
0001
0000
0000
0000
0000
0000
0000
0000
0010
0000
0000
0000
0000
0000
0000
0000
0100
0000
0000
0000
0000
0000
0000
0000
1000
0000
0000
0000
0000
0000
0000
0000
0100
0000
0000
0000
0000
0000
0000
0000
0000
0000
0000
0000
0010
0000
0000
0000
0000
0000
0000
0000
0000
0000
0000
0000
0001
0000
0000
0000
0000
0000
0000
0000
0100
0000
0000
0000
0000
0000
0000
0000
0020
0000
0000
0000
0000
0000
0000
0000
0000
0000
0000
0000
0000
0000
0000
0000
0000
0000
0000
0000
0000
0000
0000
0000
0000
0000
1030
0000
0000
0000
0000
0000
0000
0000
0000
0000
0000
0000
0001
0000
0000
0000
0000
0000
0000
0000
0000
0000
0100
0000
0000
0000
0000
0000
0000
0000
0001
0000
0000
0000
0000
0000
0000
0000
0000
0000
0000
0000
0010
0000
0000
0000
0000
0000
0000
0000
0000
0000
0000
0000
0100
0000
0000
0000
0000
0000
0000
0000
1000
0000
0000
0000
0000
0000
0000
0000
0010
0000
0000
0000
0000
0000
0000
0000
,
1000
0000
0000
0000
0000
0000
0000
0000
0001
0000
0000
0000
0000
0000
0000
0000
0010
0000
0000
0000
0000
0000
0000
0000
0100
0000
0000
0000
0000
0000
0000
0000
1000
0000
0000
0000
0000
0000
0000
0000
0001
0000
0000
0000
0000
0000
0000
0000
0010
0000
0000
0000
0000
0000
0000
0000
0100
0000
0000
0000
0000
0000
0000
0000
0000
0000
1000
0000
0000
0000
0000
0000
0000
0000
0000
0000
0000
0000
0000
0000
0001
0000
0000
0000
0000
0000
0000
0000
0010
0000
0000
0000
0000
0000
0000
0000
0100
0000
0000
0000
0000
0000
0000
0000
1000
0000
0000
0000
0000
0000
0000
0000
0001
0000
0000
0000
0000
0000
0000
0000
0010
0000
0000
0000
0000
0000
0000
0000
0100
0000
0000
0000
0000
0000
0000
0000
0000
0000
1000
0000
0000
0000
0000
0000
0000
0000
0000
0000
0000
0000
0000
0000
0010
0000
0000
0000
0000
0000
0000
0000
0000
0000
0100
0000
0000
0000
0000
0000
0001
0000
0000
0000
0000
0000
0000
0000
1000
0000
0000
0000
0000
0000
0000
0000
0100
0000
0000
0000
0000
0000
0000
0000
,
0020
0000
0000
0000
0000
0000
0000
0000
0000
0000
0000
0000
0000
0000
0000
0000
0000
0000
0000
0000
0000
0000
0000
0000
0000
0000
0000
0000
0000
0000
0000
0000
0000
0000
0000
0000
0000
0000
0000
0000
0000
0000
0000
0000
0000
0000
0000
0000
0000
0000
0000
0000
0000
0000
0000
0000
0031
0000
0000
0000
0000
0000
0000
0000
1000
0000
0000
0000
0000
0000
0000
0000
0010
0000
0000
0000
0000
0000
0000
0000
0100
0000
0000
0000
0000
0000
0000
0000
0000
0000
0001
0000
0000
0000
0000
0000
0000
0000
0000
0000
0000
0000
1000
0000
0000
0000
0000
0000
0000
0000
0000
0000
0000
0000
0100
0000
0000
0000
0000
0000
0000
0000
0000
0000
0000
0000
0010
0000
0000
0000
0000
0000
0001
0000
0000
0000
0000
0000
1000
0000
0000
0000
0000
0000
0100
0000
0000
0000
0000
0000
0000
0000
0000
0000
0000
0000
0010
0000
0000
0000
0000
0000
0000
0000
0000
0000
0000
0000
0001
0000
0000
0000
0000
0000
0000
0000
0000
0000
0000
0000
0100
0000
0000
0000
0000
0000
0000
0000
0000
0000
0000
0000
,
0020
0000
0000
1030
0000
1000
0200
0000
0000
0310
0000
0000
,
0001
0000
0000
0000
0000
0000
0000
0000
0000
0000
0000
0000
0000
0000
0000
0000
0000
0000
0000
0000
0000
0000
0000
0000
0000
0000
0000
0000
0000
0000
1000
0000
0000
0000
0000
0000
0001
0000
0000
0000
0000
0000
1000
0000
0000
0000
0000
0000
0010
0000
0000
0000
0000
0000
0000
0000
0000
0000
0000
0000
0000
0000
0000
0000
0000
0000
0000
0000
0000
0000
0000
0000
0000
0000
0000
0000
0000
0000
0000
0000
0100
0000
0000
0000
0000
0000
0000
0000
0000
0000
0000
0000
0000
0000
0000
0000
0002
0000
0000
0000
0000
0000
0000
0000
0000
0000
0000
0000
0000
0000
0000
0000
0000
0000
0000
0000
0000
0000
0000
0000
0000
0000
0000
0000
0000
0000
0000
0000
0000
0000
0000
0000
0000
0000
0000
0000
0000
0000
0000
0000
0000
0000
0000
0000
1003
0000
0000
0000
0000
0000
0000
0000
0000
0000
0000
0000
0000
0000
0000
0000
0000
0000
0000
0000
0000
0000
0000
0000
0000
0000
0000
0000
0000
0000
0000
0000
0000
0000
0000
0000
0000
0000
0000
0000
0000
0000
0000
0000
0000
0000
0000
0000
,
0100
0000
0000
0100
0010
0000
0001
0000
0000
0000
1000
0000
0010
0000
0000
0000
0100
0000
0001
0000
0000
0000
0010
0000
,
0100
0000
0000
1000
0000
0000
0100
0000
0000
0010
0000
0000
0001
0000
0100
0000
0010
0000
1000
0000
0001
0000
0020
0000
0000
0000
0000
0000
0000
0000
0000
0000
0031
0000
0010
0000
0100
0000
1000
0000
0001
0000
0100
0000
0010
0000
1000
0000
,
0001
0010
0100
1000
0001
0100
0010
1000
0001
0010
0100
1000
0200
0000
0000
0000
0000
0000
0000
0000
0000
0000
0000
0000
,
0000
0000
0300
1000
0001
0010
0100
1000
0001
0100
0010
1000
0100
0010
0100
1000
,
0002
0000
0000
0203
0000
0000
0000
0000
0310
1000
0001
0010
0100
1000
0010
1000
,
0100
0000
0000
0010
0000
0000
0100
0000
0000
1000
0000
0000
0001
0000
0000
0000
0000
0000
0100
0000
0010
0000
1000
0000
0001
0000
0010
0000
0001
0000
0100
0000
0010
0000
1000
0000
0010
0000
0000
1000
0000
0000
0100
0000
0000
0010
0000
0000
,
0002
0000
0000
0000
0000
0000
0103
0000
0010
1000
0001
0010
0001
0100
0001
1000
,
0100
0000
0000
0000
0000
0000
0000
0000
0000
0000
0000
0000
0010
0000
0000
0000
0000
0000
0000
0000
0000
0000
0000
0000
0100
0000
0000
0000
0000
0000
0000
0000
0000
0000
0000
0000
1000
0000
0000
0000
0000
0000
0000
0000
0000
0000
0000
0000
0010
0000
0000
0000
0000
0000
0000
0000
0000
0000
0000
0000
1000
0000
0000
0000
0000
0000
0000
0000
0000
0000
0000
0000
0001
0000
0000
0000
0000
0000
0000
0000
1000
0000
0000
0000
0000
0000
0000
0000
0000
0000
0100
0000
0000
0000
0000
0000
0000
0000
0000
0000
0000
0000
0010
0000
0000
0000
0000
0000
0000
0000
0000
0000
0001
0000
0000
0000
0000
0000
0000
0000
0100
0000
0000
0000
0000
0000
0000
0000
0010
0000
0000
0000
0000
0000
0000
0000
0100
0000
0000
0000
0000
0000
0000
0000
0001
0000
0000
0000
0000
0000
0000
0000
0010
0000
0000
0000
0000
0000
0000
0000
0100
0000
0000
0000
0000
0000
0000
0000
1000
0000
0000
0000
0000
0000
0000
0000
0010
0000
0000
0000
0000
0000
0000
0000
1000
0000
0000
0000
0000
0000
0000
0000
,
0100
0000
0000
0000
0000
0000
0010
0000
0000
0000
0000
0000
0000
0000
0000
0000
0001
0000
0000
0000
0000
0000
0000
0000
0000
0000
0000
0000
0000
0000
2000
0000
0000
0000
0000
0000
0000
0000
0000
0000
0000
0000
0000
0000
0000
0000
0000
0000
3001
0000
0000
0000
0000
0000
0000
0000
0010
0000
0000
0000
0000
0000
0000
0000
0001
0000
0000
0000
0000
0000
0000
0000
1000
0000
0000
0000
0000
0000
0000
0000
0010
0000
0000
0000
0000
0000
0000
0000
0100
0000
0000
0000
0000
0000
0000
0000
0001
0000
0000
0000
0000
0000
0000
0000
0000
0000
0000
0000
0100
0000
0000
0000
0020
0000
0000
0000
0000
0000
0000
0000
0000
0000
0000
0000
0000
0000
0000
0000
0000
0000
0000
0000
0000
0000
0000
0000
0000
0000
0000
0000
0000
0000
0000
0000
1030
0000
0000
0000
0000
0000
0000
0000
0001
0000
0000
0000
0000
0000
0000
0000
0000
0000
0010
0000
0000
0000
0000
0000
0000
0000
0000
0000
0000
0000
0000
0000
0100
0000
0000
0000
0000
0000
0000
0000
0010
0000
0000
0000
0000
0000
0000
0000
,
0100
0000
0000
0000
0000
0000
0000
0000
0000
0000
0000
0000
1000
0000
0000
0000
0000
0000
0000
0000
0000
0000
0000
0000
0001
0000
0000
0000
0000
0000
0000
0000
0000
0000
0000
0000
0100
0000
0000
0000
0000
0000
0000
0000
0000
0000
0000
0000
0010
0000
0000
0000
0000
0000
1000
0000
0000
0000
0000
0000
0001
0000
0000
0000
0000
0000
0000
0000
0000
0000
0000
0000
0100
0000
0000
0000
0000
0000
0001
0000
0000
0000
0000
0000
0010
0000
0000
0000
0000
0000
0000
0000
0000
0000
0000
0000
0100
0000
0000
0000
0000
0000
0000
0000
0000
0000
0000
0000
1000
0000
0000
0000
0000
0000
0000
0000
0000
0000
0000
0000
0001
0000
0000
0000
0000
0000
0000
0000
0100
0000
0000
0000
0000
0000
0000
0000
0000
0000
0001
0000
0000
0000
0000
0000
0000
0000
0000
0000
0000
0000
0000
0000
0010
0000
0000
0000
0000
0000
0000
0000
0000
0000
0000
0000
0000
0000
0000
0000
0100
0000
0000
0000
0000
0000
0000
0000
0000
0000
0000
0000
1000
0000
0000
0000
0000
0000
0000
0000
0000
0000
0000
0000
,
0020
0000
0000
0000
,
1030
1000
1000
1000
0001
0001
0001
1000
0100
0010
0010
0010
,
0010
0010
0001
1000
0001
0100
0100
0100
0100
0010
1000
0001
,
1010
0100
0100
0010
1000
1000
0001
0010
0010
0100
1000
1000
,
0001
0100
0100
0010
1000
1000
0001
1000
1000
0010
0100
0100
,
0001
0100
0100
0010
1000
1000
0100
0010
0010
0001
0100
0100
,
0010
0100
0100
0001
1000
1000
0100
0010
0010
0001
1000
1000
,
0110
0001
0001
1000
0010
0010
1000
0100
0100
0010
0001
0001
,
0100
0010
0010
1000
0001
0001
0010
0100
0100
1000
0010
0010
,
0100
0001
0001
0010
0100
0100
0010
0001
0001
1000
0100
0100
,
0010
0001
0001
0100
0010
0010
1000
0001
0001
0010
0100
0100
,
1010
0000
0001
0000
0100
0000
0001
0000
0100
0000
0001
0000
1000
0000
0001
0000
0100
0000
0001
0000
0100
0000
0001
1000
,
0010
0010
0010
0010
1000
1000
1000
0001
0010
0100
1000
0010
,
1001
0100
0010
0001
0010
0100
1000
0100
0010
0001
0010
0100
,
1001
0100
1000
0100
0010
0001
0010
0100
1000
0100
1000
0100
0010
0001
0010
0100
,
1001
0010
0100
1000
0100
0010
0001
0010
0100
1000
0100
0010
,
1001
0010
0001
0010
0100
1000
0100
0010
0001
0010
0001
0010
0100
1000
0100
0010
,
0101
0010
0001
1000
0001
0010
0100
0010
0001
1000
0001
0010
,
1100
0010
0100
0010
0001
1000
0001
0010
0100
0010
0100
0010
0001
1000
0010
0100
,
1001
0010
0100
1000
0100
0010
0001
0010
0100
1000
0100
0010
,
1001
0010
0001
0010
0100
1000
0100
0010
0001
0010
0001
0010
0100
1000
0100
0010
,
1001
0010
0001
0010
0100
1000
0100
0010
0001
0010
0001
0010
0100
1000
0100
0010
,
0001
0100
0010
1000
0001
0010
0100
1000
0010
0100
0001
0010
0100
0010
0001
1000
,
0101
0000
1000
0000
0001
0000
0100
0000
0010
0000
1010
0000
0001
1010
0100
0000
,
1010
0001
0100
0010
1100
0001
0011
1010
,
0110
0001
1000
0100
0010
1000
0001
1010
,
0001
0000
0000
0100
0000
0000
0011
0000
1100
0000
0110
0000
1001
0000
0000
0100
0000
0000
0011
0000
0000
1100
0000
0000
,
1000
0001
1001
1010
0110
0100
0101
0011
,
0110
0100
1100
1010
0110
0100
0101
1001
,
1100
0110
0011
1001
1010
0110
0101
1002
,
0100
0010
1000
0100
0010
0100
1003
1100
,
0001
0100
1010
0101
1010
0101
1100
0011
,
1001
0110
1001
1100
0011
0101
0010
1010
,
0001
1100
0011
1100
0101
1010
1001
0110
,
1001
1010
0001
0100
0011
1000
0001
0100
,
2001
0000
0000
0010
0000
0000
0001
3000
0200
0010
0000
0300
2001
0000
0000
3010
0200
0000
0001
0300
2000
0010
0000
3000
,
0201
0000
0000
0310
2000
0000
0001
3000
0200
0010
0000
0000
0001
0000
0000
0010
0000
0000
0001
0000
0000
1000
0000
0000
,
0310
0101
1000
0001
1010
1000
1100
0100
,
0110
0010
0012
0100
1000
1000
1000
1000
,
0013
1000
0100
0010
0001
1000
0010
0100
0001
1000
0100
0010
0001
0010
0100
1000
,
0010
0100
0001
0010
0100
0010
0001
1000
0010
1000
0100
0010
0001
0010
0100
1000
,
0001
0100
0010
1000
0100
0010
0001
1000
0010
1000
0001
0010
0100
0010
0001
0100
,
0010
1000
0100
1000
0010
1000
0001
0010
0100
1000
0010
0100
0001
0100
0010
1000
,
0100
1000
0001
0100
0010
1000
0010
0100
0001
0010
0001
1000
0010
1000
0001
0010
,
0100
1000
0001
1000
0010
0100
0010
1000
0010
0100
0001
0010
0100
0010
0001
1000
,
0010
1000
0010
0100
0001
0100
0010
1000
0200
0000
0000
0000
0320
0000
0031
0000
,
0001
0001
0001
0001
1001
0001
0011
0010
,
0110
0000
0000
0000
0000
0000
0000
0000
0100
0000
0000
0000
1000
0000
0000
0000
0010
0000
0000
0000
0100
0000
0001
0000
0010
0000
0000
0000
0100
0000
0000
0000
1000
0000
0000
0001
0000
0000
0100
0000
0000
0000
0010
0000
0000
0100
0000
0000
0001
0000
0000
0000
0010
0000
0000
0000
0100
0000
0000
0000
1000
0000
0000
0000
,
0010
0000
0000
0000
0000
0000
0000
0000
0100
0000
0000
0000
0000
0000
0000
0000
0001
0000
0000
0000
0000
0000
0000
0000
0000
0000
0000
0000
0000
0000
1000
0000
0000
0000
0000
0000
0000
0000
0000
0000
0100
0000
0000
0000
0000
0000
0000
0000
1000
0000
0000
0000
0000
0000
0000
0000
0000
0000
0000
0000
0001
0000
0000
0000
0000
0000
0000
0000
0000
0000
0000
0000
0010
0000
0000
0000
0000
0000
0000
0000
0100
0000
0000
0000
0000
0000
0000
0000
0000
0000
0000
0000
0000
0000
0000
0000
0010
0000
0000
0000
0000
0000
0000
0000
0001
0000
0000
0000
0000
0000
0000
0000
0100
0000
0000
0000
0000
0000
0000
0000
0000
0000
0000
0000
0000
0000
0010
0000
0000
0000
0000
0000
0000
0000
0000
0000
1000
0000
0000
0000
0000
0000
0000
0000
0010
0000
0000
0000
0000
0000
0000
0000
0000
0000
0000
0000
0100
0000
0000
0000
0000
0000
0000
0000
0000
0000
0000
0000
0001
0000
0000
0000
0000
0000
0000
0000
0100
0000
0000
0000
0000
0000
0000
0000
0000
0000
0020
0000
0000
0000
0000
0000
,
0000
0000
0030
0200
0000
0000
0000
0300
,
0001
0000
0000
0000
0000
0000
2000
0000
0000
0000
0000
3000
2000
0000
0000
0000
0000
0000
3000
0000
0000
0000
0000
0002
,
0000
0000
0000
0000
0000
0000
0000
0000
0000
0000
0000
0000
0000
0000
0000
0000
0000
0000
0003
0000
0000
0000
0000
0000
0001
0000
0000
0000
0000
0000
0000
0000
0010
0000
0000
0000
0000
0000
0000
0010
0000
0000
0000
0000
0000
0000
0000
0000
,
0002
0000
0000
0000
0000
0000
0003
0000
0001
0000
0000
0000
1000
0010
0100
0001
,
0010
0100
1000
0010
0100
0001
0010
0100
0010
0001
0100
0010
,
1000
0001
0100
0010
1000
0100
0010
0100
1000
0001
0100
0010
,
1001
0010
0010
0100
0001
0001
0100
0010
0010
1000
0100
0100
,
0010
0001
0001
0100
0010
0010
1000
0001
0001
0010
0100
0100
,
1000
0100
0100
0010
0001
0001
0100
0001
0001
1000
0001
0001
,
0010
0000
0100
0000
0100
0000
1000
0000
0010
0000
0010
0000
0100
0000
0001
0000
0001
0000
1000
0000
0100
0000
1000
0010
,
0100
0001
1000
0001
1000
0001
0100
0001
1000
0001
1000
0001
,
0010
0000
0000
0000
0000
0000
0000
0000
0000
0000
0000
0000
0000
0000
0000
0000
0100
0000
0000
0000
0000
0000
0000
0000
0000
0000
0000
0000
0000
0000
0000
0000
1000
0000
0000
0000
0000
0000
0000
0000
0000
0000
0000
0000
0000
0000
0000
0000
0001
0000
0000
0000
0000
0000
0000
0000
0100
0000
0000
0000
0000
0000
0000
0000
0001
0000
0000
0000
0000
0000
0000
0000
0000
0000
0000
0000
0000
0000
0000
0000
1000
0000
0000
0000
0000
0000
0000
0000
0000
0000
0000
0000
0000
0000
0000
0000
0100
0000
0000
0000
0000
0000
0000
0000
0010
0000
0000
0000
0000
0000
0000
0000
0100
0000
0000
0000
0000
0000
0000
0000
0000
0000
0000
0000
0000
0000
0000
0000
1000
0000
0000
0000
0000
0000
0000
0000
0000
0000
0000
0000
0000
0000
0000
0000
0010
0000
0000
0000
0000
0000
0000
0000
0000
0000
0000
0000
0000
0000
0000
0000
0000
0000
0100
0000
0000
0000
0000
0000
0000
0000
0000
0000
0000
0000
0000
0000
0000
0000
0000
0000
0001
0000
0000
0000
0000
0000
0000
0000
0000
0000
0000
0000
,
0000
2020
0000
0000
0000
0000
0000
0000
3030
0000
0000
0000
0000
0000
0000
0000
0000
0000
0000
0000
0000
0000
0000
0000
0000
0000
0000
0000
0000
0000
0000
0000
;
