#TITLE:Split Mushroom(Megaman X4);
#SUBTITLE:;
#ARTIST:Capcom Sound Team;
#TITLETRANSLIT:;
#SUBTITLETRANSLIT:;
#ARTISTTRANSLIT:;
#CREDIT:Megaman X4(Capcom);
#BANNER:Split Mushroom-banner.JPG;
#BACKGROUND:Split Mushroom-bg.JPG;
#LYRICSPATH:;
#CDTITLE:PhoenixW-cdtitle.JPG;
#MUSIC:13 - X4 - SPLIT MUSHROOM STAGE.mp3;
#OFFSET:-0.015;
#SAMPLESTART:41.949;
#SAMPLELENGTH:11.980;
#SELECTABLE:YES;
#BPMS:0.000=143.081;
#STOPS:;
#BGCHANGES:;
// cache tags:
#FIRSTBEAT:1.500;
#LASTBEAT:379.000;
#SONGFILENAME:Songs/keyboard/13 - X4 - SPLIT MUSHROOM STAGE/13 - X4 - SPLIT MUSHROOM STAGE.sm;
#HASMUSIC:1;
#HASBANNER:1;
#MUSICLENGTH:164.474;
// end cache tags

//---------------dance-single - ----------------
#NOTES:
     dance-single:
     :
     Challenge:
     9:
     0.635,0.691,0.237,0.134,0.608,670.000,39.000,22.000,0.000,0.000:
0000
0000
0000
1001
0000
1000
0010
1000
,
0100
0010
0001
1000
0010
0001
0010
1000
,
0200
0000
0000
0310
0000
1001
0000
1000
,
0010
0100
0001
1000
0001
0100
1000
0100
,
0002
0000
0000
0013
0000
1001
0000
0100
,
0001
0100
0010
1000
0001
0100
1000
0100
,
0002
0000
0000
1003
0000
0110
0000
2000
,
0000
0000
0000
3010
0100
0002
0000
0000
,
0000
0000
0003
1000
0100
0000
0010
0001
0000
0000
1000
0100
0000
0000
0100
0010
,
0000
0000
0010
0100
0000
0000
1001
0000
0000
0000
0001
0010
0000
0000
0010
1000
,
0000
0000
1000
0010
0000
0000
0010
0001
0010
0000
0100
1000
0000
0000
1000
0100
,
0000
0000
0100
0010
0000
0000
0110
0000
0000
0000
0100
1000
0000
0000
1000
0001
,
0000
0000
0001
0010
0000
0000
0100
1000
0100
0000
0010
0001
0000
0000
0001
0100
,
0000
0000
0100
0010
0000
0000
1010
0000
0000
0000
1000
0001
0000
0000
0001
0100
,
0000
0000
0100
0010
0000
0000
1000
0001
1000
0000
0100
0010
0000
0000
0010
0001
,
0000
0000
0001
1000
0000
0000
0101
0000
0000
0000
1000
0010
0000
0000
0010
0100
,
0000
0000
0100
0001
0000
0000
1000
0100
1000
0000
0001
0010
0000
0000
0010
0100
,
0000
0000
0100
1000
0000
0010
0100
0010
0100
0010
0000
0000
1001
0000
0000
0000
,
1000
0100
1000
0010
0100
0010
1000
0001
,
1000
0200
0000
0000
0310
0000
1001
0000
,
0001
0010
1000
0010
0001
1000
0010
0100
,
0010
2000
0000
0000
3001
0000
0110
0000
,
0001
0010
0001
1000
0100
0010
0001
0010
,
0100
2000
0000
0000
3010
0000
0101
0000
,
2000
0000
0000
0000
3001
0100
0020
0000
,
0000
0000
0000
0000
0000
0000
0030
0000
0000
0001
0010
0001
0000
0000
0001
1000
,
0000
0000
1000
0100
0000
0000
0100
0001
0000
0000
1010
0000
0000
0000
0001
0100
,
0000
0000
0100
1000
0000
0000
1000
0010
0000
0000
0100
0010
0100
0000
0001
0010
,
0000
0000
0010
0001
0000
0000
0001
1000
0000
0000
0110
0000
0000
0000
1000
0010
,
0000
0000
0010
0100
0000
0000
0100
0010
0000
0000
1000
0010
1000
0000
0100
0001
,
0000
0000
0001
0100
0000
0000
0100
1000
0000
0000
0011
0000
0000
0000
1000
0010
,
0000
0000
0010
0100
0000
0000
0100
0001
0000
0000
0001
0100
0001
0000
0010
0100
,
0000
0000
0100
1000
0000
0000
1000
0001
0000
0000
1100
0000
0000
0000
0010
0001
,
0000
0000
0001
0100
0000
0000
0100
0010
0000
0000
0010
1000
0010
0000
0100
0001
,
0000
0000
0001
0010
0000
0000
0010
0000
0000
0001
1000
0001
1000
0001
2001
0000
,
0000
0000
0000
0000
0000
3000
0000
0001
,
0000
0000
1000
0000
0000
0000
0010
0000
0100
0001
0000
0001
1000
0001
1000
0000
,
0000
0000
0010
0000
0000
0000
0100
0000
0001
0000
0000
0100
0000
0000
0000
1000
,
0001
0000
0010
0000
0000
0000
0100
0000
0000
0010
0000
0000
0000
0000
0000
0000
0000
0000
0001
0000
0000
0000
0000
0000
0000
0000
0000
0100
0000
0000
0000
0000
0000
0100
0000
0000
0010
0000
0000
0000
0000
0000
1001
0000
0000
0000
0000
0000
,
0000
0000
0010
0000
0000
0000
1000
0000
0001
0000
1000
0010
1000
0000
0100
0000
,
0000
0000
0010
0000
0000
0000
0001
0000
1000
0010
0100
0010
0000
0000
1000
0000
,
0000
0000
0010
0000
0000
0000
1000
0100
0010
0000
0001
0000
0000
0000
1000
0000
,
0000
0000
0010
0000
0000
0000
0100
0001
0100
0010
1000
0100
1001
0000
0001
0000
,
0000
0000
0100
0000
0000
0000
0010
0000
0100
0000
0000
0010
0000
0000
1000
0000
,
0000
0000
0001
0000
0000
0000
0100
0000
0010
0000
0000
0000
1000
0000
0010
0100
,
0010
0000
1000
0000
0000
0000
0001
0100
0001
0000
1000
0001
1000
0000
0001
0010
,
0100
0010
0001
0000
0010
0000
0100
0000
0000
0001
0000
0000
1000
0000
0010
0100
,
0010
0000
1000
0010
1000
0100
1000
0001
0010
0100
1000
0010
0100
1000
0110
0000
,
0000
0001
0010
0100
1000
0001
0100
1000
,
0100
0001
0020
0000
0000
0130
0000
0011
,
0000
0001
0100
0010
1000
0001
1000
0010
,
0001
0010
2000
0000
0000
3100
0000
1001
,
0000
0010
1000
0010
0100
0001
1000
0010
,
0001
0010
2000
0000
0000
3001
0000
0110
,
0000
0002
0000
0000
0000
0013
0100
2000
,
0000
0000
0000
0000
0000
0000
3000
0001
0100
0000
0010
1000
0000
0000
0001
0010
,
0000
0000
0010
0100
0000
0000
0100
0010
0000
0000
1001
0000
0000
0000
1000
0100
,
0000
0000
0100
0001
0000
0000
0001
0100
0000
0000
0100
1000
0100
0000
0010
0001
,
0000
0000
0001
0010
0000
0000
0010
0100
0000
0000
0110
0000
0000
0000
0010
0001
,
0000
0000
0001
1000
0000
0000
1000
0100
0000
0000
0010
0001
0010
0000
0100
1000
,
0000
0000
1000
0010
0000
0000
0010
0100
0000
0000
0101
0000
0000
0000
0001
1000
,
0000
0000
1000
0010
0000
0000
0010
0100
0000
0000
0001
1000
0001
0000
0010
0100
,
0000
0000
0100
1000
0000
0000
1000
0001
0000
0000
1010
0000
0000
0000
0001
0100
,
0000
0000
0100
0010
0000
0000
0010
1000
0000
0000
0001
0010
0001
0000
1000
0100
,
0000
0000
0100
0010
0000
0000
0010
0001
0100
0010
0100
0010
0100
0000
1001
0000
,
0000
0001
0100
0010
1000
0100
1000
0010
,
0100
0010
0002
0000
0000
1003
0000
0101
,
0000
1000
0010
0001
0010
1000
0001
0100
,
0010
1000
0020
0000
0000
0031
0000
1100
,
0000
0100
0010
0001
0100
1000
0100
0010
,
1000
0100
0020
0000
0000
0130
0000
0110
,
0000
0002
0000
0000
0000
1003
0100
0020
,
0000
0000
0000
0000
0000
0000
0000
0000
0030
0000
0001
1000
0001
0000
0010
0100
,
0000
0000
0100
1000
0000
0000
1000
0001
0000
0000
1010
0000
0000
0000
0001
0100
,
0000
0000
0100
0010
0000
0000
0010
0001
0000
0000
0100
0001
0100
0000
0010
1000
,
0000
0000
1000
0001
0000
0000
0001
0010
0000
0000
0110
0000
0000
0000
1000
0010
,
0000
0000
0010
0100
0000
0000
0100
1000
0000
0000
0100
0001
0100
0000
0001
0010
,
0000
0000
0010
0001
0000
0000
0001
0100
0000
0000
0011
0000
0000
0000
1000
0010
,
0000
0000
0010
0001
0000
0000
0001
0010
0000
0000
1000
0010
1000
0000
0001
0100
,
0000
0000
0100
1000
0000
0000
1000
0100
0000
0000
0101
0000
0000
0000
0001
1000
,
0000
0000
1000
0010
0000
0000
0010
0100
0000
0000
0100
0001
0100
0000
0010
1000
,
0000
0000
1000
0100
0000
0000
0100
0010
0000
0001
1000
0001
1000
0001
2100
0000
,
0000
0000
0000
0000
0000
3000
0000
1000
,
0000
0000
0001
0000
0000
0000
0100
0000
0010
1000
0000
1000
0001
1000
0001
0000
,
0000
0000
0100
0000
0000
0000
0010
0000
1000
0000
0000
0010
0000
0000
0000
0001
,
1000
0000
0100
0000
0000
0000
0010
0000
0000
0100
0000
0000
0000
0000
0000
0000
0000
0000
1000
0000
0000
0000
0000
0000
0000
0000
0000
0010
0000
0000
0000
0000
0000
0010
0000
0000
0100
0000
0000
0000
0000
0000
1001
0000
0000
0000
0000
0000
,
0000
0000
0100
0000
0000
0000
0001
0000
1000
0000
0001
0100
0001
0000
0010
0000
,
0000
0000
0100
0000
0000
0000
1000
0000
0001
0100
0010
0100
0000
0000
0001
0000
,
0000
0000
0100
0000
0000
0000
0001
0010
0100
0000
1000
0000
0000
0000
0001
0000
,
0000
0000
0100
0000
0000
0000
0010
1000
0010
0100
0001
0010
1001
0000
1000
0000
,
0000
0000
0010
0000
0000
0000
0100
0000
0010
0000
0000
0100
0000
0000
0001
0000
,
0000
0000
1000
0000
0000
0000
0010
0000
0100
0000
0000
0000
0001
0000
0100
0010
,
0100
0000
0001
0000
0000
0000
1000
0010
1000
0000
0001
1000
0001
0000
1000
0100
,
0010
0100
1000
0000
0100
0000
0010
0000
0000
1000
0000
0000
0001
0000
0100
0010
,
0100
0000
0001
0100
1000
0100
0001
0010
0100
1000
0010
0100
0110
0000
0000
0000
;
