#TITLE:valley Of The Damned;
#SUBTITLE:;
#ARTIST:Dragonforce;
#TITLETRANSLIT:;
#SUBTITLETRANSLIT:;
#ARTISTTRANSLIT:;
#CREDIT:;
#BANNER:BN.png;
#BACKGROUND:BG.png;
#LYRICSPATH:;
#CDTITLE:CDTitle.gif;
#MUSIC:DragonForce-Valley_of_the_Damned(DEMO).mp3;
#OFFSET:2.550;
#SAMPLESTART:34.550;
#SAMPLELENGTH:12.000;
#SELECTABLE:YES;
#BPMS:0.000=200.000,1053.000=100.000,1068.000=200.000,1163.000=140.000,1178.500=140.000,1286.000=131.000,1286.500=122.580;
#STOPS:;
#BGCHANGES:;
// cache tags:
#FIRSTBEAT:9.000;
#LASTBEAT:1308.667;
#SONGFILENAME:Songs/keyboard/Valley Of The Damned/Valley Of The Damned.sm;
#HASMUSIC:1;
#HASBANNER:1;
#MUSICLENGTH:415.600;
// end cache tags

//---------------dance-single - Blank----------------
#NOTES:
     dance-single:
     Blank:
     Challenge:
     14:
     1.000,1.000,1.000,0.553,1.000,3402.000,465.000,230.000,0.000,0.000:

0000
0000
0000
0000
,
0000
0000
0000
0000
,
0000
0000
1000
1000
0011
0000
0010
0010
,
1001
0000
0100
0100
0011
0000
0001
0001
,
1010
0011
0100
0100
0011
0000
1000
1000
,
0110
0000
0010
0010
1001
0000
0100
0100
,
0011
1100
0110
0001
1001
0000
0100
0100
,
1100
0000
0000
0000
0010
0000
0010
0000
0101
0000
0000
0000
1000
0100
0010
0001
,
0100
0010
0100
0001
1000
0000
1000
0000
0110
0000
0001
0000
1100
0000
0101
0000
,
0010
0000
0101
0000
1000
0000
1100
0000
0010
0000
1001
0000
0001
0010
0001
1000
,
0100
1000
0100
0010
0001
0000
0001
0000
1100
0000
0000
0000
0010
0000
0010
0000
,
1001
0000
0000
0000
0100
0000
0100
0000
0011
0000
0000
0000
0001
0010
0100
1000
,
0001
0010
0100
1000
0100
0000
0100
0000
0011
0000
0000
0000
0010
0000
0010
0000
,
1010
0000
0000
0000
0100
0000
0100
0000
1001
0000
0100
0000
0010
0100
0001
0010
,
0100
1000
0011
0000
0100
0000
0011
0000
0000
0000
1000
0000
1000
0000
0101
0000
,
0000
0010
0010
0110
0000
1000
1000
0101
,
0000
0010
1001
0000
0110
0101
1000
0000
,
0110
1000
0011
0100
1010
0100
0011
1000
,
0220
0000
0330
0000
0000
2200
0000
0000
,
3300
0022
0000
0000
0033
2200
0000
0000
,
3300
0000
0000
0000
0000
0220
0000
0000
,
0330
2002
0000
0000
3003
0202
0000
0000
,
0303
0000
0000
0000
0000
2200
0000
0000
,
3300
0202
0000
0000
0303
2020
0000
0000
,
3030
0000
0000
1100
0010
0110
0011
0100
,
1010
0001
0101
0010
1100
0011
0110
2000
,
0000
0002
0000
3003
0000
2200
0000
0000
,
3300
2002
0000
0000
3003
0022
0000
0000
,
0033
0000
0000
0000
0000
2200
0000
0000
,
3300
0220
0000
0000
0330
2002
0000
0000
,
3003
0000
0000
0000
0000
0022
0000
0000
,
0033
2020
0000
0000
3030
0220
0000
0000
,
0330
0000
0000
0000
0110
1000
0011
0110
,
0001
1010
0100
0011
1001
1010
1100
0110
,
0101
0101
0101
0101
1010
1010
1010
1010
,
0100
0011
1100
0110
0001
1100
0010
0110
,
0010
1010
0100
0011
1100
1100
1100
1100
,
1100
1100
1100
0011
0010
0110
0001
1010
,
0100
0101
1000
0010
0110
1001
1001
1001
,
1001
1001
1001
0110
0011
1100
0010
0101
,
0010
1100
0010
0110
0001
1001
0101
0101
,
0101
0101
0101
2020
0000
3030
0202
0000
,
0303
0000
0110
0000
0000
0000
1000
0100
0010
0100
1000
0001
0010
0100
0010
0001
,
1000
0100
0010
0001
0100
0010
0000
0000
0000
0000
0110
0000
0011
0000
1010
0000
,
0001
0110
1000
0110
0010
1001
0202
0000
,
0000
0000
0000
0000
0000
0000
0000
0303
0000
0000
1100
0000
0010
0000
0101
0000
,
0100
1010
0001
0101
1000
0110
2002
0000
,
0000
0000
0000
0000
0000
0000
0000
3003
0000
0000
0101
0000
0110
0000
1010
0000
,
0010
0110
1000
0101
0010
1001
2020
0000
,
3030
0110
0000
0202
0000
0303
1100
0000
,
0000
0000
0110
0000
0000
0000
1001
0000
0000
0000
0020
0030
0000
0000
2020
3030
,
0000
1010
1010
0000
0000
0100
0010
0002
,
0000
0103
0010
1000
0001
0110
2002
0000
,
0000
3003
0000
0000
0000
0100
0010
2000
,
0000
0000
3001
0000
0010
0000
0100
0000
0000
0011
0000
0000
2020
3030
0000
0202
,
0000
0000
0303
0000
1010
0000
0110
0000
0002
0000
0000
0003
2000
0000
0000
0000
,
3000
0000
0020
0000
0000
0030
1100
0000
0110
0000
0011
0000
1001
0000
0000
0000
,
0000
1010
0001
0110
0010
1001
0100
1010
,
0100
0000
1010
0000
0001
0000
0110
0000
0000
0000
0001
0010
0100
1000
0010
0100
,
0001
0100
0010
0100
0001
1000
0220
0000
0000
0000
0330
0000
0220
0000
0000
0000
,
0000
0330
0000
0000
0000
0000
1010
0000
0100
0000
0011
0000
2002
0000
0000
0000
,
3003
0000
0000
0011
0010
1100
0110
0001
,
1010
0000
0100
0000
0010
0000
0202
0000
0000
0000
0000
0303
2020
0000
0000
0000
,
0000
3030
0220
0000
0330
0000
1000
0000
0100
0000
0010
0000
0202
0000
0000
0000
,
0303
0000
0000
0002
0000
0013
0110
0000
,
0110
0000
0000
0000
1000
0100
0010
0001
0010
0100
1000
0001
0010
0001
1000
0100
,
1000
0010
0100
0010
1000
0100
0010
0001
0100
0010
0100
0001
0010
0100
1000
0000
,
0000
0000
0110
0000
0000
0000
1000
0100
0010
0001
0100
0010
1000
0010
0100
0010
,
1000
0001
0100
0010
0100
0001
0010
0100
1000
0010
0100
0001
0100
0001
1000
0010
,
1000
0100
0010
0001
1000
0001
1000
0001
1000
0100
0010
0001
0100
0010
1000
0100
,
0010
0001
0010
0100
0010
0001
1000
0010
0100
0010
1000
0001
0010
0001
1000
0100
,
0010
0100
1000
0010
0100
0001
0010
0100
1000
0010
0100
0001
0010
0100
1000
0010
,
0100
0010
0100
0001
1000
0001
1000
0010
1000
0100
0010
0001
0100
0010
1000
0100
,
0010
0100
1000
0010
0100
0001
0010
0100
0010
0001
1000
0001
1000
0001
0100
0010
,
0100
0010
0100
0001
0010
0001
0010
0001
1000
0100
1000
0100
1000
0100
0010
0001
,
0010
0100
1000
0010
0100
0001
0100
0010
0100
0001
1000
0100
0010
0001
0100
0010
,
1000
0100
0010
0100
1000
0001
0100
0010
0100
0001
1000
0010
1000
0001
0100
0001
,
1000
0100
1000
0100
0010
0001
1000
0010
0100
0001
0010
0100
1000
0001
0100
0010
,
1000
0001
0100
0010
1000
0100
0010
0100
1000
0001
0010
0100
1000
0001
0100
0010
,
0100
0001
1000
0010
1000
0010
1000
0100
0010
0100
0010
0100
0001
0010
0100
1000
,
0001
0100
0010
1000
0100
0010
0100
1000
0100
0010
0001
1000
0010
0100
0001
1000
,
0010
0100
0010
1000
0100
0010
0001
0010
0100
0010
0100
1000
0100
0010
0001
0100
,
0010
1000
0100
1000
0001
0100
0001
0100
0010
0100
0001
0010
0100
1000
0010
0100
,
0010
1000
0100
0010
0001
1000
0100
0010
0001
0100
0010
1000
0010
0100
0010
1000
,
0010
0100
0001
0100
0010
0100
0001
0010
0100
1000
0100
0010
0001
0100
0010
0100
,
0001
0100
0010
1000
0010
0100
0010
0100
0001
0100
0010
0100
0001
0100
0010
1000
,
0100
0010
0001
1000
0100
1000
0010
1000
0001
0010
0100
1000
0010
0100
0010
0100
,
0001
1000
0001
1000
0001
0010
0100
0010
0001
1000
0100
0010
0100
1000
0010
0100
,
0001
0100
0010
1000
0100
1000
0100
0010
1000
0001
0100
0001
0010
0001
1000
0001
,
0010
0100
1000
0100
0010
0001
0100
0010
1000
0100
0010
0001
0100
0010
1000
0010
,
0100
0010
1000
0001
0100
0001
1000
0010
1000
0001
0010
0001
0100
0010
0100
0001
,
1000
0100
0010
0001
1000
0010
0100
0010
1000
0001
0010
0100
0010
0001
0100
0010
,
1000
0100
1000
0100
0010
0001
0010
0001
0010
0100
1000
0010
0100
0010
1000
0010
,
0100
1000
0100
0010
0100
1000
0100
0010
0001
0100
0010
1000
0010
0100
0010
1000
,
0001
0010
0001
1000
0010
1000
0001
0100
0010
0100
0001
0010
0100
0010
0001
0010
,
0100
1000
0010
1000
0100
1000
0100
0010
0001
0010
0100
1000
0010
0100
0001
0010
,
0100
1000
0001
0100
0010
1000
0100
0010
0001
0100
0010
0100
0001
1000
0010
1000
,
0010
1000
0001
0100
0001
0100
0001
0010
0100
1000
0001
0010
0100
1000
0010
0100
,
0001
0100
0010
0100
0001
1000
0100
0010
0100
1000
0010
0100
0001
0010
0100
0010
,
0001
0100
0010
1000
0000
0000
2200
0000
0000
0000
0000
0000
3300
0000
0022
0000
,
0000
0000
0033
0220
0000
0000
0330
0000
,
0000
0000
0000
2002
0000
0000
3003
0220
,
0000
0000
0330
0202
0000
0000
0303
0000
,
0000
0000
0000
0202
0000
0000
0303
2020
,
0000
0000
3030
0220
0000
0000
0330
0000
,
0000
0110
0001
0110
1010
0001
0110
1000
,
0101
0000
1010
0000
0011
0000
0101
0000
0000
0000
2002
0000
0000
3003
0220
0000
,
0000
0000
0000
0330
0000
0000
2020
0000
0000
0000
0000
0000
3030
0000
2002
0000
,
0000
0000
3003
0022
0000
0000
0033
0000
,
0000
0000
0000
0022
0000
0000
0033
2020
,
0000
0000
3030
0220
0000
0000
0330
0000
,
0000
0000
0000
0202
0000
0000
0303
2002
,
0000
0000
3003
2200
0000
0000
3300
0000
,
1001
0001
0110
0011
0100
1010
0101
0110
,
0110
0110
0110
0110
0110
0110
0000
0000
,
0000
1100
0011
0101
0100
1010
0010
0101
,
0010
1100
0202
0000
0000
0303
0000
0000
,
0000
1100
0010
0101
0010
1001
0100
0101
,
0001
1010
0220
0000
0330
0202
0303
1010
,
0100
0101
1000
0110
0001
1100
1000
1001
,
0100
0011
2020
0000
3030
0101
0010
0202
,
0000
0303
1010
0100
0010
0101
1001
0100
,
0001
0000
1010
0100
0010
0001
0100
0001
0010
0100
1000
0100
1000
0000
0000
0000
,
0110
1100
0101
0000
0110
0000
0011
1100
,
0110
2002
0000
0000
3003
0000
0000
0000
,
0110
0000
1001
0000
0101
0000
0100
0000
1010
0000
0101
0000
1010
0000
0000
0101
,
0000
0000
1010
0220
0000
0000
0330
0000
0011
0000
1010
0000
1100
0000
0001
0000
,
0100
1100
0010
1000
0010
0101
0100
1010
,
0110
0001
0110
1010
0011
1001
0100
0010
,
1010
0000
1000
0000
0010
0000
0101
0000
0220
0000
0000
0000
0330
0000
1000
0010
,
0100
0010
1000
0001
0100
0010
0100
0001
0010
0100
1010
0000
0000
0000
0000
0000
,
0101
0010
0001
0100
1100
0010
0110
0202
,
0000
0303
1010
0000
0000
0000
0000
0000
0110
0000
1100
0000
0110
0000
1001
0000
,
0010
0000
0110
0000
1000
0000
0101
0000
2020
0000
0000
0000
0000
3030
0202
0000
,
0000
0000
0000
0303
0220
0000
0330
0000
1001
0000
0011
0000
0110
0000
0101
0000
,
0100
1010
0010
1000
0101
1100
0110
0202
,
0000
0000
0000
0000
0303
0000
0000
0000
1000
0100
0010
0001
1000
0100
1000
0100
,
1000
0001
0010
0100
1000
0010
0100
0001
0100
0010
1000
0010
0100
0001
1000
0100
,
0010
0000
0000
0000
1001
0000
0000
0000
1000
0100
0010
0001
1000
0010
0100
0010
,
1000
0001
0010
0100
1000
0001
0010
0001
0010
0001
0010
0100
1000
0010
0100
0001
,
0100
0010
1000
0100
0010
0001
1000
0100
1000
0001
0010
0001
1000
0010
1000
0100
,
0010
0100
0010
0001
0010
0100
1000
0001
0010
0100
1000
0001
0010
0100
0010
0001
,
1000
0010
0100
0010
1000
0010
0100
0001
0010
0100
0010
0001
1000
0100
1000
0100
,
0010
0001
0010
0100
1000
0010
0100
0001
0010
0100
1000
0100
0010
0001
1000
0010
,
0100
0010
1000
0100
0010
0001
0010
0100
0010
0001
0010
0100
1000
0010
0100
0001
,
0010
0100
1000
0010
0100
0010
1000
0001
0100
0001
1000
0010
0100
0001
0010
0100
,
1000
0100
0010
0001
1000
0100
1000
0001
0010
0001
0100
0010
0100
1000
0100
0010
,
0001
1000
0010
0100
0001
0010
0100
1000
0001
0100
0010
0100
0001
1000
0010
1000
,
0001
0100
0001
1000
0100
0010
0100
1000
0001
0010
0100
1000
0010
0100
0001
0010
,
0100
0010
0001
1000
0010
0100
0010
1000
0100
1000
0010
0100
0001
0010
0001
0010
,
0001
0010
0100
1000
0010
0100
0001
0010
0100
1000
0100
1000
0100
0010
0001
0100
,
0010
1000
0010
0100
0001
0010
0100
0010
0001
0100
0010
1000
0100
0010
0100
1000
,
0100
0010
0001
1000
0010
0100
0001
0010
0100
1000
0010
0100
0001
0010
0001
0010
,
0001
0010
0100
1000
0100
1000
0010
0100
0001
0010
0100
1000
0001
0100
0001
1000
,
0100
0010
0001
0100
0010
1000
0010
0100
0001
0010
0001
1000
0100
1000
0001
0010
,
0100
1000
0010
0100
0001
0100
0010
1000
0100
0010
0001
0100
0010
1000
0010
0100
,
0001
0010
0001
1000
0100
0010
0001
1000
0100
0010
0001
0010
0001
1000
0100
1000
,
0100
0010
0001
0010
0001
0010
0001
0010
0100
1000
0010
0100
0001
0010
0001
1000
,
0100
0010
0100
1000
0001
0010
0100
1000
0010
0100
0001
0100
0010
1000
0100
0010
,
0100
1000
0100
0010
0001
1000
0100
1000
0100
1000
0100
0010
0100
0010
0100
0010
,
0001
0010
0100
1000
0001
0010
0100
0010
0001
1000
0010
0100
0010
1000
0010
0100
,
0001
0100
0010
0100
0001
1000
0100
0010
0001
0100
0010
0100
0010
1000
0010
0100
,
0001
0010
0100
1000
0001
0010
0100
0010
0001
1000
0010
0100
0001
0010
0100
1000
,
0010
0100
0001
0010
0100
0010
0001
1000
0010
0100
0001
1000
0100
0010
0001
0010
,
0100
1000
0010
0100
0010
0100
0010
0100
0010
1000
0010
0100
0001
0010
0100
1000
,
0001
0010
0001
1000
0010
1000
0001
0100
0001
1000
0010
1000
0010
0100
0010
0001
,
0010
0001
0100
0010
0100
1000
0100
0010
0001
0010
0100
1000
0001
0010
0100
1000
,
0010
0100
0001
0100
0010
1000
0010
0100
0010
1000
0100
0010
0001
0010
0100
1000
,
0001
0010
0100
0010
0001
0100
0010
1000
0010
0100
0001
0010
0001
1000
0010
1000
,
0100
0010
0001
0010
0100
1000
0100
1000
0100
0010
0001
0100
0010
1000
0010
0100
,
0001
0010
0100
1000
0100
0010
0001
1000
0100
0010
0001
1000
0010
0100
0010
1000
,
0001
0010
0100
1000
0001
0010
0100
0010
0001
1000
0010
0100
0001
0100
0010
0100
,
1000
0010
0100
0001
1000
0010
0100
0001
0010
0100
1000
0001
0100
0010
0100
0001
,
1000
0100
0010
0001
1000
0010
0100
0001
0010
0100
1000
0001
0100
0010
0100
0001
,
1000
0100
0010
0001
0010
0100
1000
0001
0010
0100
0010
0001
1000
0100
0010
0100
,
1000
0001
0100
0010
0100
0001
0010
0100
1000
0010
0100
0010
1000
0100
2002
0000
,
0000
3003
0000
2002
,
0000
0000
0000
0000
0000
0000
0000
3003
0000
0000
0000
0000
1000
0010
0100
0001
,
1000
0100
0010
0001
0010
0100
1000
0010
0100
0001
0010
0100
1000
0100
0010
0001
,
1000
0100
0010
0001
1000
0010
0100
0010
1000
0001
0010
0100
1000
0010
1000
0010
,
1000
0010
1000
0100
0010
0001
0010
0100
1000
0001
0100
0010
1000
0100
0010
0001
,
1000
0100
1000
0001
0100
0001
1000
0100
0010
0001
0100
0010
0100
0010
1000
0100
,
0010
0001
0010
0100
1000
0100
0010
0001
1000
0100
0010
0001
0010
0100
1000
0001
,
0010
0001
1000
0100
0010
0100
1000
0001
0010
0000
0202
0000
0000
0000
0000
0000
,
0000
0000
0000
0000
0000
0000
0000
0303
0000
0000
2002
0000
0000
0000
0000
0000
,
0000
0000
0000
0000
0000
0000
0000
0000
3003
0000
1000
0100
0010
0001
1000
0010
,
0100
0010
1000
0001
0010
0100
0010
0001
1000
0010
1000
0001
0100
0001
0100
0001
,
0010
0100
1000
0100
0010
0001
1000
0010
0100
0010
1000
0001
0100
0001
1000
0100
,
1000
0010
0100
0001
0010
0001
0100
0010
1000
0100
0010
0001
1000
0010
0100
0010
,
1000
0001
0010
0100
1000
0001
0100
0010
1000
0010
0100
0001
0010
0100
1000
0100
,
0010
0001
1000
0010
0100
0001
1000
0100
0010
0100
1000
0100
0010
0100
0010
0100
,
0010
0001
0010
0100
1000
0001
0010
0100
0010
0001
0100
0010
1000
0100
0010
0100
,
1000
0001
0100
0010
0100
0001
1000
0100
1000
0100
0001
0100
0010
0100
0001
1000
,
0010
0100
0001
0010
0100
1000
0100
0010
0001
0010
0100
1000
0010
0100
0001
0100
,
0010
1000
0010
0100
0001
1000
0100
0010
0100
1000
0001
0100
0001
0010
0100
0010
,
0001
1000
0100
1000
0010
0100
0010
1000
0100
0010
0001
0100
0010
0100
0001
0010
,
0100
1000
0100
0010
0001
1000
0010
0100
0010
0100
0010
1000
0001
0010
0100
1000
,
0001
0100
0001
1000
0010
1000
0100
1000
0010
0100
0001
0010
0001
0010
0001
0100
,
0010
1000
0100
0010
0001
1000
0100
0010
0001
0010
0100
1000
0010
0100
0001
0010
,
0100
1000
0100
1000
0001
0100
0001
1000
0010
1000
0100
0010
0001
0010
0100
1000
,
0010
0100
0010
0100
0001
0100
0010
1000
0100
0010
0001
0010
0100
1000
0000
0000
,
2200
0000
3300
0202
0000
0303
0110
0000
,
2002
0000
0000
0000
3003
0000
0220
0000
0330
0000
0011
0000
1100
0010
0001
0010
,
0100
1000
0010
0100
0001
0100
0010
1000
0100
0010
0001
0010
0100
1000
0001
0100
,
0010
1000
0100
0010
0001
1000
0020
0000
0000
0000
2030
0000
0000
0000
3000
0000
,
0202
0000
0303
2020
0000
0000
0000
3030
0202
0000
0000
0303
0110
0000
1100
0000
,
0101
0000
0000
0000
1100
0000
0000
0000
0110
0000
0000
0000
1000
0100
0010
0001
,
1000
0010
0100
0001
1000
0100
1000
0001
0100
0001
0010
0100
0010
0001
0100
0010
,
0100
0001
1000
0100
1000
0001
0010
0100
1000
0010
0100
0001
0100
0010
1000
0010
,
0100
0001
0010
0100
1000
0100
1000
0010
0100
0010
1000
0001
1000
0100
1000
0010
,
0100
0001
0010
0001
1000
0100
0010
0001
1000
0100
0010
0100
1000
0100
0010
0100
,
1000
0001
0100
0010
0100
0001
1000
0010
1000
0001
0010
0100
1000
0100
0010
0001
,
0000
0000
1000
0010
0100
0001
0100
0010
1000
0000
0000
0000
0100
0010
1000
0001
,
0100
0010
0100
0001
1000
0100
1000
0100
1000
0001
0100
0010
0100
0001
1000
0100
,
1000
0001
0010
0100
1000
0001
0010
0001
1000
0010
0100
0001
1000
0100
1000
0001
,
0100
0001
0010
0100
1000
0001
0100
0001
1000
0010
0100
0001
1000
0100
0010
0001
,
1000
0010
0100
0010
1000
0001
0010
0100
1000
0001
0100
0001
1000
0010
0100
0001
,
0010
0100
1000
0001
0010
0100
0010
0001
1000
0010
0100
0001
1000
0100
1000
0001
,
0100
0001
0010
0100
1000
0001
1000
0001
0010
0100
1000
0010
0100
0010
1000
0010
,
0100
0010
1000
0001
0010
0100
0010
0001
0100
0010
1000
0100
0010
0100
1000
0001
,
0010
0100
1000
0010
0100
0001
0100
0010
1000
0010
0100
0001
1000
0100
0010
0100
,
1000
0001
0100
0010
1000
0001
0010
0100
1000
0001
0010
0001
0100
0010
0100
0010
,
0100
0001
1000
0001
0100
0010
1000
0001
0100
0001
1000
0100
0010
0001
0010
0100
,
1000
0010
0100
0001
0100
0010
1000
0100
0010
0001
1000
0010
0100
0001
0010
0100
,
1000
0100
0010
0001
1000
0010
0100
0010
1001
0000
0000
0000
0000
0110
0000
0000
,
0000
1001
0000
0110
0000
0000
1100
0000
,
0110
0000
0000
0000
1100
0000
0100
0010
0001
0100
0010
1000
0010
0100
0001
1000
,
0100
0010
0100
1000
0001
0010
0100
1000
0010
0100
0001
0100
0010
1000
0100
0010
,
0001
1000
0010
0100
0001
0010
0001
0010
0001
0010
0001
0010
0001
0010
0001
0010
,
0001
1000
0001
1000
0010
1000
0100
1000
0001
1000
0010
1000
0100
0010
0001
1000
,
0010
0100
0001
0000
1100
0001
0100
0010
1000
0110
0001
0100
0010
1000
1001
0010
,
0110
0000
0000
0000
1000
0001
0100
0010
1000
0001
0100
0010
1000
0100
0010
0001
,
1000
0010
0100
0010
1001
0100
0010
0001
1000
0010
0100
0010
1000
0001
0100
0001
,
1000
0010
1000
0100
0010
0001
0010
0100
1000
0001
0100
0010
0100
0001
1000
0010
,
0100
0001
1000
0010
0100
0010
1000
0001
0010
0100
0010
0001
1000
0100
0010
0100
,
1000
0001
0100
0010
1000
0100
1000
0010
0100
0001
0010
0001
0100
0010
1000
0100
,
0010
0100
1000
0001
0100
0010
1000
0001
0100
0001
0100
0001
0100
1000
0010
1000
,
0100
0010
0100
1000
0010
1000
0001
0100
0010
1000
0001
0010
0100
1000
0001
1000
,
0100
0010
0001
0010
0100
1000
0001
0100
0010
1000
0100
1000
0010
0100
0010
1000
,
0100
0010
0001
0010
0100
0010
0001
0010
0100
1000
0000
0000
0000
0001
0010
0100
,
1000
0010
0100
0001
1000
0100
1000
0001
0010
0100
1000
0010
1000
0100
0010
0001
,
1000
0010
0100
0010
1000
0001
0010
0100
0020
0000
0000
0000
0030
0000
0010
0100
,
1000
0001
0100
0010
0100
0001
1000
0100
0010
0001
1000
0100
1000
0100
1000
0001
,
0100
0001
0010
0100
1000
0010
0200
0000
0000
0000
0000
0300
1000
0100
1000
0001
,
0010
0100
1000
0001
0010
0001
1000
0100
0010
0100
1000
0001
0100
0010
1000
0100
,
1000
0001
0010
0001
0100
0010
1000
0100
0010
0000
0000
0000
1000
0100
1000
0100
,
1000
0100
1000
0100
1000
0100
1000
0100
1000
0000
0000
0000
0101
0010
0100
1000
,
0001
0100
0010
1000
0100
0010
0001
1000
0010
0100
2002
0000
0000
0000
3003
0000
,
1001
0000
0110
0000
0110
2002
0000
3003
,
1010
0000
0110
1010
0101
2200
0000
3300
,
0101
0000
0110
0000
1001
0022
0000
0033
,
0110
0000
1100
0101
0220
0000
0330
1100
,
0000
0110
0000
0000
0000
0110
0000
0011
0000
2020
0000
0000
3030
0000
0011
0000
,
0000
0110
0000
0011
1100
0000
0110
0011
,
0000
0000
0000
0000
0000
0000
0010
0100
1000
0010
0100
0001
1000
0010
0100
0001
,
0010
0100
1000
0100
0010
0001
1100
0010
0001
1000
0010
0100
0010
1000
0001
0010
,
0001
0010
0001
1000
0010
0100
0010
1000
0001
0010
0100
1000
0100
0010
0001
1000
,
0100
0010
0100
1000
0001
0100
0020
0000
0000
0030
2000
0000
0000
3000
0200
0000
,
0000
0300
0010
0000
1000
0100
0010
0001
1000
0010
0000
0000
0110
0000
0000
0000
,
0000
0000
1000
0010
0100
0001
0010
0100
0010
0001
1000
0100
0010
0100
1000
0001
,
0100
0010
1000
0010
0100
0001
1000
0100
0010
0001
0010
0100
1000
0100
0010
0001
,
1000
0010
0100
0001
0110
0000
0110
0000
0110
0000
0110
0000
0110
0000
0110
0000
,
0110
0000
0000
0000
0000
0000
0000
0100
0010
0000
0100
0000
0001
0000
1000
0000
,
0010
0000
0100
0000
0000
0010
0000
1100
0000
0000
0110
0000
0000
0101
0000
0000
,
0110
0000
1010
0000
0000
0011
0000
0000
1100
0000
0011
0000
0000
1010
0000
0000
,
0110
0000
0012
0000
0000
0000
0000
0000
0010
0003
2100
0000
0000
0000
0000
0000
,
3100
0000
0000
0000
0011
0000
0000
0000
0000
0000
0101
0000
0000
0000
0000
0000
1010
0000
0000
0000
0110
0000
0000
0000
0000
0000
0000
0000
1000
0010
0100
0001
,
1000
0000
0110
1000
0001
0011
0100
1000
,
0110
0001
1100
0010
0001
0110
1000
0010
,
1001
0001
0110
1000
0010
1100
0010
0100
,
1001
0100
0011
0001
0100
1001
0010
1000
,
0110
1100
0001
1000
0110
0100
0010
1001
,
1000
0110
1000
0010
0011
0100
0001
1010
,
0010
1001
0100
0001
1010
0010
0100
1001
,
0000
1000
0100
1000
0100
0010
0001
0100
0010
1000
0100
1000
0001
0100
0010
0100
,
0001
0010
0000
0000
0000
1000
0100
0010
0001
0100
0010
1000
0100
1000
0001
0100
,
0010
0100
0001
0010
0100
1000
0001
0100
0010
0100
0001
1000
0100
0010
0001
1000
,
0100
1000
0010
1000
0001
0010
0001
1000
0100
0010
0001
0010
0100
1000
0001
0100
,
0010
0100
0010
1000
0001
0010
0001
0010
0100
1000
0100
0010
0100
1000
0001
0010
,
0100
0010
0001
1000
0010
0100
0010
1000
0100
0010
0001
0010
0100
1000
0001
0100
,
0010
0100
0010
0001
1000
0100
0010
0100
1000
0010
0100
0001
0010
0100
1000
0001
,
0100
0010
1000
0100
0010
0001
1000
0100
1000
0010
1000
0010
0100
0010
1000
0001
,
0100
0010
1000
0100
0010
0001
0010
0001
0010
0001
0010
0000
0000
0000
1000
0100
,
0010
0001
1000
0010
0100
0010
1000
0001
0100
0010
1000
0100
1000
0010
0100
0001
,
0010
0001
0010
0001
0010
0100
1000
0010
0100
0001
0100
0010
1000
0100
1000
0100
,
1000
0010
0100
0001
0010
0100
1000
0001
1000
0001
1000
0001
1000
0100
0010
0001
,
0100
0010
1000
0010
0100
0001
0100
0010
1000
0100
0010
0100
1000
0001
0010
0100
,
0010
0001
0100
0010
0100
0001
0010
0100
0010
0001
1000
0010
1000
0010
1000
0010
,
0100
0001
1000
0100
0010
0001
1000
0001
0010
0100
1000
0001
0100
0010
0100
0001
,
1000
0100
1000
0100
0010
0001
0100
0010
0100
0001
1000
0010
0100
0001
1000
0100
,
0010
0001
0100
0010
1000
0010
0100
0001
0010
0001
0100
0010
1000
0000
0000
0000
,
0100
0000
0000
0000
1010
0000
0000
0000
1000
0000
0000
0100
0011
0000
0000
0000
,
0100
0000
0000
0011
0000
0110
1100
0101
0110
1010
0000
0000
,
0000
0110
0000
0000
1001
0000
0011
0000
,
0000
0000
0000
0000
0000
0000
0100
0010
0001
0000
0000
0000
0100
0000
0001
0000
0000
0000
1000
0000
0000
0220
0000
0000
,
0000
0000
0330
0000
2200
0000
0000
0000
0000
3300
0202
0000
0000
0303
2002
0000
,
0000
3003
0000
0220
0000
0000
0000
0330
0000
0000
1000
0000
0100
0000
0022
0000
,
0000
0033
2200
0000
0000
3300
0000
0000
2002
0000
0000
0000
3003
0000
0100
0000
,
0000
0000
0000
0010
0000
0000
1000
0000
0000
0000
0000
0000
0000
0000
0000
0001
0000
0000
0100
0000
0000
0000
0000
0000
0000
0000
0000
0010
0000
0000
1000
0000
0000
0000
0100
0000
0000
0000
0010
0000
0000
0000
2001
0000
0000
0000
0000
0000
,
0000
0000
3200
0300
0020
0030
0001
2000
,
0000
3000
0200
0000
0000
0000
0300
0000
0010
0000
0001
0000
0000
0000
2200
0000
,
0000
3300
0000
0000
0202
0000
0000
0000
0000
0303
0110
0000
0000
0000
1001
0000
,
0000
0000
0000
1000
0100
0010
0001
0010
0100
1000
0100
0010
0001
0100
0010
1000
0010
0100
0001
0000
0000
0011
0000
0000
,
1000
0100
0010
0001
1000
0010
0200
0000
,
0000
0300
0000
0000
0010
0001
2000
0000
0000
0000
3000
0000
0000
0000
0200
0000
,
0000
0000
0000
0300
0001
0000
0010
0000
0100
0000
1000
0000
0100
0000
0011
0000
,
0000
1000
0000
0101
0000
0000
0000
0001
0000
1100
0000
0000
0010
0000
0100
0000
1000
0000
0001
0000
0100
0000
0010
0000
,
1100
0000
0000
0110
0000
1100
0000
0110
,
1001
0000
0000
0000
0000
0000
0000
0000
0000
1000
0100
0010
0001
0010
0100
1000
0000
0000
0110
0000
0000
0000
0000
0000
,
1001
0000
0000
0000
0000
0000
0010
0001
0100
0000
0000
0000
0110
0000
0000
0000
,
1001
0000
0000
0000
0000
0000
0000
0000
0000
0110
0000
0000
0000
1000
0000
0100
0000
0010
0000
0001
0000
0000
0000
0000
,
0002
0000
0003
2000
0000
3000
0200
0300
,
0020
0000
0000
0000
0000
0000
0030
0000
0000
0200
0000
0000
0000
0000
0300
0000
1000
0100
0010
0001
0010
0100
1000
0000
,
0000
0000
0110
0000
0000
0010
1100
0000
0000
0001
0110
0000
0000
1000
0101
0000
,
0000
0000
0000
0010
0000
0000
1100
0000
0000
0000
0000
0000
0000
0000
0000
0100
0000
0000
0010
0000
0000
0000
0000
0000
0000
0000
0000
0001
0000
0000
1000
0000
0000
0000
0000
0000
0000
0000
0000
0100
0000
0000
0010
0000
0000
0000
1000
0000
,
0000
0000
0100
0000
0000
0000
0020
0000
0000
0000
0000
0000
0000
0000
0000
0000
0000
0000
0000
0000
0000
0030
0000
0000
0002
0000
0000
0000
0000
0000
0003
0000
0000
0000
0000
0000
0000
0000
0000
0000
0000
0000
0010
0000
0000
0001
0000
0000
,
0100
0000
0000
0010
0000
0000
1000
0000
0000
0000
0000
0000
0000
0000
0000
0000
0000
0000
0000
0000
0000
0000
0000
0000
0100
0000
0000
0000
0000
0000
0000
0000
0100
0000
0010
0000
0100
0000
0010
0000
0100
0000
0010
0000
0100
0000
0010
0000
,
0000
0000
1100
0000
0000
0110
0000
1001
,
0000
0000
0000
0110
0000
0000
0010
0001
0010
0001
0010
0001
0010
0000
0000
1000
0100
1000
0100
1000
0100
1000
0100
0000
,
0000
0001
0000
1010
0000
0000
0000
0001
0000
0110
0000
0000
0000
1000
0000
0101
0000
0000
0000
0100
0000
1010
0000
0000
,
0000
0001
0000
2100
0000
0000
0000
0000
0000
3000
0000
0000
0200
0000
0000
0000
0000
0000
0000
0000
0000
0320
0000
0000
,
0000
0030
2000
0000
0000
0000
0000
0000
0100
3000
0000
0000
0010
0000
0000
0000
,
1000
0000
0000
0000
0100
0000
0000
0000
0000
0000
0000
0000
0010
0000
0000
0001
,
0000
0000
1000
0000
0000
0010
0100
0000
1000
0001
1000
0001
1000
0001
1000
0001
,
1000
0001
1000
0001
1000
0001
1000
0001
1000
0001
1000
0001
1000
0001
1000
0001
,
1000
0001
2000
0000
0000
0000
0000
0000
0000
0000
0000
0000
0000
0000
0000
0000
,
0000
0000
0000
0000
,
0000
0000
3000
0000
0000
0000
0000
0000
0000
0000
0000
0000
;
