#TITLE:Hotarubi;
#SUBTITLE:Far East of East;
#ARTIST:Tatsu feat. Tsukiko;
#TITLETRANSLIT:;
#SUBTITLETRANSLIT:;
#ARTISTTRANSLIT:;
#CREDIT:ALICE_;
#BANNER:Keika.png;
#BACKGROUND:Keika.jpg;
#LYRICSPATH:;
#CDTITLE:cdtitle.png;
#MUSIC:Keika.mp3;
#OFFSET:-0.570;
#SAMPLESTART:127.800;
#SAMPLELENGTH:12.000;
#SELECTABLE:YES;
#BPMS:0.000=154.000;
#STOPS:;
#BGCHANGES:;
// cache tags:
#FIRSTBEAT:0.000;
#LASTBEAT:624.000;
#SONGFILENAME:Songs/alice 4th complete step/Hotarubi/Keika.sm;
#HASMUSIC:1;
#HASBANNER:1;
#MUSICLENGTH:249.085;
// end cache tags

//---------------dance-single - ----------------
#NOTES:
     dance-single:
     :
     Challenge:
     16:
     1.000,1.000,1.000,0.542,0.476,1297.000,814.000,135.000,0.000,87.000:
1000
0100
1000
0000
0001
0010
0100
0000
,
1000
0000
0000
0000
0100
0000
0000
0000
0010
0000
0000
0000
0000
0000
0000
0000
1001
0000
0000
0000
0100
0010
0001
0000
1000
0000
0011
0000
0100
0000
0000
0000
,
1100
0000
1001
0110
1001
0000
1100
0000
0110
0000
1001
0110
1001
0000
1100
0000
,
0110
0000
1001
0110
1001
0000
0110
0000
2001
0000
3021
0000
1230
0000
0302
0010
,
1103
0000
1001
0110
1001
0000
0011
0000
0110
0000
1001
0110
1001
0000
0011
0000
,
0110
0000
1001
0110
1001
0000
0011
0000
1001
0100
0010
0100
1001
0000
0110
0010
,
1001
0000
0101
1010
0101
0000
1010
0000
1001
0000
0101
1010
0101
0000
1010
0000
,
1001
0000
0101
1010
0101
0000
1001
0000
2100
0000
3012
0000
1203
0000
0321
0000
,
1031
0000
0101
1010
0101
0000
1010
0000
1001
0000
0101
1010
0101
0000
1010
0000
,
1001
0000
0101
1010
0101
0000
1010
0100
1001
0000
0011
0100
1000
0100
0011
0100
,
1001
0000
1010
0100
1001
0100
1010
0101
,
1001
0000
0101
0010
1001
0010
0101
1010
,
1001
0000
1100
1010
0001
0110
1010
0100
,
1001
0000
0000
0000
0110
0000
0001
0000
1001
0000
0010
0000
1100
0000
0010
0100
,
1001
0000
1010
0001
1100
0001
1010
1001
,
1100
0000
0101
1001
0010
1001
0101
1000
,
0012
0100
1100
0113
2000
0110
0011
3100
,
1002
0000
0013
0000
2100
0000
3010
0000
1001
0100
0001
1000
0110
0000
1001
0001
,
1010
0000
0101
1000
0110
1000
0011
1010
,
0101
0000
0000
0000
1100
0000
0001
0000
0110
0000
0001
0000
1010
0000
0001
0010
,
1100
0000
0110
0101
1000
0101
1100
0001
,
1010
0000
1010
0000
0101
0000
0000
0000
0010
1000
0100
0000
1001
0000
0001
0000
,
2002
3003
0101
1000
0011
1000
0101
1010
,
0110
0000
1010
1001
0100
1001
0110
0001
,
2010
0100
0101
3110
0002
1100
1010
0103
,
2001
0000
3010
0000
0102
0000
0013
0000
1001
0010
0001
1000
0110
0000
1001
0010
,
2100
0000
0000
0100
0100
0000
3110
0001
,
1002
0000
0000
0010
0000
0010
1103
0000
,
2001
0000
0000
0001
0000
0001
3110
0000
,
1002
0000
0000
0000
0000
0000
1000
0000
0000
0000
1000
0000
0113
0010
1000
0001
,
2200
0000
0000
3300
0011
0000
0001
0000
1001
0000
0001
0000
0011
0000
1001
0000
,
0202
0000
0000
0303
1010
0000
1001
0000
1000
0000
1001
0000
1010
0000
1000
0000
,
0101
0001
1010
1100
1000
0110
1001
0100
,
0011
0000
1001
0000
1100
0100
1010
0000
0101
0000
0011
0010
1001
0000
0110
0100
,
1001
0000
0000
0000
0101
0000
0011
1100
0011
0000
0000
0000
0110
0000
1000
0000
,
1001
0000
0000
0000
1010
0000
1100
0011
1100
0000
0000
0000
0110
0000
1001
0110
,
1001
0000
0000
0000
1010
0000
0101
1000
0110
0000
0000
0000
1001
0000
1100
0000
,
1001
0000
0000
0000
0101
0000
1010
0001
0110
0000
0000
0000
1001
0000
0100
0000
,
2102
0000
3003
0000
1010
0000
0101
1000
0110
0000
0000
0000
1001
0000
0100
0000
,
0101
0000
0000
0000
0101
0000
1010
0001
0110
0000
1000
0000
0011
0000
1000
0000
,
0110
0000
0010
0000
1100
0000
0001
0110
0001
0000
1010
0000
0101
0000
0010
0000
,
1001
0000
0000
0000
0110
0000
0001
0000
1010
1000
0100
0010
1001
0001
0010
0100
,
1001
0000
0000
0000
0101
0000
1010
0100
1010
0000
0100
0000
0011
0000
0110
0000
,
1001
0000
0000
0000
1010
0000
0101
0010
0101
0000
0010
0000
1100
0000
0110
0000
,
1011
0000
0000
0000
0110
0000
0011
1100
0001
0000
1010
0000
1101
0000
0010
0000
,
2120
0000
3030
0000
0101
0000
1000
0011
0100
0000
0010
0000
1001
0100
0100
0000
,
2002
0000
0000
0000
3113
0000
0011
0100
1000
0000
1010
0000
0101
0000
0110
0000
,
2002
0000
0000
0000
3113
0000
1100
0010
0001
0000
1010
0000
0101
0000
0110
0000
,
1002
0010
1100
0113
2001
0010
0011
3100
,
1010
0100
0001
1100
0010
1000
0011
0100
1001
0100
0010
1000
0110
0001
0100
1000
,
0011
0000
1001
0110
1001
0000
0011
0000
0110
0000
1001
0110
1001
0000
0011
0000
,
0110
0000
1001
0110
1001
0000
0110
0000
1002
0000
1203
0000
0321
0000
2030
0100
,
3011
0000
1001
0110
1001
0000
1100
0000
0110
0000
1001
0110
1001
0000
1100
0000
,
0110
0000
1001
0110
1001
0000
1100
0000
1001
0010
0100
0010
1001
0000
0110
0100
,
1001
0000
1010
0101
1010
0000
0101
0000
1001
0000
1010
0101
1010
0000
0101
0000
,
1001
0000
1010
0101
1010
0000
1001
0000
0012
0000
2103
0000
3021
0000
1230
0000
,
1301
0000
1010
0101
1010
0000
0101
0000
1001
0000
1010
0101
1010
0000
0101
0000
,
1001
0000
1010
0101
1010
0000
0101
0010
1001
0000
1100
0010
1001
0110
1001
0110
,
1001
0010
0101
0010
1001
0010
0101
1010
,
1001
0100
1010
0100
1001
0100
1010
0101
,
1001
1000
0011
0101
1000
0110
0101
0010
,
1001
0000
0001
0000
0110
0000
1000
0000
1001
0000
0100
0000
0011
0000
0100
0010
,
2002
3003
0101
1000
0011
1000
0101
1001
,
0011
0001
1010
1001
0100
1001
1010
0001
,
2100
0001
0110
3011
0102
1100
1010
0103
,
2001
0000
3110
0000
0112
0000
1003
0000
1100
0010
0001
0010
1001
0000
0101
0001
,
1010
0000
1100
0001
0110
0001
1010
0101
,
1100
0000
1000
0000
0011
0000
1000
0000
0110
0000
1000
0000
0101
0000
1000
0100
,
0011
0000
0110
1010
0001
1010
0011
1000
,
0101
0000
0101
0000
1010
0000
1000
0000
0100
0001
0010
0000
1001
0000
0100
0000
,
1101
0000
1010
0001
1100
0001
1010
0101
,
0110
0000
0101
1001
0010
1001
0110
1000
,
0102
0010
1010
0113
2000
0011
0101
3010
,
1002
0000
0103
0000
2010
0000
3100
0000
1001
0100
1000
0001
0110
0000
1001
0100
,
0012
0000
0000
0100
0100
0000
1013
0100
,
2100
0000
0000
0010
0000
0010
3101
0000
,
1002
0000
0000
0100
0000
0100
1013
0000
,
2101
0000
0000
0000
0000
0000
0010
0000
0000
0000
0010
0000
3101
0100
1000
0010
,
0202
0000
0000
0303
1010
0000
1000
0000
1001
0000
1000
0000
1100
0000
1001
0000
,
2200
0000
0000
3300
0011
0000
1001
0000
0001
0000
1001
0000
0101
0000
0001
0000
,
1010
1000
0101
0011
0001
0110
1001
0010
,
1100
0000
1001
0000
0011
0010
0101
0000
1010
0000
1100
0100
1001
0001
0110
0010
,
1001
0000
0000
0000
1010
0000
1100
0011
1100
0000
1000
0000
0110
0000
0001
0000
,
1001
0000
0000
0000
0101
0000
0011
1100
0011
0000
0001
0000
0110
0000
1001
0110
,
1001
0000
0000
0000
0101
0000
1010
0001
0110
0000
0100
0000
1001
0000
0011
0000
,
1001
0000
0000
0000
1010
0000
0101
1000
0110
0000
0100
0000
1001
0000
0100
0000
,
1101
0000
0000
0000
0101
0000
1010
0001
0110
0000
0010
0000
1001
0000
0100
0000
,
1010
0000
0000
0000
1010
0000
0101
1000
0110
0000
0001
0000
1100
0000
0010
0000
,
0110
0000
1000
0000
0011
0000
0110
1000
0001
0000
0110
0000
1001
0000
1010
0000
,
0101
0000
0000
0000
0110
0000
1000
0000
0011
0100
0010
1000
0101
1000
0010
0100
,
2002
0000
3003
0000
0011
0000
0101
0010
0101
0000
0010
0000
1100
0000
0110
0000
,
2002
0000
3003
0000
1100
0000
1010
0100
1010
0000
0100
0000
0011
0000
0110
0000
,
2102
0000
3003
0000
0110
0000
1100
0011
1000
0000
0101
0000
1011
0000
0100
0000
,
0212
0000
0303
0000
0101
0000
1010
0001
0100
0000
0110
0000
1001
1000
0010
0000
,
2200
0000
0000
0000
3311
0000
0100
0010
1000
0000
0100
0000
1001
0000
1100
0000
,
0022
0000
0000
0000
1133
0000
0010
0100
0001
0000
1000
0000
0101
0000
0010
0000
,
1011
0001
0101
0011
1110
1000
1001
0110
,
1100
0010
0001
1000
0110
0000
1001
0001
1100
0010
0100
0001
1001
0100
0010
1000
,
0102
0103
2010
3010
,
0120
0000
0130
0000
2001
0010
3001
0100
,
1002
1003
1020
1030
,
2010
0000
3010
0100
0001
1000
0001
0010
,
2100
0000
3100
0000
0012
0000
0013
1000
,
0120
0000
0130
0000
2001
0000
3001
0010
,
1200
1000
0011
1300
,
0001
0000
0001
0000
1000
0000
0010
0000
1001
0100
0011
1100
0010
1001
0110
0000
,
2001
0000
3000
0000
0200
0000
0300
0000
0020
0000
0030
0000
0000
0002
0000
0000
0000
0000
0000
0000
0000
0000
0000
0000
0000
0000
0000
0000
0000
0000
0000
0000
,
0000
0000
0000
0000
0000
0000
0000
0000
0000
0000
0000
0003
0100
0010
1000
0001
,
0100
1000
0100
0010
1000
0001
0100
0010
1000
0100
1000
0001
0010
0001
0200
0000
,
0000
0000
0000
0000
0310
1000
0002
0000
0000
0000
0000
0000
0000
0000
0000
0003
,
2000
0000
3000
0000
0200
0000
0300
0000
0020
0000
0030
0100
0000
0000
1000
0000
0100
0000
0001
0010
0000
0000
0100
0000
1000
0000
0010
0000
0100
0000
0001
0000
,
1000
0000
0000
0000
0000
0000
0000
0000
0000
0000
0000
0000
0100
0000
0000
0000
0000
0000
0000
0000
0000
0000
0000
0000
0010
0000
0000
0000
0000
0000
0001
0000
0000
0000
0000
0000
0010
0000
0000
0000
0000
0000
0000
0000
0000
0000
0000
0000
0200
0000
0000
0000
0000
0000
0000
0000
0000
0000
0000
0000
0300
0000
0000
0000
0000
0000
0000
0000
0000
0000
0000
0000
1000
0000
0000
0000
0000
0000
0000
0000
0000
0000
0000
0000
0010
0000
0000
0000
0000
0000
0000
0000
0000
0000
0000
0000
0100
0000
0000
0000
0000
0000
0000
0000
0001
0000
0000
0000
0000
0000
0000
0000
1000
0000
0000
0000
0000
0000
0000
0000
0010
0000
0000
0000
0000
0000
0000
0000
0100
0000
0000
0000
0000
0000
0000
0000
0001
0000
0000
0000
0000
0000
0000
0000
0010
0000
0000
0000
0000
0000
0000
0000
0000
0000
0000
0000
0000
0000
0000
0000
0100
0000
0000
0000
0000
0000
0000
0000
0001
0000
0000
0000
0000
0000
0000
0000
1000
0000
0000
0000
0000
0000
0000
0000
0010
0000
0000
0000
0000
0000
0000
0000
,
0100
0000
0000
0010
0000
0000
0100
0000
0001
0010
0001
0000
0100
0000
0010
0000
0000
1000
0000
0000
0100
0000
0010
0001
0000
0000
0000
1000
0200
0000
0300
0000
,
1001
0010
0200
0000
0311
0000
0100
0010
1001
0100
0011
0000
1101
0000
0011
0100
,
1001
0000
0000
0000
,
1000
0100
0010
0001
0000
0000
0000
0000
,
0001
0010
0100
1000
0000
0000
0000
0000
,
1000
0010
0100
0001
0000
0000
0000
0000
,
0001
0100
0010
1000
0000
0000
0000
0000
,
0100
1000
0010
0001
0000
0000
0000
0000
,
0010
0001
0100
1000
0000
0000
0000
0000
,
0100
0010
1000
0001
0000
0000
0000
0000
,
2002
0220
0000
0000
0000
0000
0000
0000
0000
0000
0000
0000
0000
0000
3333
0000
,
1001
0000
0000
0000
1010
0000
1100
0011
1100
0000
1000
0000
0011
0000
1100
0000
,
1001
0000
0000
0000
0101
0000
0011
1100
0011
0000
0001
0000
1100
0000
0110
1001
,
0110
0000
0000
0000
0101
0000
1010
0001
0110
0000
0100
0000
1001
0000
0011
0000
,
1001
0000
0000
0000
1010
0000
0101
1000
0110
0000
0010
0000
1001
0000
0010
0000
,
2012
0000
3003
0000
0101
0000
1010
0001
0110
0000
1000
0000
1001
0000
0010
0000
,
2020
0000
3030
0000
1010
0000
0101
1000
0110
0000
0001
0000
1100
0000
0001
0000
,
1110
0000
0100
0000
0011
0000
1010
0101
1010
0000
0101
0000
1010
0000
0100
0000
,
1001
0000
0000
0000
0110
0000
1000
0000
0011
0100
0010
1000
0101
1000
0010
0100
,
2002
0000
3003
0000
0011
0000
0101
0010
0101
0000
0010
0000
1100
0000
0110
0000
,
2002
0000
3003
0000
1100
0000
1010
0100
1010
0000
0100
0000
0011
0000
0110
0000
,
1101
0000
0000
0000
0110
0000
1100
0011
1000
0000
0101
0000
1011
0000
0100
0000
,
0222
0000
0333
0000
0101
0000
1010
0001
0100
0000
0110
0000
1001
1000
0010
0000
,
2200
0000
0000
0000
3311
0000
0100
0010
1000
0000
0100
0000
1001
0000
1100
0000
,
0022
0000
0000
0000
1133
0000
0010
0100
0001
0000
1000
0000
0101
0000
0010
0000
,
1011
0001
0101
0011
1110
1000
1001
0110
,
1100
0010
0001
1000
0110
0000
1001
0001
1100
0010
0100
0001
1001
0100
0010
1000
,
1100
0000
1001
0110
1001
0000
1100
0000
0110
0000
1001
0110
1001
0000
1100
0000
,
0110
0000
1001
0110
1001
0000
0110
0000
2001
0000
3021
0000
1230
0000
0302
0010
,
1103
0000
1001
0110
1001
0000
0110
0000
0011
0000
1001
0110
1001
0000
0110
0000
,
0011
0000
1001
0110
1001
0000
0110
0000
1001
0010
0001
0100
1010
0000
0101
0001
,
1010
0000
0101
1010
0101
0000
1010
0000
1001
0000
0101
1010
0101
0000
1010
0000
,
1001
0000
0101
1010
0101
0000
1001
0000
2100
0000
3012
0000
1203
0000
0321
0000
,
1031
0000
0101
1010
0101
0000
1001
0000
1010
0000
0101
1010
0101
0000
1001
0000
,
1010
0000
0101
1010
0101
0000
1001
0100
1010
0000
0011
1000
0101
0010
1001
0100
,
1010
0000
0011
1100
0011
0000
1010
0000
0101
0000
0011
1100
0011
0000
1010
0000
,
0101
0000
0011
1100
0011
0000
0110
0000
2001
0000
3210
0000
1320
0000
0132
1000
,
0113
0000
1100
0011
1100
0000
0101
0000
1010
0000
1100
0011
1100
0000
0101
0000
,
1010
0000
1100
0011
1100
0000
0101
0000
1001
0010
0101
1010
0101
0000
0110
0010
,
1001
0000
0110
1001
0110
0000
1010
0000
1001
0000
0110
1001
0110
0000
0101
0000
,
1001
0000
0110
1001
0110
0000
1001
0000
2100
0000
3012
0000
1203
0000
0321
0000
,
1031
0000
0101
1010
0101
0000
1010
0000
1001
0000
0101
1010
0101
0000
1010
0000
,
1001
0000
0101
1010
0101
0000
1010
0100
1001
0000
0011
1100
1001
0110
1001
0110
,
2002
0000
0000
0000
,
3003
0000
0000
0000
;
