#TITLE:Bubble Crab(Megaman X2);
#SUBTITLE:;
#ARTIST:Capcom Sound Team;
#TITLETRANSLIT:;
#SUBTITLETRANSLIT:;
#ARTISTTRANSLIT:;
#CREDIT:Megaman X2(Capcom);
#BANNER:bubble crab-banner.jpg;
#BACKGROUND:bubble crab-bg.jpg;
#LYRICSPATH:;
#CDTITLE:PhoenixW-cdtitle.JPG;
#MUSIC:51 - X2 - BUBBLY CRABLOS STAGE.mp3;
#OFFSET:-0.388;
#SAMPLESTART:87.813;
#SAMPLELENGTH:11.980;
#SELECTABLE:YES;
#BPMS:0.000=197.566;
#STOPS:25.000=0.080
,26.250=0.080
,27.500=0.080
,28.750=0.080
,40.250=0.080
,41.250=0.080
,42.500=0.080
,43.500=0.080
,176.000=0.080
,177.250=0.080
,178.500=0.080
,179.750=0.080
,191.250=0.080
,192.250=0.080
,193.500=0.080
,194.500=0.080
;
#BGCHANGES:;
// cache tags:
#FIRSTBEAT:0.500;
#LASTBEAT:331.500;
#SONGFILENAME:Songs/dragon force/51 - X2 - BUBBLY CRABLOS STAGE/51 - X2 - BUBBLY CRABLOS STAGE.sm;
#HASMUSIC:1;
#HASBANNER:1;
#MUSICLENGTH:111.080;
// end cache tags

//---------------dance-single - ----------------
#NOTES:
     dance-single:
     :
     Hard:
     9:
     0.776,0.895,0.612,0.612,0.324,467.000,68.000,68.000,0.000,6.000:
0000
1000
0010
0100
0001
0010
0001
0010
,
0100
0000
1000
0000
0010
0000
0100
0000
0001
1000
0001
0000
0100
0000
0010
0000
,
1000
0100
0001
0100
1000
0010
1000
0010
,
0100
0001
0010
0100
1000
0001
0100
0001
,
1000
0000
0001
0100
0001
0000
0100
0000
0010
1000
0010
0000
0001
0000
1000
0001
,
1000
0000
0010
0000
0010
0000
0100
0000
0100
0000
0001
0010
0001
1000
0010
1000
,
0100
0010
0001
0000
1001
0000
0000
0000
0000
0110
0000
0000
0000
0000
1001
0000
,
0000
0000
0000
1010
0000
0000
0110
0000
0110
0000
0000
0000
0101
0000
0000
0000
,
0011
0000
0000
1100
0000
0000
0101
1001
,
0000
0000
0000
0000
,
0000
1010
0000
0000
0000
0101
0000
0000
0000
0000
1010
0000
0000
0000
1001
0000
,
0000
0000
0110
0000
0110
0000
0000
0011
0000
0000
0000
0000
1100
0000
0000
0000
,
0000
1001
0000
0000
0000
0000
0000
0000
0110
0000
0000
0000
0000
0000
1001
0000
,
0000
1010
0110
0000
0011
0000
0000
0000
,
2000
0000
0000
3020
0000
0000
0230
0000
,
0000
0302
0000
0000
0000
0000
2003
0000
,
0000
3200
0000
0000
0000
0000
0000
0320
0000
0000
0000
0000
0000
0000
0032
0000
,
0000
0000
0000
0000
2003
0000
0000
0002
3000
0000
0000
0000
0200
0003
0000
0000
,
0000
0000
0000
0311
0000
0002
0000
0000
,
0000
2003
0000
0000
0000
0000
0000
0020
0000
3000
0000
0000
0200
0030
0000
0000
,
0000
0000
0300
0202
,
0000
2303
0000
0000
0000
0000
3220
0000
0000
0000
0330
0000
2000
0000
0000
0000
,
0000
0000
3200
0000
0000
0000
0000
0302
0000
0000
0000
0203
0000
0000
0000
0000
,
0000
0320
0000
0000
0032
0000
2003
0000
,
0010
0010
0000
0001
0001
0000
0000
0000
,
0100
0100
0000
0001
0001
0000
3002
0000
,
0000
0203
0000
0000
0302
0000
2003
0000
,
3000
0020
0000
0000
0230
0000
0320
0000
,
0100
0100
0000
1000
1000
0000
0000
0000
,
0001
0001
0000
1000
1000
0030
1000
0100
,
1000
0010
0100
0001
0001
0010
0010
0001
,
0010
0001
0100
1000
1000
0100
0100
0001
,
0010
0001
0100
0010
0010
0100
0100
1000
,
0001
0000
1000
0000
0100
0000
0110
0000
0001
0010
0001
0010
0001
0000
1000
0000
,
0100
0000
0001
0000
0100
0000
1010
0000
0010
0100
0010
0100
0010
0000
1000
0000
,
0100
0000
0010
0000
0001
0000
0101
0000
0010
1000
0010
1000
0010
0000
0100
0000
,
0001
0000
1000
0000
0010
0000
1010
0000
0100
0001
0100
0001
0100
0000
0010
0000
,
0000
0000
0010
1000
0010
0000
0000
0000
0000
0000
0100
0001
0100
0000
0001
0000
,
0100
0010
1000
0100
1000
0100
0010
0001
,
0100
0000
0010
0000
1000
0001
1000
0000
0010
0000
0100
0000
0001
0000
0010
0000
,
1000
0010
0001
0100
0001
0100
0010
1000
,
0100
0000
0010
0000
0001
0000
1000
0000
0010
0000
1000
0000
0001
0000
1000
0010
,
1000
0000
0010
0000
0100
0001
0100
0000
1000
0000
0001
1000
0001
0000
0100
0000
,
0100
0000
0010
0000
0010
0000
1000
0100
1000
0001
0100
0001
0010
0100
1000
0000
,
1001
0000
0000
0000
0000
0110
0000
0000
0000
0000
1001
0000
0000
0000
0000
0101
,
0000
0110
0110
0000
1010
0000
1100
0000
,
0000
0011
0000
0000
1010
1001
0000
0000
,
0000
0000
0000
0000
0000
0000
0000
0000
0000
0000
0000
0000
0000
0101
0000
0000
,
0000
1010
0000
0000
0000
0000
0101
0000
0000
0000
1001
0000
0000
0000
0110
0000
,
0110
0000
0000
1100
0000
0000
0000
0000
0011
0000
0000
0000
0000
1001
0000
0000
,
0000
0000
0110
0000
0000
1001
0000
0101
,
0110
1100
0000
0002
,
0000
0203
0000
0000
0320
0000
0000
2030
,
0000
0000
0000
0000
0000
0000
0000
0000
3002
0000
0000
0000
0000
0023
0000
0000
,
0000
0000
0000
0230
0000
0000
0000
0000
0000
0000
2300
0000
0000
0000
0000
0000
,
3002
0000
0000
2000
0003
0000
0000
0000
0020
3000
0000
0000
0000
0000
0000
0000
,
0000
0000
1130
0000
0000
0000
2000
0000
0000
0000
0000
0000
0000
3002
0000
0000
,
0000
0000
0000
0200
0000
0003
0000
0000
0020
0300
0000
0000
0000
0000
0000
0000
,
0000
0000
0000
0000
0030
0000
0000
0000
2020
0000
0000
0000
0000
3032
0000
0000
,
0000
0223
0000
0330
0002
0000
0000
0023
,
0000
0000
0000
2030
0000
0000
0000
3020
0000
0000
0000
0000
0000
0000
0230
0000
,
0000
0000
2300
0000
3002
0000
0100
0100
,
0000
1000
1000
0000
0000
0000
0010
0010
,
0000
1000
1000
0000
2003
0000
0000
3020
,
0000
0000
2030
0000
3002
0000
0003
0200
,
0000
0000
0320
0000
0230
0000
0010
0010
,
0000
0001
0001
0000
0000
0000
1000
1000
,
0000
0001
0001
0300
0001
0010
0001
0100
,
0010
1000
1000
0100
0100
1000
0100
1000
,
0010
0001
0001
0010
0010
1000
0100
1000
,
0010
0100
0100
0010
0010
0001
1000
0001
,
0010
0000
0110
0000
1000
0100
1000
0100
1000
0000
0001
0000
0010
0000
1000
0000
,
0010
0000
0101
0000
0100
0010
0100
0010
0100
0000
0001
0000
0010
0000
0100
0000
,
1000
0000
1010
0000
0100
0001
0100
0001
0100
0000
0010
0000
1000
0000
0001
0000
,
0100
0000
0101
0000
0010
1000
0010
1000
0010
0000
0100
0000
0000
0000
0100
0001
,
0100
0000
0000
0000
0000
0000
1000
0010
1000
0000
0010
0000
0100
0000
0001
0000
,
1000
0100
1000
0100
0001
0010
0100
0001
,
1000
0010
1000
0000
0001
0000
0100
0000
0010
0000
0001
0000
1000
0000
0001
0000
,
0010
0100
0010
0100
0001
1000
0100
0001
,
0010
0000
1000
0000
0001
0000
1000
0000
0010
0000
1000
0001
1000
0000
0001
0000
,
0100
0010
0100
0000
1000
0000
0010
1000
0010
0000
0100
0000
0100
0000
0001
0000
,
0001
0000
1000
0100
1000
0010
0100
0010
0001
0100
1000
0000
1010
0000
0000
0000
,
0000
0101
0000
0000
1001
0000
0000
0110
;

//---------------dance-single - ----------------
#NOTES:
     dance-single:
     :
     Medium:
     8:
     0.712,0.709,0.558,0.576,0.149,428.000,62.000,64.000,0.000,0.000:
0000
1000
0010
0100
0001
0010
0001
0010
,
0100
1000
0010
0100
0001
0001
0100
0010
,
1000
0100
0001
0100
1000
0010
1000
0010
,
0100
0001
0010
0100
1000
0001
0100
0001
,
1000
0001
0001
0100
0010
0010
0001
1000
,
1000
0010
0010
0100
0100
0001
0001
1000
,
1000
0000
1000
0000
1001
0000
0000
0000
0000
0110
0000
0000
0000
0000
1001
0000
,
0000
0000
0000
1010
0000
0000
0110
0000
0110
0000
0000
0000
0101
0000
0000
0000
,
0011
0000
0000
1100
0000
0000
0101
1001
,
0000
0000
0000
0000
,
0000
1010
0000
0000
0000
0101
0000
0000
0000
0000
1010
0000
0000
0000
1001
0000
,
0000
0000
0110
0000
0110
0000
0000
0011
0000
0000
0000
0000
1100
0000
0000
0000
,
0000
1001
0000
0000
0000
0000
0000
0000
0110
0000
0000
0000
0000
0000
1001
0000
,
0000
1010
0110
0000
0011
0000
0000
0000
,
2000
0000
0000
3020
0000
0000
0230
0000
,
0000
0302
0000
0000
0000
0000
2003
0000
,
0000
3200
0000
0000
0000
0000
0000
0320
0000
0000
0000
0000
0000
0000
0032
0000
,
0000
0000
0000
0000
2003
0000
0000
0002
3000
0000
0000
0000
0200
0003
0000
0000
,
0000
0000
0000
0310
0000
0002
0000
0000
,
0000
2003
0000
0000
0000
0000
0000
0020
0000
3000
0000
0000
0200
0030
0000
0000
,
0000
0000
0300
0002
,
0000
2003
0000
0000
0000
0000
3020
0000
0000
0000
0030
0000
2000
0000
0000
0000
,
0000
0000
3200
0000
0000
0000
0000
0302
0000
0000
0000
0203
0000
0000
0000
0000
,
0000
0320
0000
0000
0032
0000
2003
0000
,
0010
0010
0000
0001
0001
0000
0000
0000
,
0100
0100
0000
0001
0001
0000
3002
0000
,
0000
0203
0000
0000
0302
0000
2003
0000
,
3000
0020
0000
0000
0230
0000
0320
0000
,
0100
0100
0000
1000
1000
0000
0000
0000
,
0001
0001
0000
1000
1000
0030
1000
0100
,
1000
0010
0100
0001
0001
0010
0010
0001
,
0010
0001
0100
1000
1000
0100
0100
0001
,
0010
0001
0100
0010
0010
0100
0100
1000
,
0001
1000
0100
0110
0001
0001
0001
1000
,
0100
0001
0100
1010
0010
0010
0010
1000
,
0100
0010
0001
0101
1000
1000
1000
0100
,
0001
1000
0010
1010
0100
0100
0100
0010
,
0000
0000
0100
0001
0100
0000
0000
0000
0000
0000
1000
0010
1000
0000
0001
0000
,
0100
0010
1000
0100
1000
0100
0010
0001
,
0100
0010
1000
1000
0010
0100
0001
0010
,
1000
0010
0001
0100
0001
0100
0010
1000
,
0100
0010
0001
1000
0010
1000
0001
1000
,
1000
0010
0100
0100
1000
0001
0001
0100
,
0100
0010
0010
1000
1000
0001
0001
0001
,
1001
0000
0000
0000
0000
0110
0000
0000
0000
0000
1001
0000
0000
0000
0000
0101
,
0000
0110
0110
0000
1010
0000
1100
0000
,
0000
0011
0000
0000
1010
1001
0000
0000
,
0000
0000
0000
0000
0000
0000
0000
0000
0000
0000
0000
0000
0000
0101
0000
0000
,
0000
1010
0000
0000
0000
0000
0101
0000
0000
0000
1001
0000
0000
0000
0110
0000
,
0110
0000
0000
1100
0000
0000
0000
0000
0011
0000
0000
0000
0000
1001
0000
0000
,
0000
0000
0110
0000
0000
1001
0000
0101
,
0110
1100
0000
0002
,
0000
0203
0000
0000
0320
0000
0000
2030
,
0000
0000
0000
0000
0000
0000
0000
0000
3002
0000
0000
0000
0000
0023
0000
0000
,
0000
0000
0000
0230
0000
0000
0000
0000
0000
0000
2300
0000
0000
0000
0000
0000
,
3002
0000
0000
2000
0003
0000
0000
0000
0020
3000
0000
0000
0000
0000
0000
0000
,
0000
0000
0130
0000
0000
0000
2000
0000
0000
0000
0000
0000
0000
3002
0000
0000
,
0000
0000
0000
0200
0000
0003
0000
0000
0020
0300
0000
0000
0000
0000
0000
0000
,
0000
0000
0000
0000
0030
0000
0000
0000
2000
0000
0000
0000
0000
3002
0000
0000
,
0000
0203
0000
0300
0002
0000
0000
0023
,
0000
0000
0000
2030
0000
0000
0000
3020
0000
0000
0000
0000
0000
0000
0230
0000
,
0000
0000
2300
0000
3002
0000
0100
0100
,
0000
1000
1000
0000
0000
0000
0010
0010
,
0000
1000
1000
0000
2003
0000
0000
3020
,
0000
0000
2030
0000
3002
0000
0003
0200
,
0000
0000
0320
0000
0230
0000
0010
0010
,
0000
0001
0001
0000
0000
0000
1000
1000
,
0000
0001
0001
0300
0001
0010
0001
0100
,
0010
1000
1000
0100
0100
1000
0100
1000
,
0010
0001
0001
0010
0010
1000
0100
1000
,
0010
0100
0100
0010
0010
0001
1000
0001
,
0010
0110
1000
1000
1000
0001
0010
1000
,
0010
0101
0100
0100
0100
0001
0010
0100
,
1000
1010
0001
0001
0001
0010
1000
0001
,
0100
0000
0101
0000
0010
0000
0010
0000
0010
0000
0100
0000
0000
0000
0010
1000
,
0010
0000
0000
0000
0000
0000
0100
0001
0100
0000
0010
0000
0100
0000
0001
0000
,
1000
0100
1000
0100
0001
0010
0100
0001
,
1000
0010
1000
0000
0001
0000
0100
0000
0010
0000
0001
0000
1000
0000
0001
0000
,
0010
0100
0010
0100
0001
1000
0100
0001
,
0010
1000
0001
1000
0010
1000
1000
0001
,
0100
0100
1000
0010
0010
0100
0100
0001
,
0001
1000
1000
0001
0001
0001
1010
0000
,
0000
0101
0000
0000
1001
0000
0000
0110
;

//---------------dance-single - ----------------
#NOTES:
     dance-single:
     :
     Easy:
     6:
     0.558,0.671,0.540,0.522,0.126,316.000,60.000,58.000,0.000,0.000:
0000
1001
0000
1000
0000
0100
0000
1000
,
0000
0100
0000
0010
0001
0001
0000
1000
,
0000
0001
0000
0100
0000
0010
0000
1000
,
0000
0100
0000
1001
0000
0100
0000
0010
,
0000
0001
0001
0000
0100
0100
0000
0010
,
0010
1000
1000
0001
0010
0001
0010
0001
,
0010
0000
0100
0000
1001
0000
0000
0000
0000
0100
0000
0000
0000
0000
1001
0000
,
0000
0000
0000
0010
0000
0000
0100
0000
0110
0000
0000
0000
0101
0000
0000
0000
,
0011
0000
0000
1100
0000
0000
0100
1001
,
0000
0000
0000
0000
,
0000
1010
0000
0000
0000
0101
0000
0000
0000
0000
1000
0000
0000
0000
0001
0000
,
0000
0000
0100
0000
0110
0000
0000
0011
0000
0000
0000
0000
1100
0000
0000
0000
,
0000
1001
0000
0000
0000
0000
0000
0000
0110
0000
0000
0000
0000
0000
1001
0000
,
0000
1000
0110
0000
0011
0000
0000
0000
,
2000
0000
0000
3020
0000
0000
0230
0000
,
0000
0302
0000
0000
0000
0000
2003
0000
,
0000
3200
0000
0000
0000
0000
0000
0320
0000
0000
0000
0000
0000
0000
0032
0000
,
0000
0000
0000
0000
2003
0000
0000
0002
3000
0000
0000
0000
0200
0003
0000
0000
,
0000
0000
0000
0310
0000
0002
0000
0000
,
0000
2003
0000
0000
0000
0000
0000
0020
0000
3000
0000
0000
0200
0030
0000
0000
,
0000
0000
0300
0001
,
0000
1000
0000
0000
0000
0000
0010
0000
0000
0000
0000
0000
2000
0000
0000
0000
,
0000
0000
3200
0000
0000
0000
0000
0320
0000
0000
0000
0230
0000
0000
0000
0000
,
0000
0320
0000
0000
0032
0000
2003
0000
,
0010
0000
0000
0001
0000
0000
0000
0000
,
0100
0000
0000
0001
0000
0000
3002
0000
,
0000
0203
0000
0000
0302
0000
2003
0000
,
3000
0020
0000
0000
0230
0000
0320
0000
,
0100
0000
0000
1000
0000
0000
0000
0000
,
0001
0000
0000
1000
0000
0030
1000
0000
,
1000
0100
0001
0010
,
0010
0100
0001
0001
,
0010
0100
0100
0010
,
0001
0000
0100
0110
0001
0001
0001
0000
,
1000
0000
0001
1010
0010
0010
0010
0000
,
1000
0000
0001
0101
1000
1000
1000
0000
,
0001
0000
0010
1010
0100
0100
0100
0010
,
0000
0101
0110
0000
0000
1010
0110
1001
,
0000
0001
0000
0010
0000
0001
0000
0010
,
0000
0100
1000
1000
0000
0001
0000
1000
,
0000
0010
0000
0100
0000
0001
0000
0010
,
0000
1001
0000
0010
0000
0100
0000
1000
,
1000
0000
0010
0010
0000
0100
0100
0001
,
0001
1000
0100
1000
0100
1000
0100
0010
,
1001
0000
0000
0000
0000
0010
0000
0000
0000
0000
1001
0000
0000
0000
0000
0100
,
0000
0010
0110
0000
1010
0000
1100
0000
,
0000
0011
0000
0000
0010
1001
0000
0000
,
0000
0000
0000
0000
0000
0000
0000
0000
0000
0000
0000
0000
0000
0101
0000
0000
,
0000
1010
0000
0000
0000
0000
0001
0000
0000
0000
1000
0000
0000
0000
0010
0000
,
0110
0000
0000
1100
0000
0000
0000
0000
0011
0000
0000
0000
0000
1001
0000
0000
,
0000
0000
0110
0000
0000
1001
0000
0001
,
0110
1100
0000
0002
,
0000
0203
0000
0000
0320
0000
0000
2030
,
0000
0000
0000
0000
0000
0000
0000
0000
3002
0000
0000
0000
0000
0023
0000
0000
,
0000
0000
0000
0230
0000
0000
0000
0000
0000
0000
2300
0000
0000
0000
0000
0000
,
3002
0000
0000
2000
0003
0000
0000
0000
0020
3000
0000
0000
0000
0000
0000
0000
,
0000
0000
0130
0000
0000
0000
2000
0000
0000
0000
0000
0000
0000
3002
0000
0000
,
0000
0000
0000
0200
0000
0003
0000
0000
0020
0300
0000
0000
0000
0000
0000
0000
,
0000
0000
0000
0000
0030
0000
0000
0000
1000
0000
0000
0000
0000
0001
0000
0000
,
0000
0100
0000
0000
0002
0000
0000
0023
,
0000
0000
0000
0230
0000
0000
0000
0320
0000
0000
0000
0000
0000
0000
0230
0000
,
0000
2300
3002
0100
,
0000
1000
0000
0000
0000
0000
0010
0000
,
0000
1000
0000
0000
2003
0000
0000
3020
,
0000
0000
2030
0000
3002
0000
0003
0200
,
0000
0320
0230
0010
,
0000
0001
0000
0000
0000
0000
1000
0000
,
0000
0001
0000
0300
0001
0000
0001
0000
,
0010
1000
0100
0100
,
0010
1000
1000
0100
,
0010
0010
0100
1000
,
0010
0110
1000
1000
1000
0000
0001
0000
,
1000
0101
0100
0100
0100
0000
0001
0000
,
1000
1010
0001
0001
0001
0000
1000
0000
,
0100
0101
0010
0010
0010
0100
0000
1010
,
0110
0000
0000
0101
0110
1001
0000
0100
,
0000
0001
0000
0100
0000
0001
0000
0010
,
1000
1000
0000
0100
0000
1000
0000
0001
,
0000
0010
0000
0100
0000
0001
0000
1001
,
0000
0001
0000
0010
0000
1000
1000
0000
,
0001
0001
0000
0010
0010
0100
0100
1000
,
0010
1000
0010
1000
0010
0100
0011
0000
,
0000
0110
0000
0000
1001
0000
0000
1100
;
