#TITLE:Guardians;
#SUBTITLE:;
#ARTIST:Rhapsody;
#TITLETRANSLIT:;
#SUBTITLETRANSLIT:;
#ARTISTTRANSLIT:;
#CREDIT:;
#BANNER:(cerdo_claro)Guardians-bn.PNG;
#BACKGROUND:(cerdo_claro)Guardians-bg.png;
#LYRICSPATH:;
#CDTITLE:cdtitle.png;
#MUSIC:(cerdo_claro)Guardians.mp3;
#OFFSET:0.377;
#SAMPLESTART:100.000;
#SAMPLELENGTH:12.000;
#SELECTABLE:YES;
#BPMS:0.000=153.000;
#STOPS:;
#BGCHANGES:;
// cache tags:
#FIRSTBEAT:4.000;
#LASTBEAT:656.000;
#SONGFILENAME:Songs/toune 4/(cerdo_claro) Guardians/(cerdo_claro)Guardians.sm;
#HASMUSIC:1;
#HASBANNER:1;
#MUSICLENGTH:260.682;
// end cache tags

//---------------dance-single - ----------------
#NOTES:
     dance-single:
     :
     Hard:
     11:
     1.000,1.000,1.000,0.292,1.000,1689.000,455.000,76.000,0.000,22.000:
0000
0000
0000
0000
,
1100
0000
0000
0000
0000
0000
0000
1001
,
1001
0000
0000
0000
0000
0000
0000
0110
,
1001
0110
0000
0000
0000
0000
0000
0110
,
0110
0000
0000
0000
0000
0000
0000
0000
0100
1000
0001
0010
0100
1000
0001
0010
,
1100
1100
1100
1100
0110
0110
0110
0110
,
0011
0000
0011
0000
0011
0000
0011
0000
0001
0010
0100
1000
0001
0010
0100
1000
,
0011
0011
0011
0011
0110
0110
0110
0110
,
1100
0000
1100
0000
1100
0000
1100
0000
1000
0100
0010
0001
1000
0100
0010
0001
,
1100
0000
1000
0000
0010
0000
0100
0000
0011
0000
1000
0001
0000
0001
1000
0000
,
0011
0000
1000
0000
0110
0000
0110
0000
1100
0000
0001
1000
0000
1000
0001
0000
,
1100
0000
0110
0000
0011
0000
0110
0000
1010
0000
1001
0000
,
0012
0000
0010
0000
0010
0000
0013
0000
0010
0001
1000
0100
0010
0001
1000
0100
,
0011
0000
0001
0000
0100
0000
0010
0000
1100
0000
0001
1000
0000
1000
0001
0000
,
1100
0000
0001
0000
0110
0000
0110
0000
0011
0000
1000
0001
0000
0001
1000
0000
,
0011
0000
0000
0000
0000
0000
0110
0000
0000
0110
0000
0000
0000
0000
0000
0000
1100
0000
0000
0000
0000
0000
0000
0000
0110
0000
0000
0000
0000
0000
1100
0000
0000
0000
0000
0000
0001
0000
0000
0000
0000
0000
0110
0000
0000
0000
0000
0000
,
2100
0000
0100
0000
0100
0000
3100
0000
0001
1000
0000
0001
0001
0001
0001
0000
,
1100
0000
1000
0000
0010
0000
0100
0000
0011
0000
1000
0001
0000
0001
1000
0000
,
0011
0000
1000
0000
0110
0000
0110
0000
1100
0000
0001
1000
0000
1000
0001
0000
,
1100
0000
0110
0000
0011
0000
0110
0000
1010
0000
1001
0000
,
0012
0000
0010
0000
0010
0000
0013
0000
0010
0001
1000
0100
0010
0001
1000
0100
,
0011
0000
0001
0000
0100
0000
0010
0000
1100
0000
0001
1000
0000
1000
0001
0000
,
1100
0000
0001
0000
0110
0000
0110
0000
0011
0000
1000
0001
0000
0001
1000
0000
,
0011
0110
1100
0011
0110
0110
1000
0001
,
2100
0000
0000
0000
0000
0000
0100
0000
0000
0000
0000
0000
0100
0000
0000
0000
0000
0000
3100
0000
0000
0000
0000
0000
0001
0000
0000
1000
0000
0000
0000
0000
0000
0000
0000
0000
0011
0000
0000
0000
0100
0000
0000
0000
0010
0000
0000
0000
,
1100
0010
0001
1000
0010
1000
0001
0100
0001
1000
0010
0000
1001
0000
0100
0000
,
1001
0000
0110
0000
2010
0010
0010
0010
,
3001
0010
0100
1000
0010
0100
0010
1000
0100
0010
0001
1000
0010
0100
0001
1000
,
0011
0101
1010
1001
0102
0100
0100
0100
,
1003
0010
0100
0001
1000
0100
1000
0010
0100
0001
1000
0000
0101
0000
0010
0000
,
2100
0000
3210
0000
0321
0001
0001
0001
,
0031
0100
0001
1000
0010
0100
0001
1000
0100
1000
0010
0100
0001
1000
0101
0000
,
0012
0213
2310
3210
,
1302
1000
1000
1000
1000
1000
1000
1003
,
1100
1100
1100
1100
0110
0110
0110
0110
,
0011
0000
0011
0000
0011
0000
0011
0000
0001
0010
0100
1000
0001
0010
0100
1000
,
0011
0011
0011
0011
0110
0110
0110
0110
,
1100
0000
1100
0000
1100
0000
1100
0000
1000
0100
0010
0001
1000
0100
0010
0001
,
1100
0000
1000
0000
0010
0000
0100
0000
0011
0000
1000
0001
0000
0001
1000
0000
,
0011
0000
1000
0000
0110
0000
0110
0000
1100
0000
0001
1000
0000
1000
0001
0000
,
1100
0110
0001
1100
0010
0101
0101
1000
,
0012
0000
0010
0000
0010
0000
0013
0000
0010
0001
1000
0100
0010
0001
1000
0100
,
0011
0000
0001
0000
0100
0000
0010
0000
1100
0000
0001
1000
0000
1000
0001
0000
,
1100
0000
0001
0000
0110
0000
0110
0000
0011
0000
1000
0001
0000
0001
1000
0000
,
0011
0011
1000
0010
0100
0011
1000
0110
,
2100
0000
0100
0000
0100
0000
3100
0000
0001
1000
0000
0001
0001
0001
0001
0000
,
1100
0000
1000
0000
0010
0000
0100
0000
0011
0000
1000
0001
0000
0001
1000
0000
,
0011
0000
1000
0000
0110
0000
0110
0000
1100
0000
0001
1000
0000
1000
0001
0000
,
1100
0000
0110
0000
0011
0000
0110
0000
1010
0000
1001
0000
,
0012
0000
0010
0000
0010
0000
0013
0000
0010
0001
1000
0100
0010
0001
1000
0100
,
0011
0000
0001
0000
0100
0000
0010
0000
1100
0000
0001
1000
0000
1000
0001
0000
,
1100
0000
0001
0000
0110
0000
0110
0000
0011
0000
1000
0001
0000
0001
1000
0000
,
0011
0110
1100
0011
0110
0110
1000
0001
,
2100
0000
0100
0000
0100
0000
3100
0010
0100
0010
0100
1000
0011
0000
0000
0000
,
1100
0010
0001
1000
0010
1000
0001
0100
0001
1000
0010
0000
1001
0000
0100
0000
,
1001
0000
0110
0000
2010
0010
0010
0010
,
3001
0010
0100
1000
0010
0100
0010
1000
0100
0010
0001
1000
0010
0100
0001
1000
,
0011
0101
1010
1001
0102
0100
0100
0100
,
1003
0010
0100
0001
1000
0100
1000
0010
0100
0001
1000
0000
0101
0000
0010
0000
,
2100
0000
3210
0000
0321
0001
0001
0001
,
0031
0100
0001
1000
0010
0100
0001
1000
0100
1000
0010
0100
0001
1000
0101
0000
,
0012
0213
2310
3210
,
1302
1000
1000
1000
1000
1000
1000
1003
,
1000
0010
0100
0001
0010
0001
0100
0010
1000
0010
0100
0001
0010
0001
1000
0010
,
1000
0001
0100
0001
1000
0010
0100
0010
1000
0001
1000
0001
0100
0010
1000
0010
,
0100
0010
1000
0001
1000
0010
0100
0001
0010
0001
1000
0010
0100
0001
1000
0010
,
0100
0001
1000
0100
1000
0010
0100
0010
1000
0001
1000
0010
0100
0001
1000
0010
,
1000
0010
0100
0001
1000
0100
1000
0010
1000
0001
0010
0001
1000
0010
0100
0001
,
1000
0010
1000
0001
0100
0001
1000
0010
1000
0010
0100
0010
1000
0001
1010
0000
,
0012
0010
0213
0010
2310
0010
3201
0001
,
1302
0100
0013
0001
0100
0010
1000
0001
1000
0010
0100
0001
1000
0010
0100
0001
,
1000
0010
0100
0001
0010
0001
0100
0010
1000
0010
0100
0001
0010
0001
1000
0010
,
1000
0001
0100
0001
1000
0010
0100
0010
1000
0001
1000
0001
0100
0010
1000
0010
,
0100
0010
1000
0001
1000
0010
0100
0001
0010
0001
1000
0010
0100
0001
1000
0010
,
0100
0001
1000
0100
1000
0010
0100
0010
1000
0001
1000
0010
0100
0001
1000
0010
,
1100
1100
1100
1100
0110
0110
0110
0110
,
0011
0000
0011
0000
0011
0000
0011
0000
0001
0010
0100
1000
0001
0010
0100
1000
,
0011
0011
0011
0011
0110
0110
0110
0110
,
1100
0000
1100
0000
1100
0000
1100
0000
1000
0100
0010
0001
1000
0100
0010
0001
,
1000
1000
1000
1000
1100
0000
0000
0000
0001
0001
0001
0001
0101
0000
0000
0000
,
0100
0000
0000
0100
0000
0000
0100
0000
0000
0100
0000
0000
0110
0000
0000
0000
0000
0000
0000
0000
0000
0000
0000
0000
0002
0000
0000
0000
0000
0000
1003
0000
0100
0000
0010
0000
0001
0000
0000
0000
0000
0000
0110
0000
0000
0000
0000
0000
,
1100
0000
0011
0000
1000
0000
0010
0000
0100
0100
0100
0100
0101
0000
0000
0000
,
0010
0010
0010
0010
0011
0000
0000
0000
0001
0001
0001
0001
1001
0000
0000
0000
,
0020
0000
0000
0130
0001
1000
0010
0000
0000
1001
0000
0000
0101
0000
0000
1010
0000
0000
0100
0000
0000
1000
0000
0000
,
1000
1000
1000
1000
1100
0000
0000
0000
0001
0001
0001
0001
0101
0000
0000
0000
,
0100
0000
0000
0100
0000
0000
0100
0000
0000
0100
0000
0000
0110
0000
0000
0000
0000
0000
0000
0000
0000
0000
0000
0000
0002
0000
0000
0000
0000
0000
1003
0000
0100
0000
0010
0000
0001
0000
0000
0000
0000
0000
0110
0000
0000
0000
0000
0000
,
1100
0000
0011
0000
1000
0000
0010
0000
0001
0001
0001
0001
0011
0000
0000
0000
,
1000
1000
1000
1000
1010
0000
0000
0000
0010
0010
0010
0010
0110
0000
0000
0000
,
2000
0000
0000
3001
0010
0100
1000
0000
0000
0110
0000
0000
0011
0000
0000
1100
0000
0000
0001
0000
0000
0100
0000
0000
,
1010
0000
1000
0010
0100
0000
0001
0100
0010
0000
1000
0010
0100
0000
0001
1000
,
0001
0000
1000
0010
0100
0000
0001
1000
0001
0000
0100
0010
0100
0000
0001
1000
,
0110
0000
0001
1000
0000
1000
0001
0000
0110
0000
0001
1000
0000
1000
0001
0000
,
1100
0010
0110
0001
0110
1100
0110
0001
,
1010
0000
1000
0010
0100
0000
0001
0100
0010
0000
1000
0010
0100
0000
0001
1000
,
0001
0000
1000
0010
0100
0000
0001
1000
0001
0000
0100
0010
0100
0000
0001
1000
,
0110
0000
0001
1000
0000
1000
0001
0000
0110
0000
0001
1000
0000
1000
0001
0000
,
1100
0000
0010
0000
0110
0000
0001
0000
0110
0000
1000
0100
0010
0001
1000
0100
,
0011
0010
0010
0010
0110
0100
0100
0100
,
1100
1000
1000
1000
1010
0010
0010
0010
,
1010
0000
0001
1000
0001
0000
1100
0000
1001
0000
0100
0010
0100
0000
0011
0000
,
0101
0000
1000
0010
0100
0000
1010
0000
1001
0000
0001
0010
0100
1000
0001
0010
,
1100
0100
0100
0100
0110
0010
0010
0010
,
0011
0001
0001
0001
0101
0100
0100
0100
,
0101
0000
1000
0001
1000
0000
0011
0000
1001
0000
0010
0100
0010
0000
1100
0000
,
1010
0000
0001
0100
0010
0000
0101
0000
1001
0000
1000
0100
0010
0001
1000
0100
,
0011
0100
1010
0001
,
0110
0000
0000
0000
1000
0000
0000
0000
0110
0000
0110
0000
0000
0000
1000
0010
,
0002
0000
0000
0000
0000
0000
0000
0000
0000
0000
0000
0000
0000
0000
0000
0000
0000
0000
0000
0000
0000
0000
0000
0000
2003
0000
0000
0000
0000
0000
0000
0000
0000
0000
0000
0000
0000
0000
0000
0000
3000
0000
0010
0000
0000
0100
0000
0000
,
2000
3020
0000
0000
0000
0000
0000
0030
,
2000
0000
0000
0000
0000
0000
0000
0000
0000
0000
0000
0000
3001
0000
0000
0100
0000
0000
0001
0000
1000
0000
0000
0000
0020
0000
0000
0000
0000
0000
0000
0000
0000
0030
0000
0000
2000
0000
0000
3000
0000
0000
0001
0000
1000
0000
0000
0000
,
0011
0100
1010
1010
0001
0110
0110
1000
,
0011
0000
0000
0100
0000
0000
1000
0000
0000
0001
0010
0100
1000
0010
0100
0001
1000
0010
1000
0010
0100
0001
0100
0010
,
1000
0001
0100
0010
1000
0001
1000
0001
0100
0010
1000
0001
0100
0010
1000
0100
0010
0001
1000
0010
0100
0001
1000
0001
,
1100
0000
0001
1000
0000
1000
0010
0000
0101
0000
1000
0010
0000
0010
1000
0000
,
0110
0000
1000
0010
0000
0100
0001
0000
0101
0000
1000
0010
0000
0100
0010
0000
,
1000
0001
1000
0010
0100
0001
1000
0100
0010
0001
1000
0010
0100
0001
0010
0100
1000
0100
1000
0010
0100
0010
1000
0001
,
1100
0011
0011
1100
0110
0110
0011
1100
,
2100
0000
0000
0000
0000
0000
3020
0000
0000
0000
0000
0001
,
0032
0000
0000
0000
0113
1100
0000
0000
,
2010
0000
0001
0010
0000
0010
0001
0000
3102
0000
1000
0010
0000
0010
1000
0010
,
2103
0000
0010
0001
0000
0001
0010
0000
3012
0000
0000
0000
0000
0000
0010
0100
,
2003
3020
0230
0302
2003
3020
0230
0302
,
2003
3020
0230
0302
2003
3020
0230
0302
,
2103
0000
0000
0000
0000
0000
0000
0000
0020
0000
0000
0000
0030
0000
0001
0010
,
0200
0000
0000
0000
0000
0000
0300
0000
0000
0000
0100
0000
0000
0010
0000
0000
,
0002
0000
0000
0000
0000
0000
0000
0000
0000
0003
0000
0001
,
3011
0110
0110
0110
1100
0110
0110
0110
,
0011
0000
1000
0010
0100
0000
0011
0000
1001
0000
1000
0010
0100
0000
0011
0000
,
1001
0000
1000
0010
0100
0000
0011
0000
1001
0000
0010
0000
0100
0000
0010
0000
,
1001
0000
0010
0100
0010
0000
1010
0000
1001
0000
0010
0000
0001
0000
1000
0000
,
0110
0001
1100
0110
0110
1100
0011
0110
,
2100
0000
0001
0010
0001
0000
0001
0100
0001
0000
0100
3010
0100
0000
0001
1000
,
0001
0000
1000
0010
0100
0000
0001
1000
0010
0000
1100
0000
0011
0000
0110
0000
,
1100
0001
0010
0001
1000
0001
1100
0001
1100
0001
0100
0010
1100
0001
0100
0010
,
1001
0010
0100
0001
1000
0010
0100
0001
0010
0001
1000
0001
1100
0001
1100
0001
,
1100
0001
0010
0001
1000
0010
1100
0001
1100
0010
1000
0001
0110
1000
0010
0100
,
0011
1000
0001
0100
0010
1000
0001
1000
0010
0100
0001
1000
0011
1000
0010
0100
,
0011
1000
0010
0100
0001
1000
0011
0100
0011
1000
0010
0100
0001
0100
1010
0001
,
1010
0001
0100
0010
1000
0001
0110
1000
0110
0001
0100
1000
0001
1000
0011
1000
,
0011
1000
0010
0100
1001
0010
0100
0001
1010
0001
0100
0010
1100
0001
0100
0000
,
1100
0001
1000
0001
1000
0001
1100
0000
1100
0001
1000
0001
1000
0001
1100
0000
,
0011
1000
0100
1000
0001
1000
0011
1000
0011
1000
0010
0100
0011
1000
0010
0100
,
1001
0100
0010
1000
0001
0100
0010
1000
0100
1000
0001
1000
0011
1000
0011
1000
,
0011
1000
0100
1000
0001
0100
0011
1000
0011
0100
0001
1000
0110
0001
0100
0010
,
1100
0001
1000
0010
0100
0001
1000
0001
0100
0010
1000
0001
1100
0001
0100
0010
,
1100
0001
0100
0010
1000
0001
1100
0010
1100
0001
0100
0010
1000
0010
0101
1000
,
0101
1000
0010
0100
0001
1000
0110
0001
0110
1000
0010
0001
1000
0001
1100
0001
,
1100
0001
0100
0010
1001
0100
0010
1000
0101
1000
0010
0100
0011
1000
0010
0000
,
0011
1000
0001
1000
0001
1000
0011
0000
0011
1000
0001
1000
0001
1000
0011
0000
,
1100
0001
0010
0001
1000
0001
1100
0001
1100
0001
0100
0010
1100
0001
0100
0010
,
1001
0010
0100
0001
1000
0010
0100
0001
0010
0001
1000
0001
1100
0001
1100
0001
,
1100
0001
0010
0001
1000
0010
1100
0001
1100
0010
1000
0001
0110
1000
0010
0100
,
0011
1000
0001
0100
0010
1000
0011
0000
1100
0000
0110
0000
0110
0000
0011
0000
,
2100
0010
0100
0001
0100
0010
0100
0001
,
0100
3010
0000
1100
0011
0110
0110
1100
,
0012
0100
0010
1000
0010
0100
0010
1000
,
0010
0103
0000
1010
0101
1001
1001
1010
,
0201
1000
0001
0010
0001
1000
0001
0010
,
0001
1300
0000
1100
0011
0110
0110
1100
,
0012
0100
0010
1000
0010
0100
0010
1000
,
0010
0000
0103
0000
0000
0000
0000
0000
0011
1000
0110
0001
1100
0010
0101
1000
,
0011
0010
0010
0010
0110
0100
0100
0100
,
1100
1000
1000
1000
1100
0100
0100
0100
,
0110
1000
1000
1000
0110
1000
1000
1000
,
1001
0000
0000
0000
;
