#TITLE:A Little Piece of Heaven;
#SUBTITLE:;
#ARTIST:Avenged Sevenfold;
#TITLETRANSLIT:;
#SUBTITLETRANSLIT:;
#ARTISTTRANSLIT:;
#CREDIT:J. Bratt;
#BANNER:heaven.png;
#BACKGROUND:heaven-bg.png;
#LYRICSPATH:;
#CDTITLE:;
#MUSIC:A Little Piece of Heaven.ogg;
#OFFSET:0.827;
#SAMPLESTART:48.850;
#SAMPLELENGTH:19.860;
#SELECTABLE:YES;
#DISPLAYBPM:72.500:145.000;
#BPMS:0.000=72.500,16.000=145.000,80.000=140.000,80.500=144.000,81.000=145.000,104.000=142.500,104.500=145.000,158.000=148.000,158.500=145.000,174.000=152.000,175.500=145.000,241.500=142.000,242.000=145.000,266.000=142.750,267.000=145.000,281.000=72.500;
#STOPS:280.000=1.242
;
#BGCHANGES:;
// cache tags:
#FIRSTBEAT:16.000;
#LASTBEAT:300.250;
#SONGFILENAME:Songs/Index Tournament 1/A Little Piece of Heaven/A Little Piece of Heaven.sm;
#HASMUSIC:1;
#HASBANNER:1;
#MUSICLENGTH:143.088;
// end cache tags

//---------------dance-single - Mandodo----------------
#NOTES:
     dance-single:
     Mandodo:
     Challenge:
     10:
     0.838,0.866,0.475,0.832,0.440,652.000,68.000,119.000,17.000,0.000:

0000
0000
0000
0000
,
0000
0000
0000
0000
,
0000
0000
0000
0000
,
0000
0000
0000
0000
,
0001
0000
0001
0000
1000
0100
1000
0001
0100
0000
0100
0000
0010
1000
0010
0100
,
0001
0000
0001
0000
0100
0010
0100
0001
1000
0000
1000
0000
0001
0010
0001
1000
,
0100
0000
0100
0000
1000
0010
1000
0001
0100
0000
0100
0000
0001
1000
0001
0010
,
0100
0000
0100
0000
1000
0010
1000
0001
0100
0000
0100
0000
0010
0100
0010
1000
,
0001
0001
0020
0230
1300
1000
0002
0203
,
0310
0010
0200
2300
3100
0100
0020
2030
,
3100
0100
0020
0032
1003
1000
0200
0302
,
0103
0100
2000
3002
0013
0010
0200
2300
,
3010
0010
0200
2300
3100
0100
0002
0203
,
0310
0010
2000
3002
0013
1000
0010
0001
,
0101
0101
0001
1000
1100
1100
0100
0010
,
0011
0011
0001
1000
1010
1010
1000
0010
,
0110
0110
0010
0100
0101
0101
0001
1000
,
1100
1100
0100
0010
0011
0011
0010
0100
,
1100
1100
1000
0010
1010
1010
0100
0001
,
0101
0101
0001
0010
0110
0100
1100
1000
,
1001
0000
0001
0000
1000
0000
1000
0000
0001
0000
0100
0000
0010
0100
0010
0000
,
0100
0000
0001
0000
1000
0100
1000
0000
0100
0000
0010
0000
0001
0000
0001
0000
,
0010
0100
0010
0000
0100
0000
1000
0000
0010
1000
0010
0000
0100
0000
0001
0000
,
1000
0000
0001
0000
0010
0000
0010
0000
0100
0000
1000
0000
0001
0100
0001
0000
,
0100
0000
0010
0000
1000
0001
1000
0000
0200
0000
0000
0000
0010
0000
0010
0000
,
0000
0000
0300
0000
M011
0M00
0000
0000
1000
0001
0100
0000
1010
0000
1000
0000
,
0001
0100
2000
0000
3200
0000
0302
0000
,
0023
0000
0000
0000
0230
0000
0000
0000
2300
0000
0010
0000
3010
1000
0010
0000
,
0100
0001
1000
0000
0010
0100
0001
0010
1000
0010
0100
0001
0100
1000
0100
0010
,
0001
0010
2000
0000
3020
0000
0032
0000
,
0203
0000
0000
0000
0320
0000
0000
0000
2030
0000
0010
0000
3010
0100
0001
0000
,
1000
0100
1000
0000
0001
0010
0100
0000
1000
0100
0010
0000
0100
1000
0010
0000
,
0100
0010
0100
0010
1000
0001
1000
0100
0010
0001
0010
0001
10M0
0100
1000
0001
,
0010
0100
1000
0010
1000
0001
0100
0010
2000
0000
3100
0000
0002
0000
0103
0000
,
2000
3010
0002
0013
0200
0301
2000
3010
,
0100
0010
0100
0010
1000
0100
1000
0001
0010
0100
0010
0100
10M0
0001
1000
0010
,
0100
0001
0100
0001
1000
0100
1000
0001
0020
0000
0130
0000
0002
0000
0103
0000
,
2000
3010
0002
0013
0200
0310
1000
0100
,
0010
0000
0010
0000
0001
0000
1000
0000
0010
0100
0010
0100
0001
1000
0100
0010
,
M002
0000
0000
0000
0M00
0000
0010
0000
M000
0000
0000
0000
20M3
0000
0000
0000
000M
0000
0100
0000
00M0
3000
0000
0000
1M01
0000
0000
0000
0000
0000
0001
0000
0000
1000
0000
0000
0100
0000
0000
0000
0000
0000
1010
0000
0000
0000
0000
0000
,
1100
1000
0001
0101
1010
0010
0101
0100
,
0001
0000
1001
0000
1100
0000
1001
0000
0011
0000
0010
0100
1000
0000
1010
0000
,
0110
0100
0001
1100
1001
0001
1100
0010
,
1001
0000
0001
0000
1100
0000
0101
0000
2002
0000
0000
0000
0003
0000
3002
0003
,
0000
0000
0002
0003
1001
0000
1000
0000
0010
0000
1000
0000
0002
0003
0100
0000
,
1001
0000
0001
0000
0200
0300
0020
0030
1000
0000
0200
0300
0011
0000
0001
0000
,
1000
0000
0002
0003
0100
0000
0100
0000
1001
0000
0001
0000
0010
0000
0200
0300
,
1000
0000
0002
0003
1010
0000
0010
0000
0100
0000
0001
0000
0020
0030
0100
0000
,
2000
3000
0001
0000
0200
0300
0020
0030
1000
0000
0002
0003
1100
0000
0010
0000
,
0001
0000
0020
0030
0100
0000
0100
0000
1001
0000
1000
0000
0002
0003
0200
0300
,
0001
0000
0020
0030
0101
0000
0100
0000
0001
0000
1000
0000
0200
0300
0010
0000
,
0002
0003
0100
0000
2000
3000
0002
0003
1000
0000
0200
0300
1001
0000
0100
0000
,
0010
0000
2000
3000
0001
0000
0001
0000
1001
0000
0010
0000
2000
3000
0002
0003
,
1000
0000
0200
0300
0110
0000
0020
0030
0100
0000
2000
3000
0001
0000
0020
0030
,
1100
0001
0100
0001
0010
0100
1100
1000
,
1001
0001
0101
0100
0010
0010
0010
0010
,
0010
0000
0000
0000
0000
0000
0000
0000
0010
0000
0000
0000
0000
0000
0000
0000
0200
0000
0000
0000
0000
0000
0000
0000
2300
0000
0000
0000
0000
0000
0000
0000
3100
0000
0000
0000
0000
0000
0000
0000
0210
0000
0000
0000
0000
0000
0000
0300
0102
0000
0000
0000
0000
0000
0000
0000
0103
0000
0000
0000
0000
0000
0000
0000
,
0100
0000
0000
0000
0000
0000
0000
0000
0100
0000
0000
0000
0000
0000
0000
0000
0100
0000
0000
0000
0000
0000
0000
0000
0100
0000
0000
0000
0000
0000
0000
0000
0020
0000
0000
0000
0000
0000
0000
0000
0032
0000
0000
0000
0000
0000
0000
0000
0013
0000
0000
0000
0000
0000
0000
0000
1020
0000
0000
0000
0000
0000
0000
0030
,
2001
3001
0001
0001
0001
0001
0020
2030
,
3010
0000
0000
0000
0000
0000
0000
0000
0021
0000
0000
0000
0000
0000
0000
0030
0102
0000
0000
0000
0000
0000
0000
0000
0103
0000
0000
0000
0000
0000
0000
0000
0100
0000
0000
0000
0000
0000
0000
0000
0100
0000
0000
0000
0000
0000
0000
0000
0100
0000
0000
0000
0000
0000
0000
0000
0100
0000
0000
0000
0000
0000
0000
0000
,
0020
0000
0032
0000
0023
0000
2M30
0000
301M
1000
0001
1000
0010
0100
0001
0010
,
0100
1000
0100
1000
0010
1000
0001
0010
0001
0100
0001
0100
0010
1000
0100
0010
,
0100
0010
0001
0010
0100
1000
0001
0100
0010
1000
0010
1000
0001
1000
0100
0010
,
0100
1000
0100
1000
0001
0100
0010
1000
0001
0100
0001
0100
0010
1000
0001
1000
,
0100
0010
0100
0010
0001
0010
0100
1000
0001
0100
0001
0100
0010
1000
0001
0010
,
0100
0010
0100
0010
0001
1000
0100
1000
0001
1000
0001
1000
0100
0010
0001
1000
,
0010
0100
0001
0100
0010
1000
0001
0010
0200
0000
0000
0000
0302
0000
0000
0000
,
0203
0000
2300
0000
3020
0000
0031
0010
,
2000
0100
3002
0023
,
2030
0000
3020
0000
0031
0010
0100
0000
,
1100
0000
1000
0002
0103
0020
1030
0002
,
0013
0000
0200
0000
1300
0000
0002
0000
0103
0000
0020
0000
1030
0000
0001
0010
,
0001
0001
1000
0010
1000
0000
0200
0000
0310
0000
2000
0000
3010
0000
0200
0000
,
0310
0000
0002
0000
1003
0000
0010
0100
0010
0010
1000
0001
0010
0000
0002
0000
,
0000
0203
0000
0020
0000
M33M
0000
0000
,
0000
0MM0
0000
0000
0000
0000
0000
0000
0000
0000
0000
0000
0000
0000
0000
0000
;
