#TITLE:Yuru Yuri Last Boss;
#SUBTITLE:;
#ARTIST:Kommisar vs. HertzDevil;
#TITLETRANSLIT:;
#SUBTITLETRANSLIT:;
#ARTISTTRANSLIT:;
#CREDIT:;
#BANNER:../bn.png;
#BACKGROUND:../bg.png;
#LYRICSPATH:;
#CDTITLE:;
#MUSIC:Kommisar vs. HertzDevil - Yuru Yuri Last Boss.ogg;
#OFFSET:-0.059;
#SAMPLESTART:100.120;
#SAMPLELENGTH:16.540;
#SELECTABLE:YES;
#DISPLAYBPM:235.000;
#BPMS:0.000=235.058;
#STOPS:;
#BGCHANGES:;
// cache tags:
#FIRSTBEAT:16.000;
#LASTBEAT:826.000;
#SONGFILENAME:Songs/Cirque du Zonda/Zaia - Yuru Yuri Last Boss/Kommisar vs. HertzDevil - Yuru Yuri Last Boss.sm;
#HASMUSIC:1;
#HASBANNER:1;
#MUSICLENGTH:217.350;
// end cache tags

//---------------dance-single - Zaia - 17.1----------------
#NOTES:
     dance-single:
     Zaia - 17.1:
     Challenge:
     17:
     1.000,1.000,0.074,0.143,1.000,1846.000,16.000,31.000,6.000,1.000:
0000
0000
0000
0000
,
0000
0000
0000
0000
,
0000
0000
0000
0000
,
0000
0000
0000
0000
,
1000
0000
0001
0000
,
1000
0000
0010
0000
,
0100
0000
0001
0000
,
1000
0000
0000
0000
0100
0010
0100
0010
,
0001
1000
0010
0100
0010
1000
0001
0010
,
0100
1000
0001
1000
0010
1000
0001
0010
,
0100
0010
0001
1000
0001
0100
0010
1000
,
0010
0100
0010
1000
0100
0010
0100
1000
,
0001
0100
0010
1000
0001
1000
0100
0010
,
0001
1000
0001
0100
0001
1000
0001
0010
,
0100
1000
0010
1000
0001
0100
0010
0100
,
0001
0100
0010
1000
0100
0010
0100
0010
,
0001
1000
0100
0010
0100
1000
0001
0100
,
0010
1000
0001
1000
0100
1000
0001
0100
,
0010
0100
0001
1000
0001
0010
0100
1000
,
0100
0010
0100
1000
0010
0100
0010
1000
,
0001
0010
0100
1000
0001
1000
0010
0100
,
0001
1000
0001
0010
0001
1000
0001
0100
,
0010
1000
0000
0001
,
0010
0100
2000
0000
,
3001
0000
0000
0000
0100
0010
1000
0010
0100
0000
0001
0000
0000
0000
1000
0000
,
0000
0100
0000
0010
0000
0100
0000
1000
,
0001
0000
0010
0000
0100
1000
0001
1000
0010
0000
0100
0000
0000
0000
0001
0000
,
0000
0000
1000
0000
0000
0000
0010
0000
0000
0000
0100
0000
0010
1000
0001
1000
,
0001
0000
0000
0000
0010
0100
1000
0100
0010
0000
0001
0000
0000
0000
0100
0000
,
0000
0010
0000
1000
0000
0001
0000
0010
,
0001
0000
0000
0000
1000
0001
0100
0001
1000
0000
0010
0000
0000
0000
0000
0000
,
1001
0000
1001
0000
1001
0000
0000
1000
,
0001
0000
0000
0000
0010
0100
1000
0100
0010
0000
0001
0000
0000
0000
1000
0000
,
0000
0010
0000
0100
0000
0010
0000
1000
,
0001
0000
0100
0000
0010
1000
0001
1000
0100
0000
0010
0000
0000
0000
0001
0000
,
0000
0000
1000
0000
0000
0000
0100
0000
0000
0000
0010
0000
0100
1000
0001
1000
,
0001
0000
0000
0000
0100
0010
1000
0010
0100
0000
0001
0000
0000
0000
0010
0000
,
0000
0100
0000
1000
0000
0001
0000
0100
,
0001
2000
0000
3010
,
0110
0000
0101
0000
1001
0000
0000
1000
,
0001
0100
0001
0010
0100
1000
0010
1000
,
0001
1000
0010
1000
0100
1000
0010
1000
,
0001
0010
0100
1000
0100
0010
0100
1000
,
0001
0100
0010
0100
0001
0010
0100
1000
,
0001
0000
0100
M00M
0100
0000
1000
0000
0100
0000
0100
0000
0001
0000
1000
0000
,
0001
0010
0010
1000
0010
0010
0001
1000
,
0001
0010
0100
1000
0010
0100
0001
0010
,
0100
0000
1000
0000
0100
0000
1000
0000
0100
0010
0001
1000
0001
1000
0010
0100
,
0001
1000
0100
1000
0010
0100
0004
0000
,
0000
0000
0000
0000
0000
0103
0010
1000
,
0400
0000
0000
0000
,
0310
0001
1000
0010
0000
0100
0010
1000
,
0001
0000
0100
M00M
0100
0000
1000
0000
0001
0000
0100
0000
0100
0000
1000
0000
,
0001
0100
0100
1000
0001
0100
0100
1000
,
0001
0010
0010
1000
0001
0010
0010
1000
,
0001
0000
0010
0000
0001
0000
0010
0000
0001
0010
0100
1000
0001
1000
0001
0100
,
0010
0000
0100
0001
0100
0000
0010
0000
1000
0100
1000
0000
0010
0000
0100
0000
,
0001
0000
0010
0001
0010
0000
0100
0000
1000
0010
1000
0000
0100
0000
0010
0000
,
0001
0000
1000
0100
1000
0000
0010
0000
0100
0001
0100
0000
0010
0000
1000
0000
,
0100
0000
0010
0001
0010
0000
0100
0000
1000
0010
1000
0000
0100
0000
0010
0000
,
0001
0000
1000
0010
1000
0000
0100
0000
0010
0001
0010
0000
0100
0000
1000
0000
,
0010
0000
0100
0001
0100
0000
0010
0000
1000
0100
1000
0000
0010
0000
0100
0000
,
0001
0000
0100
0010
0100
0000
0001
0000
0010
0100
0010
0000
0001
0000
1000
0000
,
0010
0000
0100
0000
0001
1000
0010
0100
0001
1000
0001
0100
0010
0000
0000
0000
,
1000
0001
0010
0100
1000
0001
0100
0001
1000
0100
0010
0001
1000
0010
1000
0001
,
0100
0010
0100
0001
1000
0100
1000
0001
1000
0001
0100
0010
1000
0001
0010
0001
,
1000
0001
0100
0010
1000
0001
0010
0001
1000
0010
0100
0001
1000
0100
1000
0001
,
0010
0100
0010
0001
1000
0010
1000
0001
1000
0001
0010
0100
1000
0001
0100
0001
,
1000
0001
0010
0100
1000
0001
0100
0001
1000
0100
0010
0001
1000
0010
1000
0001
,
0100
0010
0100
0001
1000
0100
1000
0001
1000
0001
0100
0010
1000
0001
0010
0001
,
0100
0010
1000
0010
0100
0001
1000
0100
0010
0001
0100
0010
0100
0001
1000
0001
,
0040
0000
0000
0000
,
0031
0000
0000
0000
,
2000
3100
0020
0130
2000
3001
0200
0000
,
0310
1000
0001
1000
0010
0100
0001
1000
,
0100
0000
0010
0000
0100
0000
1000
0000
0001
0000
1000
0000
0400
M00M
0000
0000
,
0301
0000
1000
0010
1000
0000
0001
0000
0010
0000
0100
0000
1000
0000
0001
0000
,
0100
0010
0100
0001
1000
0001
0040
0000
,
1030
0000
0001
0100
0001
0000
0010
0000
0100
0000
1000
0000
0001
0000
0100
0000
,
0010
1000
0100
0010
0001
1000
0040
0000
,
0031
0000
0100
0001
0100
0000
0010
0000
1000
0000
0001
0000
1000
0000
0100
0000
,
0010
0000
0001
0000
0010
0000
0001
0000
0010
0100
1000
0001
1000
0001
0100
0010
,
1000
0001
0100
0001
0010
0100
1000
0001
,
0100
0010
0100
0001
1000
0001
0400
0000
,
1300
0000
0001
0010
0001
0000
1000
0000
0010
0000
0100
0000
0001
0000
1000
0000
,
0100
0010
0100
1000
0001
1000
0040
0000
,
0031
0000
1000
0100
1000
0000
0010
0000
0100
0000
0001
0000
1000
0000
0100
0000
,
0010
0001
0100
0010
1000
0001
0040
0000
,
1030
0000
0100
1000
0100
0000
0010
0000
0001
0000
1000
0000
0001
0000
0100
0000
,
0010
0000
1000
0000
0010
0000
1000
0000
0010
0100
0001
1000
0001
0010
0001
1000
,
0100
0010
0001
0400
0010
0000
0010
0300
,
0001
1000
0001
0010
0100
0010
0001
1000
,
0010
0100
0001
0040
0100
0000
0100
0030
,
0001
1000
0001
0100
0001
1000
0010
1000
,
0100
0010
0001
0400
0010
0000
0010
0300
,
0001
1000
0001
0010
0100
0010
0001
1000
,
0010
0100
0001
0040
0100
0000
0100
0030
,
0001
0000
1000
0000
0001
0000
0100
0000
0010
1000
0001
1000
0001
0010
0100
1000
,
0001
0100
0010
4000
0100
0000
0100
3000
,
0001
0100
0010
1000
0100
1000
0010
0100
,
0001
0010
0100
4000
0010
0000
0010
3000
,
0100
0010
0001
1000
0010
1000
0001
0010
,
0100
1000
0010
0400
0001
0000
0001
0300
,
0010
1000
0100
1000
0010
0100
0001
0010
,
0100
0010
0001
4000
0010
0000
0010
3000
,
0001
0000
0000
1000
0000
0000
0100
0000
,
0010
0100
1000
0001
1000
0100
0010
0100
1000
0001
0010
0100
1000
0000
0000
0000
,
0001
0100
0010
1000
0010
0100
0001
1000
0001
0100
0010
1000
0001
0000
0000
0000
,
1000
0001
0010
0001
1000
0100
0010
0001
0010
0100
0010
0001
1000
0000
0000
0000
,
0010
0100
0001
1000
0001
0100
0010
1000
0001
0100
0010
0100
0001
0000
0000
0000
,
1000
0100
1000
0001
0010
0100
1000
0001
1000
0100
0010
0001
1000
0000
0000
0000
,
0001
1000
0010
0100
0001
1000
0001
0100
0010
0100
0001
1000
0010
0000
0000
0000
,
1000
0001
1000
0100
0010
0100
1000
0001
0010
0001
1000
0100
0010
0000
0000
0000
,
0001
0000
1000
0000
0001
0000
1000
0000
0010
0100
0001
1000
0001
0010
0100
1000
,
0001
0100
0001
1000
0001
0100
0010
0100
0001
1000
0010
0100
0001
0000
0000
0000
,
1000
0100
0010
0001
0010
0100
1000
0100
0010
0001
1000
0001
0010
0000
0000
0000
,
0001
1000
0010
1000
0001
0100
0010
1000
0001
0100
0001
1000
0001
0000
0000
0000
,
0010
0100
1000
0001
1000
0100
0010
0001
1000
0100
0010
0100
1000
0000
0000
0000
,
0001
1000
0010
1000
0001
0100
0001
1000
0100
0010
0100
1000
0001
0010
0100
1000
,
0001
1000
0010
0100
0001
0100
0010
0100
0001
1000
0100
1000
0001
0010
0001
1000
,
0001
0100
0010
1000
0001
1000
0010
0100
0001
1000
0001
0100
0010
0000
0000
0000
,
1000
0000
0001
0000
1000
0000
0001
0000
0010
0100
1000
0001
1000
0010
0100
0001
,
1000
0002
0000
0023
,
0000
0000
0000
0000
,
0130
2000
0000
3002
,
0000
0000
0203
0000
,
0310
2000
0000
3002
,
0000
0000
0000
0000
,
0013
0200
0000
2300
,
0000
0000
3002
0000
,
1013
0020
0000
2030
,
0000
0000
0000
0000
,
3200
0320
0000
0032
,
0000
0000
2003
0000
,
3002
0203
0000
0320
,
0000
0000
0000
0000
,
2030
3002
0000
0023
,
0230
0000
0000
0000
0000
0000
0000
0000
2300
0000
0000
0000
0000
0000
0000
3000
0001
0000
0000
0000
1000
0000
0000
0000
0001
0000
0000
0000
1000
0000
0000
0000
,
0001
0010
0100
0010
0001
1000
0001
0100
,
0010
1000
0001
1000
0100
1000
0001
0100
,
0010
0100
0001
1000
0001
0010
0100
1000
,
0100
0010
0100
1000
0010
0100
0010
1000
,
0001
0010
0100
1000
0001
1000
0010
0100
,
0001
1000
0001
0010
0001
1000
0001
0100
,
0010
1000
0100
1000
0001
0010
0100
0010
,
0001
0010
0100
1000
0010
0100
0010
0100
,
0001
1000
0010
0100
0010
1000
0001
0010
,
0100
1000
0001
1000
0010
1000
0001
0010
,
0100
0010
0001
1000
0001
0100
0010
1000
,
0010
0100
0010
1000
0100
0010
0100
1000
,
0001
0100
0010
1000
0001
1000
0100
0010
,
0001
1000
0001
0100
0001
1000
0001
0010
,
0100
1000
0000
0001
,
0100
0010
2000
0000
,
3001
0100
0010
1000
0001
1000
0010
0100
0001
1000
0100
1000
0001
0000
1000
0000
,
0001
0010
0100
1000
0001
0010
0001
1000
0100
0010
0001
1000
0100
0000
1000
0000
,
0001
0100
0010
0100
0001
1000
0010
0100
0001
1000
0001
0100
0010
0000
1000
0000
,
0001
0010
0001
1000
0100
0010
0001
1000
0001
0010
0001
1000
0100
0000
1000
0000
,
0001
0100
0010
1000
0001
1000
0010
0100
0001
1000
0001
0100
0010
0000
1000
0000
,
0001
0010
0100
1000
0001
1000
0100
0010
0001
1000
0100
1000
0001
0000
1000
0000
,
0010
0100
0010
1000
0001
0100
0010
1000
0001
1000
0010
0100
0001
0000
1000
0000
,
0100
0010
0100
1000
0001
0010
0100
1000
0100
0010
0001
1000
0001
0000
1000
0000
,
0001
0100
0010
1000
0001
1000
0010
0100
0001
1000
0100
1000
0001
0000
1000
0000
,
0001
0010
0100
1000
0001
0010
0001
1000
0100
0010
0001
1000
0100
0000
1000
0000
,
0001
0100
0010
0100
0001
1000
0010
0100
0001
1000
0001
0100
0010
0000
1000
0000
,
0001
0010
0001
1000
0100
0010
0001
1000
0001
0010
0001
1000
0100
0000
1000
0000
,
0001
0100
0010
1000
0001
1000
0010
0100
0001
1000
0001
0100
0010
0000
1000
0000
,
0001
0010
0100
1000
0001
1000
0100
0010
0001
1000
0100
1000
0001
0000
1000
0000
,
0010
0100
0010
1000
0001
0100
0010
1000
0001
1000
0010
0100
0001
0000
1000
0000
,
0001
0100
0010
0100
0001
0010
0100
0000
,
1000
0100
0010
0001
1000
0100
1000
0001
0010
0100
1000
0001
0010
0100
0010
0001
,
1000
0001
0100
0010
0100
0001
1000
0010
0100
0001
1000
0001
0100
0010
1000
0001
,
1000
0100
1000
0001
0010
0100
0010
0001
1000
0100
0010
0001
1000
0001
0010
0001
,
1000
0010
0100
0010
1000
0001
0100
0010
1000
0001
1000
0010
0100
0010
1000
0001
,
1000
0100
1000
0001
0010
0100
1000
0100
0010
0001
1000
0100
1000
0001
0010
0100
,
1000
0001
1000
0010
0100
0001
1000
0001
0100
0010
0100
0001
1000
0010
1000
0001
,
0010
0100
0010
0001
1000
0100
1000
0001
0010
0001
1000
0100
0010
0001
0010
0100
,
1000
0001
1000
0010
0100
0001
1000
0001
0100
0010
1000
0010
0100
0001
1000
0010
,
1000
0001
0010
0001
1000
0100
0010
0001
0010
0100
1000
0001
0010
0100
0010
0001
,
1000
0010
0100
0001
1000
0001
0100
0010
1000
0010
0100
0001
1000
0010
0100
0001
,
1000
0100
1000
0001
0010
0100
1000
0100
0010
0001
1000
0001
0010
0001
1000
0100
,
1000
0001
0100
0001
1000
0010
0100
0001
1000
0001
0100
0010
0100
0001
1000
0010
,
1000
0001
0010
0100
1000
0001
1000
0100
0010
0100
1000
0001
0010
0100
0010
0001
,
1000
0010
1000
0001
0100
0010
0100
0001
1000
0010
0100
0010
1000
0001
0100
0010
,
1000
0001
1000
0100
1000
0001
0010
0001
1000
0100
0010
0001
1000
0001
0010
0100
,
1000
0000
0000
0001
0000
0000
0100
0000
,
0001
0100
0001
1000
0001
0100
0010
0100
0001
1000
0010
0100
0001
0000
0000
0000
,
1000
0100
0010
0001
0010
0100
1000
0001
1000
0100
0010
0001
1000
0000
0000
0000
,
0001
1000
0010
1000
0001
0100
0010
1000
0010
0100
0010
1000
0001
0000
0000
0000
,
0010
0100
1000
0001
1000
0100
0010
0001
1000
0100
0010
0100
1000
0000
0000
0000
,
0001
0100
0001
1000
0010
0100
0001
1000
0001
0100
0010
1000
0001
0000
0000
0000
,
1000
0001
0010
0100
1000
0001
1000
0100
0010
0100
1000
0001
0010
0000
0000
0000
,
0001
1000
0001
0100
0010
0100
0001
1000
0010
1000
0001
0100
0010
0000
0000
0000
,
1000
0000
0001
0000
1000
0000
0001
0000
0010
0100
1000
0001
1000
0010
0100
0001
,
1000
0100
1000
0001
1000
0100
0010
0100
1000
0001
0010
0100
1000
0000
0000
0000
,
0001
0100
0010
1000
0010
0100
0001
1000
0010
0100
0001
1000
0010
0000
0000
0000
,
1000
0001
0010
0001
1000
0100
0010
0001
1000
0100
1000
0001
1000
0000
0000
0000
,
0010
0100
0001
1000
0001
0100
0010
1000
0001
0100
0010
0100
0001
0000
0000
0000
,
1000
0100
1000
0001
0010
0100
1000
0001
1000
0100
0010
0001
1000
0000
0000
0000
,
0001
1000
0010
0100
0001
1000
0001
0100
0010
0100
0001
1000
0010
0000
0000
0000
,
1000
0001
1000
0100
0010
0100
1000
0001
0010
0001
1000
0100
0010
0000
0000
0000
,
0001
0000
1000
0000
0001
0000
1000
0000
0010
0100
0001
1000
0001
0010
0100
1000
,
0001
0000
0100
0000
0001
0000
0100
0000
0001
0100
0010
1000
0001
1000
0001
0010
,
0100
0000
1000
0000
0100
0000
1000
0000
0100
0010
0001
1000
0001
0100
0010
1000
,
0001
0000
0100
0000
0010
0000
0100
0000
0001
1000
0100
0010
0001
1000
0001
0100
,
0040
0000
0000
0000
,
0000
0000
0030
0000
;
