#TITLE:Metal Discharge;
#SUBTITLE:;
#ARTIST:Destruction;
#TITLETRANSLIT:;
#SUBTITLETRANSLIT:;
#ARTISTTRANSLIT:;
#CREDIT:;
#BANNER:sssddffrmmmsa.banner.png.jpg;
#BACKGROUND:destruction.bg.png.jpg;
#LYRICSPATH:;
#CDTITLE:CDTITLE.jpg;
#MUSIC:Destruction-MetalDischarge.mp3;
#OFFSET:-0.060;
#SAMPLESTART:100.000;
#SAMPLELENGTH:12.000;
#SELECTABLE:YES;
#BPMS:0.000=175.900;
#STOPS:;
#BGCHANGES:;
// cache tags:
#FIRSTBEAT:2.000;
#LASTBEAT:603.000;
#SONGFILENAME:Songs/Definitive Keyboard Megapack/MetalDischarge(Leone510)/Destruction-MetalDischarge.sm;
#HASMUSIC:1;
#HASBANNER:1;
#MUSICLENGTH:206.921;
// end cache tags

//---------------dance-single - ----------------
#NOTES:
     dance-single:
     :
     Hard:
     11:
     1.000,1.000,1.000,0.333,1.000,1473.000,296.000,69.000,0.000,0.000:
0000
0000
0000
0000
0000
0000
0000
0000
1000
0000
0010
0100
0001
1000
0011
0000
,
0000
0000
1010
0000
0000
0000
0010
0100
1000
0010
0001
1000
0110
0000
1010
0000
,
0000
0000
0101
0000
1010
0000
0101
0000
0001
0000
0100
1000
0010
0001
1100
0000
,
0000
0000
0101
0000
0000
0000
0001
1000
0100
0001
0010
0100
1010
0000
0101
0000
,
0000
0000
0101
0000
0011
0000
1100
0000
1000
0000
0010
0100
0001
1000
0011
0000
,
0000
0000
1010
0000
0000
0000
0010
0100
1000
0010
0001
1000
0110
0000
1010
0000
,
0000
0000
0101
0000
1010
0000
0101
0000
0001
0000
0100
1000
0010
0001
1100
0000
,
0000
0000
0101
0000
0000
0000
0001
1000
0100
0001
0010
0100
1010
0000
0101
0000
,
0000
0000
0101
0000
0011
0000
1100
0000
0010
0000
1000
0100
0001
1000
0101
0000
,
0010
0000
1001
0000
0100
0000
0001
0100
1000
0010
0001
1000
0110
0000
1001
0000
,
0010
0000
0110
0000
1001
0000
0110
0000
0001
0000
0100
1000
0100
0010
0101
0000
,
0010
0000
1100
0000
0010
0000
0001
1000
0100
0010
0001
0100
1001
0000
1100
0000
,
0010
0000
1001
0000
0011
0000
1100
0000
0001
0000
0010
0100
0001
1000
0011
0000
,
0100
0000
1010
0000
0001
0000
0010
0100
1000
0010
0001
1000
0110
0000
1010
0000
,
0100
0000
0101
0000
1010
0000
0101
0000
0001
0000
0100
1000
0010
0001
1100
0000
,
0010
0000
0101
0000
0010
0000
0001
1000
0100
0001
0010
0100
1000
0010
0001
0100
,
1010
0000
0000
0001
0010
1100
0010
0101
,
0010
0001
1100
0000
0010
0000
0101
0000
0010
0000
1100
0000
0001
0000
1010
0000
,
0010
0001
0110
0000
0001
0000
1010
0000
0100
0000
0011
0000
0010
0000
1001
0000
,
0100
0001
1010
0000
0001
0000
1100
0000
0010
0000
0101
0000
0010
0000
1100
0000
,
0010
1000
0101
0000
0010
0000
1001
0000
0100
0000
0011
0000
0100
0000
1010
0000
,
0100
0010
1100
0000
0001
0000
1010
0000
0100
0000
0011
0000
0100
0000
1010
0000
,
0001
0010
0101
0000
1000
0000
0110
0000
0001
0000
1010
0000
0100
0000
0011
0000
,
0010
0001
1010
0000
0100
0000
0011
0000
0001
0010
1000
0001
0100
0010
0001
1000
,
0001
0010
0100
1000
0010
0000
0000
0000
0010
0000
1000
0100
0001
1000
0101
0000
,
0010
0000
1001
0000
0001
0000
0010
0100
1000
0010
0001
1000
0110
0000
1010
0000
,
0010
0000
0101
0000
1010
0000
0101
0000
0001
0000
0100
1000
0010
0001
1100
0000
,
0010
0000
0101
0000
1000
0000
0001
1000
0100
0001
0010
0100
1010
0000
0101
0000
,
1000
0000
0101
0000
0011
0000
1100
0000
0001
0000
0010
0100
1000
0100
0011
0000
,
0010
0000
1100
0000
0010
0000
0001
0100
1000
0010
0001
1000
0101
0000
1010
0000
,
0001
0000
0110
0000
1001
0000
0110
0000
1000
0000
0001
0100
1000
0001
0110
0000
,
1000
0000
0011
0000
0100
0000
0001
1000
0100
0001
0010
0100
1010
0000
0101
0000
,
0010
1001
1100
0101
1000
0011
0100
1001
,
0100
1000
0011
0000
0010
0000
1100
0000
0010
0000
0101
0000
0010
0000
1100
0000
,
0001
0010
1100
0000
1000
0000
0101
0000
0010
0000
1100
0000
0010
0000
0101
0000
,
1000
0100
0011
0000
0100
0000
0011
0000
0100
0000
1001
0000
0010
0000
1100
0000
,
0001
0100
1010
0000
0100
0000
1001
0000
0010
0000
0101
0000
0010
0000
0011
0000
,
0100
0001
1010
0000
0001
0000
1100
0000
0010
0000
0101
0000
1000
0000
0011
0000
,
0010
0000
0001
0000
1010
0000
0000
0000
0100
0000
0000
0000
1100
0000
0000
0000
0010
0000
0000
0000
0101
0000
0000
0000
0001
0000
0000
1000
0000
0000
0010
0000
,
0000
0001
0000
0000
0010
0000
0000
0100
0000
0000
1000
0000
0000
0010
0000
0000
0001
0000
0000
0010
0000
0000
0100
0000
0000
0010
0000
0000
0001
0000
0000
0010
,
0000
0000
0200
0000
0000
0000
0000
0000
0000
0000
0000
0000
0000
0000
0000
0000
0310
0000
0000
0001
0000
0000
0010
0000
0000
0100
0000
0000
0001
0000
0000
0100
,
0000
0000
0001
0000
0000
1000
0000
0000
0002
0000
2000
0000
3003
0000
0000
0000
0010
0000
0000
0100
0000
0000
1000
0000
0000
0010
0000
0000
1000
0000
0000
0001
,
0000
0000
0010
0000
0000
1000
0000
0000
0020
0000
0200
0000
0330
0000
0000
0000
0001
0000
0000
1000
0000
0000
0001
0000
0000
0100
0000
0000
0001
0000
0000
0100
,
0000
0000
0001
0000
0000
1000
0000
0000
0002
0000
2000
0000
3003
0000
0000
0000
0101
0000
0000
0000
0000
0000
1010
0000
0000
0000
0000
0000
0101
0000
0000
0000
,
1010
0000
0000
0000
0000
0000
0110
0000
0000
0000
0000
0000
1001
0000
0000
0000
0010
0000
0000
0100
0000
0000
1000
0000
0000
0010
0000
0000
0100
0000
0000
0001
,
0000
0000
0100
0000
0000
0001
0000
0000
0200
0000
0020
0000
0330
0000
0000
0000
0010
0000
0000
0001
0000
0000
0010
0000
0000
0100
0000
0000
0001
0000
0000
0010
,
0000
0000
0100
0000
0000
0010
0000
0000
2000
0000
0020
0000
3030
0000
0000
0000
0001
0000
0000
1000
0000
0000
0001
0000
0000
0100
0000
0000
0001
0000
0000
1000
,
0000
0000
0001
0000
0000
0100
0000
0000
0002
0000
2000
0000
3003
0000
0000
0000
1001
0000
0000
0000
0000
0000
1010
0000
0000
0000
0000
0000
0101
0000
0000
0000
,
1010
0000
0000
0000
0000
0000
0110
0000
0000
0000
0000
0000
1001
0000
0000
0000
0010
0000
0000
0001
0000
0000
0010
0000
0000
0100
0000
0000
0001
0000
0000
0100
,
0000
0000
0001
0000
0000
1000
0000
0000
0002
0000
0200
0000
0303
0000
0000
0000
0010
0000
0000
0100
0000
0000
1000
0000
0000
0010
0000
0000
1000
0000
0000
0001
,
0000
0000
0010
0000
0000
1000
0000
0000
0020
0000
0200
0000
0330
0000
0000
0000
0001
0000
0000
1000
0000
0000
0001
0000
0000
0100
0000
0000
0001
0000
0000
0100
,
0000
0000
0001
0000
0000
1000
0000
0000
0002
0000
2000
0000
3003
0000
0000
0000
1100
0000
0000
0000
0000
0000
0101
0000
0000
0000
0000
0000
1001
0000
0000
0000
,
0110
0000
0000
0000
0000
0000
1001
0000
0000
0000
0000
0000
0101
0000
0000
0000
0010
0000
0000
0100
0000
0000
1000
0000
0000
0010
0000
0000
1000
0000
0000
0010
,
0000
0000
0001
0000
0000
0100
0000
0000
0020
0000
0200
0000
0330
0000
0000
0000
0100
0000
0000
0001
0000
0000
0100
0000
0000
0001
0000
0000
0010
0000
0000
0001
,
0000
0000
1000
0000
0000
0010
0000
0000
2000
0000
0020
0000
3030
0000
0000
0000
0010
0000
0000
0001
0000
0000
0010
0000
0000
0001
0000
0000
0100
0000
0000
1000
,
0000
0000
0100
0000
0000
1000
0000
0000
0020
0000
0002
0000
0033
0000
0000
0000
1001
0000
0000
0000
0000
0000
1010
0000
0000
0000
0000
0000
0101
0000
0000
0000
,
1010
0000
0000
0110
0000
0000
1001
0000
0001
0000
1000
0100
0001
1000
0101
0000
,
0010
0000
1001
0000
0100
0000
0001
0100
1000
0010
0001
1000
0110
0000
1001
0000
,
0010
0000
0110
0000
1001
0000
0110
0000
0001
0000
0100
1000
0100
0010
0101
0000
,
0010
0000
1100
0000
0010
0000
0001
1000
0100
0010
0001
0100
1001
0000
1100
0000
,
0010
0000
1001
0000
0011
0000
1100
0000
0001
0000
0010
0100
0001
1000
0011
0000
,
0100
0000
1010
0000
0001
0000
0010
0100
1000
0010
0001
1000
0110
0000
1010
0000
,
0100
0000
0101
0000
1010
0000
0101
0000
0001
0000
0100
1000
0010
0001
1100
0000
,
0010
0000
0101
0000
0010
0000
0001
0010
0100
1000
0001
0010
1000
0000
0011
0000
,
0100
0001
0010
0001
1000
0100
0001
0000
0001
0000
1010
0000
0001
0000
0101
0000
,
1000
0000
0001
0010
1100
0000
1001
0000
0010
0000
1100
0000
0001
0000
1010
0000
,
0010
0001
0110
0000
0001
0000
1010
0000
0100
0000
0011
0000
0010
0000
1001
0000
,
0100
0001
1010
0000
0001
0000
1100
0000
0010
0000
0101
0000
0010
0000
1100
0000
,
0001
0100
1010
0000
0001
0000
0110
0000
0001
0000
1010
0000
0100
0000
0011
0000
,
1000
0010
0101
0000
0010
0000
0101
0000
0010
0000
1100
0000
0010
0000
0101
0000
,
0010
0000
1000
0000
0110
0000
0000
0000
0001
0000
0000
0000
1010
0000
0000
0000
0001
0000
0000
1000
0000
0000
0001
0000
0000
0100
0000
0000
0001
0000
0000
1000
,
0000
0000
0010
0000
0000
0100
0000
0000
0001
0000
0000
1000
0000
0000
0001
0000
0000
1000
0000
0000
0001
0000
0000
0100
0000
0000
0010
0000
0000
0001
0000
0000
,
0010
0000
0000
1000
0000
0000
0020
0000
0000
0000
0000
0000
0000
0000
0000
0000
0030
0000
0000
0000
0010
0000
0000
0001
0000
0000
0010
0000
0000
0100
0000
0000
,
0010
0000
0000
1000
0000
0000
0010
0000
0000
0001
0000
0000
0200
0000
0000
0000
0300
0000
0000
0000
0010
0000
0000
0001
0000
0000
0010
0000
0000
0100
0000
0000
,
0001
0000
0000
0100
0000
0000
0010
0000
0000
1000
0000
0000
0020
0000
0000
0000
0030
0000
0000
0000
0010
0000
0000
0100
0000
0000
0001
0000
0000
0010
0000
0000
,
0001
0000
0000
0100
0000
0000
0010
0000
0000
1000
0000
0000
0002
0000
0000
0000
0003
0000
0000
0000
0101
0000
0000
0000
0000
0000
1010
0000
0000
0000
0000
0000
,
0101
0000
0000
0000
1010
0000
0000
0000
0000
0000
0110
0000
0000
0000
0000
0000
1001
0000
0000
0000
0100
0000
0000
0001
0000
0000
0010
0000
0000
0100
0000
0000
,
0010
0000
0000
1000
0000
0000
0010
0000
0000
0001
0000
0000
0200
0000
0000
0000
0300
0000
0000
0000
0010
0000
0000
0001
0000
0000
0010
0000
0000
0100
0000
0000
,
0001
0000
0000
0100
0000
0000
0010
0000
0000
1000
0000
0000
0020
0000
0000
0000
0030
0000
0000
0000
0010
0000
0000
0100
0000
0000
0001
0000
0000
0010
0000
0000
,
0001
0000
0000
0100
0000
0000
0010
0000
0000
1000
0000
0000
0002
0000
0000
0000
0003
0000
0000
0000
0101
0000
0000
0000
0000
0000
1010
0000
0000
0000
0000
0000
,
1001
0000
0000
0000
1100
0000
0000
0000
0000
0000
0101
0000
0000
0000
0000
0000
0101
0000
0000
0000
0001
0000
0000
1000
0000
0000
0001
0000
0000
0100
0000
0000
,
0001
0000
0000
1000
0000
0000
0010
0000
0000
0001
0000
0000
2000
0000
0000
0000
3000
0000
0000
0000
0100
0000
0000
0001
0000
0000
0010
0000
0000
0100
0000
0000
,
0001
0000
0000
0100
0000
0000
0010
0000
0000
1000
0000
0000
0002
0000
0000
0000
0003
0000
0000
0000
0010
0000
0000
0100
0000
0000
0001
0000
0000
0010
0000
0000
,
0001
0000
0000
0100
0000
0000
0010
0000
0000
1000
0000
0000
0002
0000
0000
0000
0003
0000
0000
0000
0101
0000
0000
0000
0000
0000
1010
0000
0000
0000
0000
0000
,
0101
0000
0000
0000
1010
0000
0000
0000
0000
0000
0110
0000
0000
0000
0000
0000
1001
0000
0000
0000
0010
0000
0000
0001
0000
0000
0010
0000
0000
0100
0000
0000
,
0010
0000
0000
1000
0000
0000
0010
0000
0000
0001
0000
0000
0200
0000
0000
0000
0300
0000
0000
0000
0010
0000
0000
0001
0000
0000
0010
0000
0000
0100
0000
0000
,
0001
0000
0000
0100
0000
0000
0010
0000
0000
1000
0000
0000
0020
0000
0000
0000
0030
0000
0000
0000
0010
0000
0000
0100
0000
0000
0001
0000
0000
0010
0000
0000
,
0001
0000
0000
0100
0000
0000
0010
0000
0000
1000
0000
0000
0002
0000
0000
0000
0003
0000
0000
0000
0110
0000
0000
0000
0000
0000
1010
0000
0000
0000
0000
0000
,
0110
0000
1001
0000
0000
0110
0000
0000
1100
0000
0001
0000
0001
0000
0000
0000
,
1000
0000
0000
0000
1000
0000
0000
0000
0000
0000
0000
0000
0000
0000
0000
0000
0000
0000
0000
0010
0000
0000
0000
0010
0000
0000
0000
0000
0000
0000
0000
0000
,
0100
0000
0100
0000
0000
0000
0000
0000
0000
1000
0000
1000
0000
0000
0000
0000
,
0001
0000
0001
0000
0000
0000
0000
0000
0000
0010
0000
0010
0000
0000
0000
0100
,
0000
0000
0200
0000
0000
0000
0000
0000
0000
0000
0000
0301
0000
0000
0000
0000
1000
0000
0010
0000
0001
0000
0100
0000
0010
0000
0001
0000
0010
0000
0100
0000
,
1000
0010
0001
0100
0010
1000
0001
0010
0001
1000
0010
0100
0001
1000
0010
0100
,
1000
0010
0100
0001
0010
0100
0001
1000
0100
0010
0100
0001
0010
0100
1000
0010
,
0100
0001
0010
1000
0001
0100
0001
0100
0010
0001
1000
0001
0100
1000
0010
0100
,
1000
0010
1000
0001
0100
0010
1000
0010
0100
0001
0100
1000
0010
0100
0001
1000
,
0010
0100
1000
0001
0100
0010
0001
0100
1000
0001
0100
0010
0001
1000
0001
0010
,
0100
0001
1000
0010
0100
0001
1000
0010
0100
0010
0001
1000
0001
0100
0010
1000
,
0001
0100
0001
0100
0001
0010
0001
1000
0001
0100
1000
0001
0100
0010
0001
1000
,
0010
0000
0001
0000
1000
0000
0001
0000
0100
0000
0010
0000
0000
0000
0000
0000
0000
0000
0100
0000
0000
0000
0100
0000
0000
0000
0000
0000
0000
0000
0000
0001
,
0000
0000
0000
0001
0000
0000
0000
0000
0000
0000
0000
0000
0000
0000
0000
0000
0000
0000
1000
0000
0000
0000
1000
0000
0000
0000
0000
0000
0000
0000
0000
0010
,
0000
0000
0000
0010
0000
0000
0000
0000
0000
0000
0000
0000
0000
0000
0000
0000
0000
0000
0100
0000
0000
0000
0100
0000
0000
0000
0000
0000
0000
0000
0000
0010
,
0000
0000
0000
0010
0000
0000
0000
0000
0000
0000
0000
0000
0000
0000
0000
0000
0000
0000
1000
0000
0000
0000
1000
0000
0000
0000
0000
0000
0000
0000
0001
0000
,
0000
0002
0000
0000
0000
1003
0000
0000
0000
0010
0100
1000
0010
0001
0100
0010
,
0001
1000
0010
0001
1000
0010
0001
0100
1000
0010
0001
1000
0001
0100
0010
0001
,
1000
0001
0010
0100
0001
1000
0010
0100
1000
0010
0001
0100
0010
0001
0100
0001
,
0100
0000
1000
0000
0010
0000
1000
0000
0010
0000
0100
0000
0001
0000
1000
0000
0010
0000
1000
0000
0100
0000
1000
0000
0010
0000
0100
0000
0000
0000
0000
1010
,
0000
0000
0000
0000
0101
0000
0000
0000
0000
0000
0000
0101
0000
0000
0000
0000
0100
0000
0001
0000
1000
0000
0010
0000
0100
0000
0001
0000
0010
0000
0100
0000
,
1000
0010
0001
0010
0001
0100
0001
1000
0010
0100
0010
1000
0010
1000
0100
0001
,
0100
1000
0001
0100
0001
1000
0010
1000
0001
0100
0010
0001
1000
0001
1000
0010
,
0100
1000
0001
0100
0010
0001
1000
0010
1000
0001
1000
0100
0010
0001
0010
0001
,
0100
1000
0001
0000
0010
0000
0100
0000
1000
0000
0020
0000
0030
0000
0000
0000
,
0000
0000
0000
0000
,
0000
0000
0000
0000
0010
0000
0100
0000
1000
0000
0010
0000
0000
0000
0001
0010
,
0100
1000
0100
0010
1000
0001
0100
0010
1000
0100
0010
0001
1000
0001
1000
0010
,
1000
0001
0000
0000
0000
0000
0000
0000
0000
0000
0001
0000
0010
0100
0000
0010
,
0001
0000
0100
1000
0000
0001
0100
0010
0001
0100
0010
0000
0100
1000
0000
0001
,
0100
0000
0001
0010
0000
0010
1000
0010
1000
0001
0100
0010
0001
0010
0100
0001
,
1000
0010
0100
0010
0100
1000
0001
0100
0010
0001
1000
0100
0010
0001
1000
0010
,
1000
0100
0002
0000
0000
0000
0000
0000
0003
1000
0001
0100
0010
0001
0010
1000
,
0010
0001
0100
1000
0001
0100
0010
0001
0100
0010
0001
0100
0001
0010
1000
0001
,
0100
0010
0001
0010
0100
1000
0010
0100
0001
0010
0100
1000
0100
0010
1000
0001
,
1000
0001
0100
0001
0010
0100
0001
0100
0001
0010
0100
1000
0010
0100
1000
0100
,
0010
0100
1000
0001
0100
1000
0010
0001
0100
0000
0001
0000
0100
0000
1001
0000
,
0010
0000
1100
0000
0001
1000
0110
0000
1000
0000
0011
0000
0100
0000
0101
0000
,
1000
0000
0010
0100
1001
0000
0001
0000
1100
0000
0010
0000
1100
0000
0001
0000
,
1001
0000
0010
0001
1100
0000
0010
0000
0101
0000
0010
0000
1100
0000
0010
0000
,
0101
0000
0010
0100
1001
0000
0010
0000
1100
0000
0001
0000
0110
0000
0001
0000
,
1010
0000
0100
0010
1001
0000
0001
0000
1010
0000
0010
0000
0110
0000
0001
0000
,
1100
0000
0010
1000
0101
0000
0010
0000
1100
0000
0001
0000
0110
0000
0001
0000
,
1010
0000
0000
0000
0100
0000
1000
0000
0011
0000
0000
0000
0010
0000
0000
0000
1001
0000
0000
0000
0010
0000
0000
0100
0000
0000
1000
0000
0000
0010
0000
0000
,
0001
0000
0000
1000
0000
0000
0010
0000
0000
0001
0000
0000
1000
0000
0000
0010
0000
0000
0002
0000
0000
1003
0000
0000
0001
0000
1000
0000
0000
0010
0000
0000
,
0100
0000
0001
0000
0010
0000
1000
0000
0000
0001
0000
0000
2000
0000
0020
0000
3030
0000
0000
0000
0010
0000
0000
0100
0000
0000
1000
0000
0000
0010
0000
0000
,
0001
0000
0000
0100
0000
0000
0001
0000
0000
1000
0000
0000
0020
0000
0200
0000
0330
0000
0000
0000
0001
0000
0000
1000
0000
0000
0010
0000
0000
0001
0000
0000
,
0100
0000
0000
0001
0000
0000
1000
0000
0000
0010
0000
0000
0200
0000
0002
0000
0303
0000
0000
0000
1100
0000
0000
0000
0000
0000
1001
0000
0000
0000
0011
0000
,
0000
0000
0000
0000
0110
0000
0000
0000
0000
0000
1010
0000
0000
0000
0101
0000
0000
0000
0000
0000
0010
0000
0000
0001
0000
0000
1000
0000
0000
0010
0000
0000
,
0100
0000
0001
0000
0010
0000
1000
0000
0000
0001
0000
0000
2000
0000
0020
0000
3030
0000
0000
0000
0010
0000
0000
0100
0000
0000
1000
0000
0000
0010
0000
0000
,
0001
0000
0000
0100
0000
0000
0001
0000
0000
1000
0000
0000
0020
0000
0200
0000
0330
0000
0000
0000
0001
0000
0000
1000
0000
0000
0010
0000
0000
0001
0000
0000
,
0100
0000
0000
0001
0000
0000
1000
0000
0000
0010
0000
0000
0200
0000
0002
0000
0303
0000
0000
0000
1100
0000
0000
0000
0000
0000
1001
0000
0000
0000
0011
0000
,
0000
0000
0000
0000
1001
0000
0000
0000
0000
0000
0110
0000
0000
0000
0000
0000
1001
0000
0000
0000
0100
0000
0000
0010
0000
0000
1000
0000
0000
0001
0000
0000
,
0100
0000
0001
0000
0010
0000
1000
0000
0000
0001
0000
0000
2000
0000
0020
0000
3030
0000
0000
0000
0001
0000
0000
0100
0000
0000
1000
0000
0000
0010
0000
0000
,
1000
0000
0000
0100
0000
0000
0001
0000
0000
1000
0000
0000
0020
0000
0200
0000
0330
0000
0000
0000
0001
0000
0000
1000
0000
0000
0010
0000
0000
0001
0000
0000
,
0100
0000
0000
0001
0000
0000
1000
0000
0000
0010
0000
0000
0200
0000
0002
0000
0303
0000
0000
0000
1010
0000
0000
0000
0000
0000
0110
0000
0000
0000
1001
0000
,
0000
0000
0000
0000
1100
0000
0000
0000
0000
0000
0011
0000
0000
0000
0000
0000
1001
0000
0000
0000
0010
0000
0000
0001
0000
0000
0010
0000
0000
0100
0000
0000
,
1000
0000
0000
0010
0000
0000
0001
0000
0000
0100
0000
0000
0002
0000
0200
0000
0303
0000
0000
0000
0010
0000
0000
0100
0000
0000
1000
0000
0000
0010
0000
0000
,
0001
0000
0000
0010
0000
0000
0100
0000
0000
1000
0000
0000
0020
0000
0002
0000
0033
0000
0000
0000
0100
0000
0000
1000
0000
0000
0001
0000
0000
0010
0000
0000
,
1000
0000
0000
0001
0000
0000
1000
0000
0000
0010
0000
0000
0002
0000
2000
0000
3003
0000
0000
0000
0110
0000
0000
0000
1010
0000
0000
0000
0000
0000
0101
0000
,
0000
0000
1010
0000
0110
0000
0000
1001
0000
0000
1010
0000
0101
0000
0000
1001
,
0000
0000
0110
0000
1001
0000
0000
0101
0000
0000
1010
0000
0110
0000
0000
0101
,
0000
0000
1001
0000
0101
0000
0000
1001
0000
0000
0220
0000
0330
0000
0000
0000
;
