#TITLE:Fascination Marisa;
#SUBTITLE:;
#ARTIST:...;
#TITLETRANSLIT:;
#SUBTITLETRANSLIT:;
#ARTISTTRANSLIT:;
#CREDIT:L3OJ for the ogg;
#BANNER:fascination.png;
#BACKGROUND:fascinationBG.png;
#LYRICSPATH:;
#CDTITLE:;
#MUSIC:Fascination Marisa.ogg;
#OFFSET:0.000;
#SAMPLESTART:0.055;
#SAMPLELENGTH:12.000;
#SELECTABLE:YES;
#DISPLAYBPM:185.000;
#BPMS:0.000=185.020,14.000=790.080,16.000=185.020,94.500=92.510,110.000=185.020;
#STOPS:14.000=0.060
,14.250=0.060
,14.500=0.060
,14.750=0.060
,15.000=0.140
,15.500=0.120
,47.000=0.160
,62.500=0.160
,78.000=0.160
,126.000=0.160
,141.500=0.160
,157.000=0.160
,302.500=0.160
,303.500=0.140
,308.500=1.480
;
#BGCHANGES:;
// cache tags:
#FIRSTBEAT:0.000;
#LASTBEAT:308.750;
#SONGFILENAME:Songs/Rodd's Revival/Fascination Marisa (Rodd Steps)/Fascinaton Marisa (Rodd Steps).sm;
#HASMUSIC:1;
#HASBANNER:1;
#MUSICLENGTH:108.212;
// end cache tags

//---------------dance-single - R. Farias----------------
#NOTES:
     dance-single:
     R. Farias:
     Challenge:
     10:
     0.935,1.000,0.102,0.139,0.402,682.000,11.000,15.000,34.000,0.000:

1000
0001
0000
0001
0100
0000
0100
0010
0000
0010
0100
0000
0001
0000
1000
0000
,
0100
0010
0000
0001
0100
0000
0010
1000
0000
0100
0010
0000
0100
0000
1000
0000
,
1001
0001
0100
0010
0110
0010
1000
0100
,
0110
0000
0010
0000
0011
0000
0001
0000
0100
0001
0100
0001
0100
0000
0010
0000
,
1010
1000
0100
0010
0100
1000
0001
0100
,
0110
0010
1000
0100
0010
0100
1000
0001
,
0100
0010
1000
0001
0100
0010
1000
0100
0010
0001
0010
0100
1000
0001
0100
0010
,
2000
0MMM
0M00
0MM0
0M00
0M00
0000
0000
0MMM
0000
0MMM
0000
0M0M
0000
0000
0000
,
3100
0010
0001
0010
0100
1000
0001
0100
,
1000
0100
0010
1000
0100
0001
0100
0010
,
0001
0100
0001
0010
0001
1000
0001
0100
,
0010
0000
1000
0000
0100
0000
1000
0000
0010
0000
1000
0000
0MM2
0003
1000
0000
,
0100
0010
0001
1000
0100
0010
0001
0010
,
0100
1000
0001
0100
0010
1000
0100
0010
,
0100
1000
0001
0100
0010
0100
0001
1000
,
0100
0000
0010
0000
0001
0000
0100
0000
0010
0000
M20M
0300
0001
0000
1000
0000
,
0100
0001
0100
1000
0010
0001
0010
1000
,
0100
0010
0100
1000
0001
0100
1000
0100
,
0010
1000
0100
0010
0100
1000
0001
0100
,
0001
0000
1000
0000
0100
0000
1000
0000
02MM
0300
0010
0000
0001
0000
0010
0000
,
0100
1000
0001
1000
0001
0100
0001
0100
,
0010
0100
0010
1000
0010
1000
0100
1000
,
0001
1000
0100
1000
0010
0100
0001
0010
,
0001
0000
0000
1000
0000
0000
0001
0000
0000
0100
0000
0000
0010
0000
0000
1000
0100
0010
0001
0010
0100
1000
0001
0100
,
0010
1000
0001
0100
0010
1000
0100
0010
0100
1000
0001
0100
0010
0100
0001
1000
0100
1000
0010
1000
0001
1000
0100
1000
,
0010
0000
0100
0000
0001
0000
0010
0000
0001
0000
1000
0000
0001
0000
0100
0000
0010
0000
1000
0000
0100
0000
0010
0000
0001
0000
0010
0000
0100
0000
2000
0000
0000
0000
0000
0000
3000
0000
0000
0001
0000
0000
0100
0000
0000
0000
0000
0000
,
0010
0000
1000
0000
0010
0000
1000
0000
0000
0000
0100
0000
0000
0000
0010
0000
0000
0000
0001
0000
0000
0000
0000
0000
0100
0000
0000
0010
0000
0000
1000
0000
0000
0000
0100
0000
0000
0000
1000
0000
0000
0000
0100
0000
0000
0000
0010
0000
,
0000
0001
0000
0010
0000
0100
0000
1000
0000
0001
0000
0000
0200
0000
0000
0000
0000
0000
0310
0000
0000
0010
0000
0000
,
1000
0100
0010
0001
1000
0001
0001
0100
,
0010
1000
0100
0010
0001
0100
0100
0010
,
1000
0001
0100
0010
1000
0100
0100
1000
,
0001
0000
0100
0000
0010
0000
1000
0000
02MM
0300
0010
0000
0001
0000
0100
0000
,
1000
0100
0001
0010
1000
0010
0001
0100
,
0010
1000
0001
0100
0010
1000
0100
0001
,
0100
0010
0001
0100
0010
1000
0100
1000
,
0010
0000
0100
0000
0001
0000
MM20
0030
0100
0000
1000
0000
0001
0000
0100
0000
,
0010
1000
0100
0001
1000
0010
0001
0100
,
0010
1000
0100
1000
0010
0100
0001
0010
,
0001
0100
0010
1000
0100
1000
0001
0100
,
0001
1000
01MM
0010
0001
0010
0100
1000
,
0001
0100
0010
1000
0100
1000
0001
0100
,
0010
1000
0100
1000
0100
0010
0100
0010
,
0001
0000
0010
0000
0001
0000
0100
0010
1000
0001
0100
0010
1000
0100
0010
0100
,
1000
0100
0010
0001
0010
0100
0010
0000
0001
0000
0100
0000
0010
0000
1000
0000
,
0100
0010
0100
1000
0001
0100
0010
1000
,
0100
0001
0100
1000
0100
0001
0100
0010
,
0001
0100
1000
0100
0001
0100
1000
0100
,
0010
1000
0100
0010
0100
1000
0001
1000
,
0001
0100
0010
1000
0100
1000
0010
0100
,
0001
0010
0001
0100
0010
0100
0010
1000
,
0010
1000
0100
0010
0100
1000
0001
0100
,
0010
1000
0001
0100
0010
1000
0100
0010
,
0100
1000
0001
0100
0010
0100
0001
1000
,
0010
1000
0001
0100
0001
1000
0100
0010
,
0001
1000
0200
0000
0310
0002
0000
0203
,
0000
0310
0100
0010
1000
0100
0010
0100
,
1000
0001
0100
0010
1000
0100
0010
0001
,
0010
0100
1000
0001
1000
0001
0100
0010
,
1000
0000
0100
0000
1000
0000
0100
0010
0001
0010
0100
1000
0100
1000
0010
1000
,
0100
1000
0001
0100
0001
0010
0001
0000
0100
0000
0010
0000
0100
0000
0001
0000
,
1000
0100
1000
0010
0100
0101
0001
0010
,
0110
0010
0001
0100
0010
1000
0100
1000
,
0010
0100
0001
0010
0100
0110
0010
0001
,
0101
0100
0010
1000
0100
1000
0001
0100
,
0010
1000
0100
0010
0001
0010
0100
1000
,
0001
0100
0010
1000
0001
0100
0010
1000
,
0100
1000
0010
0100
0001
1000
0010
0100
,
0001
1000
0100
0010
0100
1000
0100
0001
,
0100
0010
0100
0001
0100
0010
0001
0100
,
1000
0100
0010
0100
1000
0100
0010
1000
,
0100
0010
0100
1000
0100
0010
0001
0100
,
0010
1000
0001
0100
0010
1000
0100
1000
,
0001
0100
0010
0100
0010
1000
0100
1000
,
0001
1000
0001
0100
0001
0100
0010
1000
,
0010
0000
1000
0000
0010
0000
1000
0100
1000
0100
1000
0100
1000
0100
0010
0100
,
0010
0100
0010
0000
0001
0000
0100
0000
0010
0000
2M0M
3000
0100
0000
M02M
0030
,
0001
0100
0010
1000
0001
0100
0010
1000
,
0100
0000
22MM
3300
0000
0000
0000
0000
0000
0000
0000
0000
0000
0000
0000
0000
;
