#TITLE:I Have a Bad Case;
#SUBTITLE:;
#ARTIST:DJ Sharpnel;
#TITLETRANSLIT:;
#SUBTITLETRANSLIT:;
#ARTISTTRANSLIT:;
#CREDIT:T. Moore;
#BANNER:i have a bad bn.png;
#BACKGROUND:i have a bad bg.png;
#LYRICSPATH:;
#CDTITLE:;
#MUSIC:I have a bad case.ogg;
#OFFSET:-0.108;
#SAMPLESTART:107.617;
#SAMPLELENGTH:19.999;
#SELECTABLE:YES;
#DISPLAYBPM:192.000;
#BPMS:0.000=192.000,125.500=288.000,126.000=192.000,127.000=288.000,128.000=192.000,475.000=288.000,476.000=192.000,537.500=288.000,539.000=192.000,792.000=288.000,793.000=192.000,794.000=288.000,795.500=192.000;
#STOPS:125.500=0.052
,127.000=0.052
,127.500=0.052
,475.000=0.026
,475.250=0.026
,475.500=0.026
,475.750=0.026
,537.500=0.052
,538.000=0.052
,538.500=0.026
,538.750=0.026
,792.000=0.026
,792.250=0.026
,792.500=0.052
,794.000=0.052
,794.500=0.026
,794.750=0.026
,795.000=0.026
,795.250=0.026
;
#BGCHANGES:;
// cache tags:
#FIRSTBEAT:16.000;
#LASTBEAT:804.000;
#SONGFILENAME:Songs/SHARPNELSTREAMZ v2/I Have a Bad Case/I have a bad case.sm;
#HASMUSIC:1;
#HASBANNER:1;
#MUSICLENGTH:254.589;
// end cache tags

//---------------dance-single - 17- (TYLR)----------------
#NOTES:
     dance-single:
     17- (TYLR):
     Challenge:
     17:
     1.000,1.000,0.114,0.373,1.000,2598.000,29.000,95.000,8.000,0.000:
0000
0000
0000
0000
,
0000
0000
0000
0000
,
0000
0000
0000
0000
,
0000
0000
0000
0000
,
0M00
0000
0000
0000
,
0000
0000
0000
0000
,
0000
0000
0000
0000
,
0001
0000
0400
0000
0301
0000
1000
0000
0100
0010
0004
0000
1003
0000
0004
0003
,
0011
0010
0100
1000
0001
1000
0010
0100
,
0001
0100
0010
1000
0001
0010
0100
1000
,
0010
1000
0001
0100
0010
1000
0001
0010
,
0100
0000
1000
0000
0010
0000
1000
0000
0001
0100
0000
0010
1000
0000
0001
0000
,
0011
0010
0100
1000
0001
1000
0010
0100
,
0001
0100
0010
1000
0100
0010
0001
1000
,
0001
0010
0001
0010
0100
1000
0100
1000
0001
1000
0010
0100
0001
1000
0001
0010
,
0100
0000
1000
0000
0100
0000
4000
0000
0000
0000
3000
0000
0001
0000
0100
0000
0001
0000
0400
0000
0000
0000
0300
0000
0010
0000
0000
1000
0000
0000
0001
0000
0000
1000
0000
0000
0400
0000
0000
0000
0000
0000
0000
0000
0000
0000
0000
0000
,
0310
0001
0100
0001
1000
0100
1000
0001
0010
0001
0100
0010
1000
0001
0100
0010
,
0100
0001
0010
0100
1000
0001
0100
0001
1000
0010
1000
0100
0010
0001
1000
0100
,
0010
0100
1000
0001
0100
0010
1000
0010
0100
0001
1000
0100
1000
0001
0100
0010
,
0100
0001
0010
0100
1000
0001
0100
0001
1000
0010
1000
0100
0010
0001
1000
0001
,
0100
0001
0010
0001
1000
0010
1000
0001
0100
0001
0010
0100
1000
0001
0010
0100
,
0010
0001
0100
0010
1000
0001
0010
0001
1000
0100
1000
0010
0100
0001
1000
0010
,
0100
0010
1000
0001
0010
0100
1000
0100
0010
0001
1000
0010
1000
0001
0010
0100
,
0010
0001
0400
0301
1000
0001
0400
0310
1000
0010
0400
0301
1000
0001
0400
0301
,
1000
0100
0010
0100
1000
0001
1000
0001
0010
0001
0100
0010
1000
0001
0100
0010
,
0100
0001
0010
0100
1000
0001
0100
0001
1000
0010
1000
0100
0010
0001
1000
0100
,
0010
0100
1000
0001
0100
0010
1000
0010
0100
0001
1000
0100
1000
0001
0100
0010
,
0100
0001
0010
0100
1000
0001
0100
0001
1000
0010
1000
0100
0010
0001
1000
0001
,
0100
0001
0010
0001
1000
0010
1000
0001
0100
0001
0010
0100
1000
0001
0010
0100
,
0010
0001
0100
0010
1000
0001
0010
0001
1000
0100
1000
0010
0100
0001
1000
0010
,
0100
0010
1000
0001
0010
0100
1000
0100
0010
0001
1000
0010
1000
0001
0010
0100
,
1000
0000
0001
0000
1000
0000
0001
0000
1000
0000
0001
0000
1000
0000
0001
0000
1000
0000
0004
0000
0000
0000
0000
0000
0103
0000
0000
0010
0000
0000
1000
0000
0000
0001
0000
0000
0040
0000
0000
0000
0000
0000
0000
0000
0000
0000
0000
0000
,
0230
0300
0010
0000
0002
0003
0010
0000
0002
0003
1000
0200
0310
0000
0002
0003
,
2000
3000
0010
0000
0200
0300
0001
0000
0200
0300
0010
2000
3001
0000
0200
0300
,
0002
0003
1000
0000
0200
0300
0010
0000
0200
0300
1000
0002
0013
0000
0200
0300
,
2000
3000
0010
0000
2000
3000
0001
0000
2000
3010
0000
0200
0301
0000
2000
3000
,
020M
0300
1000
0000
0002
0003
0010
0000
0002
0003
1000
0200
0310
0000
0002
0003
,
2000
3000
0010
0000
0200
0300
0001
0000
0200
0300
0010
2000
3001
0000
0200
0300
,
0002
0003
1000
0000
0200
0300
0010
0000
0200
0300
1000
0002
0013
0000
0200
0300
,
2000
3000
0040
0000
2030
3000
0400
0000
2300
3010
0400
0000
0301
0000
0400
0000
,
0302
0003
1000
0000
0020
0030
0100
0000
0020
0030
0100
0001
1000
0000
0020
0030
,
2000
3000
0001
0000
0020
0030
0100
0000
0020
0030
0001
2000
3000
0100
0020
0030
,
0002
0003
1000
0000
0020
0030
0100
0000
0020
0030
1000
0002
0103
0000
0020
0030
,
2000
3000
0100
0000
2000
3000
0001
0000
2000
3100
0000
0020
0031
0000
2000
3000
,
002M
0030
1000
0000
0002
0003
0100
0000
0002
0003
1000
0020
0130
0000
0002
0003
,
2000
3000
0100
0000
0020
0030
0001
0000
0020
0030
0100
2000
3001
0000
0020
0030
,
0100
0010
0001
0010
0100
1000
0100
1000
0001
0100
0010
1000
0001
1000
0010
0100
,
0001
0000
0040
0000
0130
0000
0040
0000
0031
1000
0010
0100
0004
0000
0000
0000
,
1003
0100
1000
0100
0010
0001
1000
0010
1000
0010
0100
0001
1000
0100
1000
0100
,
0010
0001
1000
0010
1000
0010
0100
0001
1000
0100
1000
0100
0010
0001
0010
0100
,
1000
0001
1000
0001
0100
0010
1000
0001
1000
0001
0010
0100
1000
0001
1000
0001
,
0100
0010
1000
0001
1000
0001
0010
0100
1000
0001
1000
0001
0100
0010
0100
0001
,
1000
0010
1000
0010
0100
0001
1000
0100
1000
0100
0010
0001
1000
0010
1000
0010
,
0100
0001
1000
0100
1000
0100
0010
0001
1000
0010
1000
0010
0100
0001
0100
0010
,
1000
0001
1000
0001
0010
0100
1000
0001
1000
0001
0100
0010
1000
0001
1000
0001
,
0010
0100
1000
0001
1000
0001
0100
0010
0100
0001
1000
0100
0010
0001
1000
0010
,
0100
0001
0100
0001
1000
0100
0010
0001
0010
0001
1000
0010
0100
0001
0100
0001
,
1000
0100
0010
0001
0010
0001
1000
0010
0100
0001
0100
0001
1000
0010
1000
0001
,
0010
0100
0010
0100
1000
0001
0100
0010
0100
0010
1000
0001
0010
0100
0010
0100
,
1000
0001
0100
0010
0100
0010
1000
0100
0010
0001
0010
0100
1000
0001
1000
0010
,
0100
0001
0100
0001
1000
0100
0010
0001
0010
0001
1000
0010
0100
0001
0100
0001
,
1000
0100
0010
0001
0010
0001
1000
0010
0100
0001
0100
0001
1000
0010
1000
0001
,
1000
0100
0010
0001
1000
0001
0010
0100
1000
0001
0100
0010
1000
0010
0100
0001
,
1000
0000
0000
0000
0000
0000
0000
0000
0000
0000
0100
0000
0000
0000
0000
0000
0000
0000
0000
1000
0000
0000
0000
0000
0000
0000
0000
0000
0000
0001
0000
0000
0000
0000
0000
0000
0000
0000
0000
0010
0000
0000
0000
0000
0000
0000
0000
0000
0100
0000
0000
0000
0000
0000
0000
0000
0000
0000
1000
0000
0000
0000
0000
0000
0000
0000
0000
0001
0000
0000
0000
0000
0000
0000
0000
0000
0000
0100
0000
0000
0000
0000
0000
0000
0000
0000
0000
0001
0000
0000
0000
0000
0000
0000
0000
0000
1000
0000
0000
0000
0000
0000
0000
0000
0000
0000
0010
0000
0000
0000
0000
0000
0000
0000
0000
0100
0000
0000
0000
0000
0000
0000
0000
0000
0000
0001
0000
0000
0000
0000
0000
0000
0000
0000
0000
1000
0000
0000
0000
0000
0000
0000
0000
0000
0100
0000
0000
0000
0000
0000
0000
0000
0000
0000
0010
0000
0000
0000
0000
0000
0000
0000
0000
0001
0000
0000
0000
0000
0000
0000
0000
0000
0000
1000
0000
0000
0000
0000
0000
0000
0000
0000
0000
0001
0000
0000
0000
0000
0000
0000
0000
0000
,
0200
0300
0000
0000
0000
0000
0000
0000
0000
0000
0000
0000
0000
0000
0000
0000
,
0000
0000
0000
0000
,
0000
0000
0000
0000
,
0002
0000
0000
0000
0000
0000
0000
0000
0000
0000
0000
0000
0000
0000
0000
0000
0000
0000
0000
0000
0000
0000
0000
0000
2003
0000
0000
0000
0000
0000
0000
0000
0000
0000
0000
0000
0000
0000
0000
0000
0000
0000
0000
0000
0000
0000
0000
0000
3002
0000
0000
0000
0000
0000
0000
0000
0000
0000
0000
0000
0000
0000
0000
0003
,
2MM1
0000
0000
0000
,
3020
0000
0000
0000
0000
0000
1030
0010
,
0200
0000
0000
0000
,
0000
0000
0000
0000
0000
0000
0000
0000
0000
0000
0000
0000
0000
0000
0000
0000
0000
0000
0000
0000
0000
0000
0000
0000
0000
0000
0000
0000
0000
0000
0000
0000
0000
0000
0000
0000
0000
0000
0000
0000
0000
0000
0000
0000
0000
0000
0000
0300
0100
0000
0000
0000
0000
0000
0000
0000
0001
0000
0000
0000
0000
0000
0000
0000
,
0020
0000
0000
0000
,
0230
0000
0000
0000
0000
0000
0310
0100
,
2000
0000
0000
0000
,
0000
0000
0000
0000
0000
0000
0000
0000
0000
0000
0000
0000
0000
0000
0000
0000
0000
0000
0000
0000
0000
0000
0000
0000
0000
0000
0000
0000
0000
0000
0000
0000
0000
0000
0000
0000
0000
0000
0000
0000
0000
0000
0000
0000
0000
0000
0000
3000
1000
0000
0000
0000
0000
0000
0000
0000
0100
0000
0000
0000
0000
0000
0000
0000
,
0020
0000
0000
0032
0000
0000
0023
0000
,
0032
0000
0000
2003
0000
0000
3020
0000
,
0230
0000
0000
0000
,
0000
0000
0000
0000
0000
0000
0000
0000
0000
0000
0000
0000
0000
0000
0000
0000
0000
0000
0000
0000
0000
0000
0000
0000
0000
0000
0000
0000
0000
0000
0000
0000
0000
0000
0000
0000
0000
0000
0000
0000
0000
0000
0000
0000
0000
0000
0000
0300
0100
0000
0000
0000
0000
0000
0000
0000
0001
0000
0000
0000
0000
0000
0000
0000
,
2000
0000
0000
0000
,
3200
0000
0000
0000
0000
0000
0000
0000
0000
0000
0000
0000
0000
0000
0000
0000
0000
0000
0000
0000
0000
0000
0000
0000
0000
0000
0000
0000
0000
0000
0000
0000
0000
0000
0000
0000
0000
0000
0000
0000
0000
0000
0000
0000
0000
0000
0000
0300
0100
0000
0000
0000
0000
0000
0000
0000
0010
0000
0000
0000
0000
0000
0000
0000
,
0001
1000
0010
1000
0001
1000
0010
0100
0001
1000
0100
1000
0001
0010
0100
1000
,
0001
0000
0000
0000
0000
0000
0000
0000
0000
0000
1000
0000
0000
0000
0000
0000
0000
0000
0000
0001
0000
0000
0000
0000
0000
0000
0000
0000
0000
0100
0000
0000
0000
0000
0000
0000
0000
0000
0000
0010
0000
0000
0000
0000
0000
0000
0000
0000
1000
0000
0000
0000
0000
0000
0000
0000
0000
0000
0001
0000
0000
0000
0000
0000
0000
0000
0000
0100
0000
0000
0000
0000
0000
0000
0000
0000
0000
0001
0000
0000
0000
0000
0000
0000
0000
0000
0000
1000
0000
0000
0000
0000
0000
0000
0000
0000
0100
0000
0000
0000
0000
0000
0000
0000
0000
0000
0010
0000
0000
0000
0000
0000
0000
0000
0000
0001
0000
0000
0000
0000
0000
0000
0000
0000
0000
1000
0000
0000
0000
0000
0000
0000
0000
0000
0000
0100
0000
0000
0000
0000
0000
0000
0000
0000
1000
0000
0000
0000
0000
0000
0000
0000
0000
0000
0001
0000
0000
0000
0000
0000
0000
0000
0000
0100
0000
0000
0000
0000
0000
0000
0000
0000
0000
0010
0000
0000
0000
0000
0000
0000
0000
0000
0000
1000
0000
0000
0000
0000
0000
0000
0000
0000
,
0002
0003
0000
0000
0000
0000
0000
0000
,
M000
0000
0000
0000
,
0002
0000
0000
0203
0000
0000
0302
0000
,
1003
0100
0010
0001
1000
0001
0010
0100
1000
0001
1000
0100
0010
0100
1000
0001
,
1000
0010
0100
0001
1000
0001
0100
0010
1000
0001
0100
0001
1000
0100
0010
0100
,
1000
0001
1000
0010
0100
0010
1000
0001
0100
0001
1000
0010
1000
0001
0100
0001
,
1000
0001
0100
0010
1000
0010
0100
0001
1000
0001
0100
0001
1000
0010
1000
0001
,
1000
0100
0010
0001
1000
0001
0010
0100
1000
0001
1000
0100
0010
0100
1000
0001
,
1000
0010
0100
0001
1000
0001
0100
0010
1000
0001
0100
0001
1000
0100
0010
0100
,
1000
0001
1000
0010
0100
0010
1000
0001
0100
0001
1000
0010
0100
0010
1000
0001
,
1000
0001
0400
0301
1000
0100
0040
0130
1000
0001
0400
0310
1000
0001
0040
0031
,
1000
0001
0100
0001
1000
0001
0010
0100
1000
0100
0010
0001
1000
0001
0100
0001
,
1000
0100
0010
0001
1000
0001
0100
0010
1000
0010
0100
0001
0010
0100
1000
0001
,
0100
0001
1000
0010
0100
0010
1000
0001
0100
0010
0100
0001
1000
0001
1000
0010
,
1000
0001
0100
0001
1000
0010
1000
0001
0100
0010
0100
0001
1000
0001
0010
0001
,
1000
0010
0100
0001
1000
0001
0100
0010
1000
0010
1000
0001
1000
0010
0100
0001
,
1000
0100
0010
0001
1000
0001
0010
0100
1000
0001
0010
0001
1000
0010
0100
0001
,
0010
0100
1000
0001
0010
0001
1000
0100
0010
0001
0100
0001
1000
0010
0100
0001
,
1000
0000
0000
0000
0000
0000
0000
0000
0000
0000
0001
0000
0000
0000
0000
0000
0000
0000
0000
1000
0000
0000
0000
0000
0000
0000
0000
0000
0000
0100
0000
0000
0000
0000
0000
0000
0000
0000
0000
0010
0000
0000
0000
0000
0000
0000
0000
0000
0001
0000
0000
0000
0000
0000
0000
0000
0000
0000
1000
0000
0000
0000
0000
0000
0000
0000
0000
0100
0000
0000
0000
0000
0000
0000
0000
0000
0000
1000
0000
0000
0000
0000
0000
0000
0000
0000
0000
0001
0000
0000
0000
0000
0000
0000
0000
0000
0100
0000
0000
0000
0000
0000
0000
0000
0000
0000
0010
0000
0000
0000
0000
0000
0000
0000
0000
1000
0000
0000
0000
0000
0000
0000
0000
0000
0000
0001
0000
0000
0000
0000
0000
0000
0000
0000
0000
0100
0000
0000
0000
0000
0000
0000
0000
0000
0001
0000
0000
0000
0000
0000
0000
0000
0000
0000
1000
0000
0000
0000
0000
0000
0000
0000
0000
0100
0000
0000
0000
0000
0000
0000
0000
0000
0000
0010
0000
0000
0000
0000
0000
0000
0000
0000
0000
0001
0000
0000
0000
0000
0000
0000
0000
0000
,
1000
0001
0100
0010
1000
0001
1000
0001
0010
0100
1000
0001
0010
0100
1000
0001
,
0100
0001
1000
0010
0100
0001
0100
0001
0010
0100
1000
0001
0100
0001
1000
0001
,
0010
0100
1000
0001
0100
0001
0100
0001
1000
0100
0010
0001
1000
0100
0010
0001
,
1000
0010
0100
0001
1000
0100
1000
0100
0010
0001
1000
0001
0010
0100
1000
0001
,
1000
0001
0100
0010
1000
0001
1000
0001
0010
0100
1000
0001
0010
0100
1000
0001
,
0100
0001
1000
0010
0100
0001
0100
0001
0010
0100
1000
0001
0100
0001
1000
0001
,
0010
0100
1000
0001
0100
0001
0100
0001
1000
0100
0010
0001
1000
0100
0010
0001
,
1000
0010
0100
0001
1000
0100
1000
0100
0010
0001
1000
0001
0010
0100
1000
0001
,
1000
0001
0010
0100
1000
0001
1000
0001
0100
0010
1000
0001
0100
0010
1000
0001
,
0010
0001
1000
0100
0010
0001
0010
0001
0100
0010
1000
0001
0010
0001
1000
0001
,
0100
0010
1000
0001
0010
0001
0010
0001
1000
0010
0100
0001
1000
0010
0100
0001
,
1000
0100
0010
0001
1000
0010
1000
0010
0100
0001
1000
0001
0100
0010
1000
0001
,
1000
0001
0010
0100
1000
0001
1000
0001
0100
0010
1000
0001
0100
0010
1000
0001
,
0010
0001
1000
0100
0010
0001
0010
0001
0100
0010
1000
0001
0010
0001
1000
0001
,
0100
0010
1000
0001
0010
0001
0010
0001
1000
0010
0100
0001
1000
0010
0100
0001
,
1000
0000
0000
0000
0000
0000
0000
0000
0000
0000
0100
0000
0000
0000
0000
0000
0000
0000
0000
1000
0000
0000
0000
0000
0000
0000
0000
0000
0000
0001
0000
0000
0000
0000
0000
0000
0000
0000
0000
0010
0000
0000
0000
0000
0000
0000
0000
0000
0001
0000
0000
0000
0000
0000
0000
0000
0000
0000
1000
0000
0000
0000
0000
0000
0000
0000
0000
0001
0000
0000
0000
0000
0000
0000
0000
0000
0000
0100
0000
0000
0000
0000
0000
0000
0000
0000
0000
0010
0000
0000
0000
0000
0000
0000
0000
0000
1000
0000
0000
0000
0000
0000
0000
0000
0000
0000
0000
0000
0000
0000
0000
0000
0000
0000
0000
0000
0000
0000
0000
0000
0001
0000
0000
0000
0000
0000
0000
0000
0000
0000
0000
0000
0100
0000
0000
0000
0000
0000
0000
0000
0000
0000
0000
0000
0010
0000
0000
0000
0000
0000
0000
0000
0000
0000
0000
0000
1000
0000
0000
0000
0000
0000
0000
0000
0000
0000
0000
0000
0002
0000
0000
0000
0000
0000
0000
0000
0000
0000
0000
0000
0000
0000
0000
0000
0000
0000
0000
0000
0000
0000
0000
0000
,
1003
0010
0100
0001
0010
0100
0010
0100
1000
0001
0100
0001
1000
0001
0100
0001
,
1000
0100
0010
0100
1000
0001
1000
0001
0100
0010
1000
0001
0010
0001
1000
0010
,
0100
0001
1000
0001
0100
0010
0100
0010
1000
0001
0010
0001
1000
0001
0010
0001
,
1000
0010
0100
0010
1000
0001
1000
0001
0010
0100
1000
0001
0100
0001
1000
0100
,
0010
0001
1000
0001
0010
0100
0010
0100
1000
0001
0100
0001
1000
0001
0100
0001
,
1000
0100
0010
0100
1000
0001
1000
0001
0100
0010
1000
0001
0010
0001
1000
0010
,
0100
0001
1000
0001
0100
0010
0100
0010
1000
0001
0010
0001
1000
0001
0010
0001
,
1000
0010
0400
0310
1000
0001
1000
0001
0010
0100
1000
0001
0100
0001
1000
0100
,
1000
0001
0100
0010
1000
0001
1000
0001
0010
0100
1000
0001
0010
0100
1000
0001
,
0100
0001
1000
0001
0010
0100
0010
0001
0100
0001
1000
0100
1000
0001
0100
0010
,
1000
0001
0010
0100
1000
0001
1000
0001
0100
0010
1000
0001
0100
0010
1000
0001
,
0010
0001
1000
0001
0100
0010
0100
0001
0010
0001
1000
0010
1000
0001
0010
0100
,
1000
0001
0100
0010
1000
0001
1000
0001
0010
0100
1000
0001
0010
0100
1000
0001
,
0100
0001
1000
0001
0010
0100
0010
0001
0100
0001
1000
0100
1000
0001
0100
0010
,
1000
0100
0010
0001
1000
0001
0010
0100
1000
0010
0100
0010
1000
0001
0100
0001
,
0010
0100
1000
0010
0100
0001
0040
0000
0031
0000
1000
0100
0020
0000
0034
0000
,
1003
0100
1000
0100
0010
0001
1000
0010
1000
0010
0100
0001
1000
0100
1000
0100
,
0010
0001
1000
0010
1000
0010
0100
0001
1000
0100
1000
0100
0010
0001
0010
0100
,
1000
0001
1000
0001
0100
0010
1000
0001
1000
0001
0010
0100
1000
0001
1000
0001
,
0100
0010
1000
0001
1000
0001
0010
0100
1000
0001
1000
0001
0100
0010
0100
0001
,
1000
0010
1000
0010
0100
0001
1000
0100
1000
0100
0010
0001
1000
0010
1000
0010
,
0100
0001
1000
0100
1000
0100
0010
0001
1000
0010
1000
0010
0100
0001
0100
0010
,
1000
0001
1000
0001
0010
0100
1000
0001
1000
0001
0100
0010
1000
0001
1000
0001
,
0010
0100
1000
0001
1000
0001
0100
0010
0100
0001
1000
0100
0010
0001
1000
0010
,
0100
0001
0100
0001
1000
0100
0010
0001
0010
0001
1000
0010
0100
0001
0100
0001
,
1000
0100
0010
0001
0010
0001
1000
0010
0100
0001
0100
0001
1000
0010
1000
0001
,
0010
0100
0010
0100
1000
0001
0100
0010
0100
0010
1000
0001
0010
0100
0010
0100
,
1000
0001
0100
0010
0100
0010
1000
0100
0010
0001
0010
0100
1000
0001
1000
0010
,
0100
0001
0100
0001
1000
0100
0010
0001
0010
0001
1000
0010
0100
0001
0100
0001
,
1000
0100
0010
0001
0010
0001
1000
0010
0100
0001
0100
0001
1000
0010
1000
0001
,
1000
0100
0010
0001
1000
0001
0010
0100
1000
0001
0100
0010
1000
0010
0100
0001
,
1000
0000
0000
0000
0000
0000
0000
0000
0000
0000
0100
0000
0000
0000
0000
0000
0000
0000
0000
1000
0000
0000
0000
0000
0000
0000
0000
0000
0000
0001
0000
0000
0000
0000
0000
0000
0000
0000
0000
0010
0000
0000
0000
0000
0000
0000
0000
0000
0100
0000
0000
0000
0000
0000
0000
0000
0000
0000
1000
0000
0000
0000
0000
0000
0000
0000
0000
0001
0000
0000
0000
0000
0000
0000
0000
0000
0000
1000
0000
0000
0000
0000
0000
0000
0000
0000
0000
0001
0000
0000
0000
0000
0000
0000
0000
0000
0100
0000
0000
0000
0000
0000
0000
0000
0000
0000
0010
0000
0000
0000
0000
0000
0000
0000
0000
1000
0000
0000
0000
0000
0000
0000
0000
0000
0000
0001
0000
0000
0000
0000
0000
0000
0000
0000
0000
0100
0000
0000
0000
0000
0000
0000
0000
0000
0001
0000
0000
0000
0000
0000
0000
0000
0000
0000
1000
0000
0000
0000
0000
0000
0000
0000
0000
0100
0000
0000
0000
0000
0000
0000
0000
0000
0000
0010
0000
0000
0000
0000
0000
0000
0000
0000
0000
0001
0000
0000
0000
0000
0000
0000
0000
0000
,
1000
0100
1000
0001
1000
0100
1000
0001
1000
0100
1000
0001
1000
0100
1000
0001
,
0100
0010
0100
0001
0100
0010
0100
0001
0100
0010
0100
0001
0100
0010
0100
0001
,
1000
0100
1000
0001
1000
0100
1000
0001
1000
0100
1000
0001
1000
0100
1000
0001
,
1000
0100
1000
0001
1000
0100
1000
0001
1000
0100
1000
0001
1000
0100
0010
0001
,
1000
0001
1000
0010
1000
0001
1000
0010
1000
0001
1000
0010
1000
0001
1000
0010
,
0100
0001
0100
0010
0100
0001
0100
0010
0100
0001
0100
0010
0100
0001
0100
0010
,
1000
0001
0010
0001
1000
0001
0010
0001
1000
0001
0010
0001
1000
0001
0010
0001
,
1000
0001
0010
0001
1000
0001
0400
0301
1000
0001
0400
0301
1000
0010
0100
0001
,
1000
0100
1000
0100
1000
0001
0100
0010
0100
0001
0100
0010
1000
0001
1000
0010
,
0100
0001
0100
0010
0100
0001
1000
0100
1000
0001
1000
0100
0010
0001
0010
0100
,
1000
0001
1000
0100
1000
0001
1000
0100
1000
0001
1000
0100
1000
0001
1000
0100
,
1000
0001
1000
0100
1000
0001
1000
0100
1000
0001
1000
0100
0010
0001
1000
0001
,
0100
0001
0100
0010
0100
0001
0100
0010
0100
0001
0100
0010
0100
0001
0100
0010
,
1000
0001
1000
0100
1000
0001
1000
0100
1000
0001
1000
0100
0010
0001
0100
0001
,
1000
0010
0100
0001
1000
0001
0100
0010
1000
0100
0010
0001
0100
0001
0010
0100
,
1000
0000
0000
0000
0000
0000
0000
0000
0000
0000
0001
0000
0000
0000
0000
0000
0000
0000
0000
1000
0000
0000
0000
0000
0000
0000
0000
0000
0000
0100
0000
0000
0000
0000
0000
0000
0000
0000
0000
0010
0000
0000
0000
0000
0000
0000
0000
0000
0001
0000
0000
0000
0000
0000
0000
0000
0000
0000
1000
0000
0000
0000
0000
0000
0000
0000
0000
0100
0000
0000
0000
0000
0000
0000
0000
0000
0000
1000
0000
0000
0000
0000
0000
0000
0000
0000
0000
0001
0000
0000
0000
0000
0000
0000
0000
0000
0100
0000
0000
0000
0000
0000
0000
0000
0000
0000
0001
0000
0000
0000
0000
0000
0000
0000
0000
1000
0000
0000
0000
0000
0000
0000
0000
0000
0000
0010
0000
0000
0000
0000
0000
0000
0000
0000
0000
0100
0000
0000
0000
0000
0000
0000
0000
0000
0001
0000
0000
0000
0000
0000
0000
0000
0000
0000
1000
0000
0000
0000
0000
0000
0000
0000
0000
0100
0000
0000
0000
0000
0000
0000
0000
0000
0000
0010
0000
0000
0000
0000
0000
0000
0000
0000
0000
0001
0000
0000
0000
0000
0000
0000
0000
0000
,
0100
0001
0010
0100
1000
0001
0100
0001
0010
0100
1000
0100
0010
0100
1000
0001
,
0100
0001
1000
0010
0100
0001
0100
0001
0010
0100
1000
0001
1000
0100
0010
0001
,
0100
0001
0010
0100
1000
0001
0100
0001
1000
0010
0100
0010
1000
0010
0100
0001
,
1000
0100
1000
0001
0010
0001
0010
0001
0100
0010
1000
0001
0010
0100
1000
0010
,
0100
0001
0010
0100
1000
0001
0100
0001
0010
0100
1000
0100
0010
0100
1000
0001
,
0100
0001
1000
0010
0100
0001
0100
0001
0010
0100
1000
0001
1000
0100
0010
0001
,
0100
0001
0010
0100
1000
0001
0100
0001
1000
0010
0100
0010
1000
0010
0100
0001
,
1000
0100
1000
0001
0010
0001
0010
0001
0100
0010
1000
0001
0010
0100
1000
0010
,
0100
0001
0010
0100
1000
0001
0100
0001
0010
0100
1000
0100
0010
0100
1000
0001
,
0100
0001
1000
0010
0100
0001
0100
0001
0010
0100
1000
0001
1000
0100
0010
0001
,
0100
0001
0010
0100
1000
0001
0100
0001
1000
0010
0100
0010
1000
0010
0100
0001
,
1000
0100
1000
0001
0010
0001
0010
0001
0100
0010
1000
0001
0010
0100
1000
0010
,
0100
0001
0010
0100
1000
0001
0100
0001
0010
0100
1000
0100
0010
0100
1000
0001
,
0100
0001
1000
0010
0100
0001
0100
0001
0010
0100
1000
0001
1000
0100
0010
0001
,
0100
0001
0010
0100
1000
0001
0100
0001
1000
0010
0100
0010
1000
0010
0100
0001
,
1000
0000
0000
0000
0000
0000
0000
0000
0000
0000
0001
0000
0000
0000
0000
0000
0000
0000
0000
1000
0000
0000
0000
0000
0000
0000
0000
0000
0000
0100
0000
0000
0000
0000
0000
0000
0000
0000
0000
0010
0000
0000
0000
0000
0000
0000
0000
0000
0001
0000
0000
0000
0000
0000
0000
0000
0000
0000
1000
0000
0000
0000
0000
0000
0000
0000
0000
0100
0000
0000
0000
0000
0000
0000
0000
0000
0000
1000
0000
0000
0000
0000
0000
0000
0000
0000
0000
0001
0000
0000
0000
0000
0000
0000
0000
0000
0100
0000
0000
0000
0000
0000
0000
0000
0000
0000
0001
0000
0000
0000
0000
0000
0000
0000
0000
1000
0000
0000
0000
0000
0000
0000
0000
0000
0000
0010
0000
0000
0000
0000
0000
0000
0000
0000
0000
0100
0000
0000
0000
0000
0000
0000
0000
0000
0001
0000
0000
0000
0000
0000
0000
0000
0000
0000
1000
0000
0000
0000
0000
0000
0000
0000
0000
0100
0000
0000
0000
0000
0000
0000
0000
0000
0000
0010
0000
0000
0000
0000
0000
0000
0000
0000
0000
0001
0000
0000
0000
0000
0000
0000
0000
0000
,
0100
0010
1000
0010
0100
0001
0100
0001
0010
0100
1000
0001
0010
0100
1000
0010
,
0100
0001
1000
0001
0100
0010
0100
0001
0010
0100
1000
0001
0100
0001
1000
0100
,
0010
0100
1000
0100
0010
0001
0010
0001
0100
0010
1000
0001
0100
0010
1000
0100
,
0010
0001
1000
0001
0010
0100
0010
0001
0100
0010
1000
0001
0010
0001
1000
0010
,
0100
0001
1000
0001
0100
0010
0100
0010
1000
0001
0010
0100
1000
0001
0010
0100
,
1000
0001
0100
0001
1000
0100
1000
0010
0100
0001
1000
0100
0010
0001
1000
0010
,
0100
0010
1000
0001
0010
0100
0010
0100
1000
0010
0100
0001
1000
0010
0100
0001
,
1000
0100
1000
0001
0100
0010
0100
0001
0010
0100
1000
0001
0100
0010
1000
0100
,
0010
0001
0010
0100
1000
0001
1000
0001
0100
0010
1000
0001
0100
0010
1000
0001
,
0010
0001
1000
0010
0100
0010
1000
0100
0010
0001
0100
0010
1000
0010
0100
0001
,
0010
0100
1000
0001
0100
0010
0100
0001
0010
0100
1000
0001
0010
0100
1000
0001
,
0100
0001
1000
0100
0010
0001
0010
0001
0100
0010
1000
0001
1000
0010
0100
0001
,
0010
0100
0010
0001
1000
0010
1000
0001
0010
0100
1000
0001
0010
0100
1000
0001
,
0100
0010
1000
0010
0100
0001
0010
0100
1000
0100
0010
0001
0100
0010
1000
0100
,
0010
0100
1000
0001
0100
0001
0100
0010
1000
0100
0010
0100
1000
0010
0100
0001
,
0010
0100
0020
0000
0031
1000
0010
0100
0001
0000
1000
0001
0100
0010
1000
0000
,
2MM2
0000
0000
0000
,
0000
0000
0000
0000
,
3003
0000
0000
0000
;

//---------------dance-single - 16 (TYLR)----------------
#NOTES:
     dance-single:
     16 (TYLR):
     Hard:
     16:
     1.000,1.000,0.118,0.389,1.000,2377.000,30.000,99.000,10.000,0.000:
0000
0000
0000
0000
,
0000
0000
0000
0000
,
0000
0000
0000
0000
,
0000
0000
0000
0000
,
00M0
0000
0000
0000
,
0000
0000
0000
0000
,
0000
0000
0000
0000
,
1000
0000
0040
0000
1030
0000
0001
0000
0010
0100
4000
0000
3001
0000
4000
3000
,
1100
0100
0010
0001
1000
0001
0100
0010
,
1000
0010
0100
0001
1000
0100
0010
0001
,
0100
0001
1000
0010
0100
0001
1000
0100
,
0010
0000
0001
0000
0100
0000
0001
0000
1000
0010
0000
0100
0001
0000
1000
0000
,
1100
0100
0010
0001
1000
0001
0100
0010
,
1000
0010
0100
0001
0010
0100
1000
0001
,
1000
0100
1000
0100
0010
0001
0010
0001
1000
0001
0100
0010
1000
0001
1000
0100
,
0010
0001
0400
0000
0310
1000
0400
0000
0310
0001
0010
0001
4000
0000
0000
0000
,
3001
0100
0010
1000
0000
0001
1000
0000
0100
1000
0000
0010
0100
0001
1000
0000
,
0100
0010
0001
1000
0000
0001
0100
0000
0010
1000
0000
0100
0010
0001
1000
0000
,
0001
0010
0100
1000
0000
0001
1000
0000
0010
1000
0000
0100
0010
0001
1000
0000
,
0010
0100
0001
1000
0000
0001
0010
0000
0100
1000
0000
1000
0001
0000
0100
0000
,
00M1
1000
0100
0010
0000
0001
1000
0000
0100
1000
0000
0010
0100
0001
1000
0000
,
0100
0010
0001
1000
0000
0001
0100
0000
0010
1000
0000
0100
0010
0001
1000
0000
,
0001
0010
0100
1000
0000
0001
1000
0000
0010
1000
0000
0100
0010
0001
1000
0000
,
0010
1000
0400
0000
0310
0001
0400
0000
0310
1000
0400
0000
0310
0001
0400
0000
,
M301
0010
0100
1000
0000
0001
1000
0000
0010
1000
0000
0100
0010
0001
1000
0000
,
0010
0100
0001
1000
0000
0001
0010
0000
0100
1000
0000
0010
0100
0001
1000
0000
,
0001
0100
0010
1000
0000
0001
1000
0000
0100
1000
0000
0010
0100
0001
1000
0000
,
0100
0010
0001
1000
0000
0001
0100
0000
0010
1000
0000
1000
0001
0000
0010
0000
,
0M01
1000
0010
0100
0000
0001
1000
0000
0010
1000
0000
0100
0010
0001
1000
0000
,
0010
0100
0001
1000
0000
0001
0010
0000
0100
1000
0000
0010
0100
0001
1000
0000
,
0001
0100
0010
1000
0001
1000
0010
0100
0001
0010
0100
0010
0001
1000
0100
1000
,
0004
0000
0000
0000
0000
0000
0000
0000
4000
0000
0000
0000
0000
0000
0000
0000
0000
0000
0000
0000
0000
0000
0000
0000
0000
0000
0000
0000
0000
0000
0000
0000
0000
0000
0000
0000
0000
0000
0000
0000
0000
0000
0000
0000
0000
0000
0000
0000
0000
0000
0000
0000
0000
0000
0000
0000
0000
0000
0000
0000
0000
0000
0000
0000
0003
0000
0000
0000
0000
0000
0000
0000
3040
0000
0000
0000
0000
0000
0000
0000
0000
0000
0000
0000
0000
0000
0000
0000
0000
0000
0000
0000
0000
0000
0000
0000
1030
0000
0000
0000
0000
0000
0000
0000
0000
0000
0000
0000
0001
0000
0000
0000
0000
0000
0000
0000
0000
0000
0000
0000
0010
0000
0000
0000
0000
0000
0000
0000
0000
0000
0000
0000
0100
0000
0000
0000
0000
0000
0000
0000
0000
0000
0000
0000
4000
0000
0000
0000
0000
0000
0000
0000
0000
0000
0000
0000
0000
0000
0000
0000
0000
0000
0000
0000
0000
0000
0000
0000
0000
0000
0000
0000
0000
0000
0000
0000
0000
0000
0000
0000
0000
0000
0000
0000
0000
0000
0000
0000
0000
3000
0000
0000
,
0021
0030
0001
0000
2000
3000
0100
0000
2000
3000
0001
0020
0130
0000
2000
3000
,
0002
0003
0100
0000
0020
0030
1000
0000
0020
0030
0100
0002
1003
0000
0020
0030
,
2000
3000
0001
0000
0020
0030
0100
0000
0020
0030
0001
2000
3100
0000
0020
0030
,
0002
0003
0100
0000
0002
0003
1000
0000
0002
0103
0000
0020
1030
0000
0002
0003
,
M020
0030
0001
0000
2000
3000
0100
0000
2000
3000
0001
0020
0130
0000
2000
3000
,
0002
0003
0100
0000
0020
0030
1000
0000
0020
0030
0100
0002
1003
0000
0020
0030
,
2000
3000
0001
0000
0020
0030
0100
0000
0020
0030
0001
2000
3100
0000
0020
0030
,
0002
0003
0400
0000
0302
0003
0040
0000
0032
0103
0040
0000
1030
0000
0040
0000
,
2030
3000
0001
0000
0200
0300
0010
0000
0200
0300
0010
1000
0001
0000
0200
0300
,
0002
0003
1000
0000
0200
0300
0010
0000
0200
0300
1000
0002
0003
0010
0200
0300
,
2000
3000
0001
0000
0200
0300
0010
0000
0200
0300
0001
2000
3010
0000
0200
0300
,
0002
0003
0010
0000
0002
0003
1000
0000
0002
0013
0000
0200
1300
0000
0002
0003
,
M200
0300
0001
0000
2000
3000
0010
0000
2000
3000
0001
0200
0310
0000
2000
3000
,
0002
0003
0010
0000
0200
0300
1000
0000
0200
0300
0010
0002
1003
0000
0200
0300
,
0010
0100
1000
0100
0010
0001
0010
0001
1000
0010
0100
0001
1000
0001
0100
0010
,
1000
0000
0400
0000
0310
0000
0400
0000
1300
0001
0100
0010
4000
0000
0000
0000
,
3001
0010
0001
0010
0100
1000
0001
0100
0001
0100
0010
1000
0001
0010
0001
0010
,
0100
1000
0001
0100
0001
0100
0010
1000
0001
0010
0001
0010
0100
1000
0100
0010
,
0001
1000
0001
1000
0010
0100
0001
1000
0001
1000
0100
0010
0001
1000
0001
1000
,
0010
0100
0001
1000
0001
1000
0100
0010
0001
1000
0001
1000
0010
0100
0010
1000
,
0001
0100
0001
0100
0010
1000
0001
0010
0001
0010
0100
1000
0001
0100
0001
0100
,
0010
1000
0001
0010
0001
0010
0100
1000
0001
0100
0001
0100
0010
1000
0010
0100
,
0001
1000
0001
1000
0100
0010
0001
1000
0001
1000
0010
0100
0001
1000
0001
1000
,
0100
0010
0001
1000
0001
1000
0010
0100
0010
1000
0001
0010
0100
1000
0001
0100
,
0010
1000
0010
1000
0001
0010
0100
1000
0100
1000
0001
0100
0010
1000
0010
1000
,
0001
0010
0100
1000
0100
1000
0001
0100
0010
1000
0010
1000
0001
0100
0001
1000
,
0100
0010
0100
0010
0001
1000
0010
0100
0010
0100
0001
1000
0100
0010
0100
0010
,
0001
1000
0010
0100
0010
0100
0001
0010
0100
1000
0100
0010
0001
1000
0001
0100
,
0010
1000
0010
1000
0001
0010
0100
1000
0100
1000
0001
0100
0010
1000
0010
1000
,
0001
0010
0100
1000
0100
1000
0001
0100
0010
1000
0010
1000
0001
0100
0001
1000
,
0001
0010
0100
1000
0001
1000
0100
0010
0001
1000
0010
0100
0001
0100
0010
1000
,
0001
1000
0100
0010
0001
0100
0010
0100
0001
0010
0100
1000
0010
0100
0001
1000
,
0001
0000
0000
0000
,
0000
0000
0000
0000
,
0000
0000
0000
0000
,
2000
0000
0000
0000
0000
0000
0000
0000
0000
0000
0000
0000
0000
0000
0000
0000
0000
0000
0000
0000
0000
0000
0000
0000
3020
0000
0000
0000
0000
0000
0000
0000
0000
0000
0000
0000
0000
0000
0000
0000
0000
0000
0000
0000
0000
0000
0000
0000
2030
0000
0000
0000
0000
0000
0000
0000
0000
0000
0000
0000
0000
0000
0000
3000
,
102M
0000
0000
0000
,
0230
0000
0000
0000
0000
0000
0310
0100
,
0002
0000
0000
0000
,
0000
0000
0000
0000
0000
0000
0000
0000
0000
0000
0000
0000
0000
0000
0000
0000
0000
0000
0000
0000
0000
0000
0000
0000
0000
0000
0000
0000
0000
0000
0000
0000
0000
0000
0000
0000
0000
0000
0000
0000
0000
0000
0000
0000
0000
0000
0000
0003
0001
0000
0000
0000
0000
0000
0000
0000
1000
0000
0000
0000
0000
0000
0000
0000
,
0200
0000
0000
0000
,
0320
0000
0000
0000
0000
0000
0130
0010
,
2000
0000
0000
0000
,
0000
0000
0000
0000
0000
0000
0000
0000
0000
0000
0000
0000
0000
0000
0000
0000
0000
0000
0000
0000
0000
0000
0000
0000
0000
0000
0000
0000
0000
0000
0000
0000
0000
0000
0000
0000
0000
0000
0000
0000
0000
0000
0000
0000
0000
0000
0000
3000
1000
0000
0000
0000
0000
0000
0000
0000
0010
0000
0000
0000
0000
0000
0000
0000
,
0200
0000
0000
2300
0000
0000
3200
0000
,
2300
0000
0000
3002
0000
0000
0203
0000
,
0320
0000
0000
0000
,
0000
0000
0000
0000
0000
0000
0000
0000
0000
0000
0000
0000
0000
0000
0000
0000
0000
0000
0000
0000
0000
0000
0000
0000
0000
0000
0000
0000
0000
0000
0000
0000
0000
0000
0000
0000
0000
0000
0000
0000
0000
0000
0000
0000
0000
0000
0000
0030
0010
0000
0000
0000
0000
0000
0000
0000
1000
0000
0000
0000
0000
0000
0000
0000
,
0002
0000
0000
0000
,
0023
0000
0000
0000
0000
0000
0000
0000
0000
0000
0000
0000
0000
0000
0000
0000
0000
0000
0000
0000
0000
0000
0000
0000
0000
0000
0000
0000
0000
0000
0000
0000
0000
0000
0000
0000
0000
0000
0000
0000
0000
0000
0000
0000
0000
0000
0000
0030
0010
0000
0000
0000
0000
0000
0000
0000
0100
0000
0000
0000
0000
0000
0000
0000
,
2000
0004
0000
0000
0000
0000
0000
0000
0000
0000
0000
0000
0000
0000
0000
0000
0000
0000
0000
0000
0000
0000
0000
0000
,
0000
0000
0000
0000
,
3MM3
0000
0000
0000
,
000M
0000
0000
0000
,
2000
0000
0000
3020
0000
0000
2030
0000
,
3001
0010
0100
1000
0001
1000
0100
0010
0001
1000
0001
0010
0100
0010
0001
1000
,
0001
0100
0010
1000
0001
1000
0010
0100
0001
1000
0010
1000
0001
0010
0100
0010
,
0001
1000
0001
0100
0010
0100
0001
1000
0010
1000
0001
0100
0001
1000
0010
1000
,
0001
1000
0010
0100
0001
0100
0010
1000
0001
1000
0010
1000
0001
0100
0001
1000
,
0001
0010
0100
1000
0001
1000
0100
0010
0001
1000
0001
0010
0100
0010
0001
1000
,
0001
0100
0010
1000
0001
1000
0010
0100
0001
1000
0010
1000
0001
0010
0100
0010
,
0001
1000
0001
0100
0010
0100
0001
1000
0010
1000
0001
0100
0010
0100
0001
1000
,
0001
0000
0040
0000
0130
0000
0040
0000
0031
1000
0040
0000
0130
0000
0040
0000
,
1030
0001
0100
0001
1000
0001
0010
0100
1000
0100
0010
0001
1000
0001
0100
0001
,
1000
0100
0010
0001
1000
0001
0100
0010
1000
0010
0100
0001
0010
0100
1000
0001
,
0100
0001
1000
0010
0100
0010
1000
0001
0100
0010
0100
0001
1000
0001
1000
0010
,
1000
0001
0100
0001
1000
0010
1000
0001
0100
0010
0100
0001
1000
0001
0010
0001
,
1000
0010
0100
0001
1000
0001
0100
0010
1000
0010
1000
0001
1000
0010
0100
0001
,
1000
0100
0010
0001
1000
0001
0010
0100
1000
0001
0010
0001
1000
0010
0100
0001
,
0010
0100
1000
0001
0010
0001
1000
0100
0010
0001
0100
0001
1000
0010
0100
0001
,
0020
0000
0000
0230
0000
0000
0320
0000
,
0031
1000
0100
0010
0001
1000
0001
1000
0010
0100
0001
1000
0010
0100
0001
1000
,
0100
1000
0001
0010
0100
1000
0100
1000
0010
0100
0001
1000
0100
1000
0001
1000
,
0010
0100
0001
1000
0100
1000
0100
1000
0001
0100
0010
1000
0001
0100
0010
1000
,
0001
0010
0100
1000
0001
0100
0001
0100
0010
1000
0001
1000
0010
0100
0001
1000
,
0001
1000
0100
0010
0001
1000
0001
1000
0010
0100
0001
1000
0010
0100
0001
1000
,
0100
1000
0001
0010
0100
1000
0100
1000
0010
0100
0001
1000
0100
1000
0001
1000
,
0010
0100
0001
1000
0100
1000
0100
1000
0001
0100
0010
1000
0001
0100
0010
1000
,
0001
0010
0100
1000
0001
0100
0001
0100
0010
1000
0001
1000
0010
0100
0001
1000
,
0001
1000
0010
0100
0001
1000
0001
1000
0100
0010
0001
1000
0100
0010
0001
1000
,
0010
1000
0001
0100
0010
1000
0010
1000
0100
0010
0001
1000
0010
1000
0001
1000
,
0100
0010
0001
1000
0010
1000
0010
1000
0001
0010
0100
1000
0001
0010
0100
1000
,
0001
0100
0010
1000
0001
0010
0001
0010
0100
1000
0001
1000
0100
0010
0001
1000
,
0001
1000
0010
0100
0001
1000
0001
1000
0100
0010
0001
1000
0100
0010
0001
1000
,
0010
1000
0001
0100
0010
1000
0010
1000
0100
0010
0001
1000
0010
1000
0001
1000
,
0100
0010
0001
1000
0010
1000
0010
1000
0001
0010
0100
1000
0001
0010
0100
1000
,
0001
0100
0010
1000
0100
1000
0010
0100
0001
0010
0100
1000
0010
1000
0100
0010
,
0001
1000
0001
1000
0010
0100
0010
0100
0001
1000
0100
1000
0001
1000
0100
1000
,
0001
0100
0010
0100
0001
1000
0001
1000
0100
0010
0001
1000
0010
1000
0001
0010
,
0100
1000
0001
1000
0100
0010
0100
0010
0001
1000
0010
1000
0001
1000
0010
1000
,
0001
0010
0100
0010
0001
1000
0001
1000
0010
0100
0001
1000
0100
1000
0001
0100
,
0010
1000
0001
1000
0010
0100
0010
0100
0001
1000
0100
1000
0001
1000
0100
1000
,
0001
0100
0010
0100
0001
1000
0001
1000
0100
0010
0001
1000
0010
1000
0001
0010
,
0100
1000
0001
1000
0100
0010
0100
0010
0001
1000
0010
1000
0001
1000
0010
1000
,
0001
0000
0040
0000
0031
1000
0001
1000
0010
0100
0001
1000
0100
1000
0001
0100
,
0001
1000
0100
0010
0001
1000
0001
1000
0010
0100
0001
1000
0010
0100
0001
1000
,
0100
1000
0001
1000
0010
0100
0010
1000
0100
1000
0001
0100
0001
1000
0100
0010
,
0001
1000
0010
0100
0001
1000
0001
1000
0100
0010
0001
1000
0100
0010
0001
1000
,
0010
1000
0001
1000
0100
0010
0100
1000
0010
1000
0001
0010
0001
1000
0010
0100
,
0001
1000
0100
0010
0001
1000
0001
1000
0010
0100
0001
1000
0010
0100
0001
1000
,
0100
1000
0001
1000
0010
0100
0010
1000
0100
1000
0001
0100
0001
1000
0100
0010
,
0001
0100
0010
1000
0001
1000
0010
0100
0001
0010
0100
0010
0001
1000
0100
1000
,
0004
0000
4000
0000
0000
0000
0000
0000
0000
0000
0000
0000
0000
0000
0000
0000
0003
0000
3040
0000
0000
0030
0000
0000
1000
0000
0000
0000
0000
0000
0001
0000
0000
0010
0000
0000
0200
0000
0000
0000
0000
0000
4300
0000
0000
0000
0000
0000
,
3001
0010
0001
0010
0100
1000
0001
0100
0001
0100
0010
1000
0001
0010
0001
0010
,
0100
1000
0001
0100
0001
0100
0010
1000
0001
0010
0001
0010
0100
1000
0100
0010
,
0001
1000
0001
1000
0010
0100
0001
1000
0001
1000
0100
0010
0001
1000
0001
1000
,
0010
0100
0001
1000
0001
1000
0100
0010
0001
1000
0001
1000
0010
0100
0010
1000
,
0001
0100
0001
0100
0010
1000
0001
0010
0001
0010
0100
1000
0001
0100
0001
0100
,
0010
1000
0001
0010
0001
0010
0100
1000
0001
0100
0001
0100
0010
1000
0010
0100
,
0001
1000
0001
1000
0100
0010
0001
1000
0001
1000
0010
0100
0001
1000
0001
1000
,
0100
0010
0001
1000
0001
1000
0010
0100
0010
1000
0001
0010
0100
1000
0001
0100
,
0010
1000
0010
1000
0001
0010
0100
1000
0100
1000
0001
0100
0010
1000
0010
1000
,
0001
0010
0100
1000
0100
1000
0001
0100
0010
1000
0010
1000
0001
0100
0001
1000
,
0100
0010
0100
0010
0001
1000
0010
0100
0010
0100
0001
1000
0100
0010
0100
0010
,
0001
1000
0010
0100
0010
0100
0001
0010
0100
1000
0100
0010
0001
1000
0001
0100
,
0010
1000
0010
1000
0001
0010
0100
1000
0100
1000
0001
0100
0010
1000
0010
1000
,
0001
0010
0100
1000
0100
1000
0001
0100
0010
1000
0010
1000
0001
0100
0001
1000
,
0001
0010
0100
1000
0001
1000
0100
0010
0001
1000
0010
0100
0001
0100
0010
1000
,
0001
1000
0100
0010
0001
0100
0010
0100
0001
0010
0100
1000
0010
0100
0001
1000
,
0100
0010
0100
0000
0010
0001
0010
0000
0100
1000
0100
0000
0010
0001
0010
0000
,
0001
1000
0001
0000
0100
0010
0100
0000
0001
0100
0001
0000
1000
0010
0100
0000
,
0001
1000
0001
0000
0010
0001
0010
0000
0001
1000
0001
0000
1000
0100
1000
0000
,
0001
0010
0001
0000
1000
0100
1000
0000
0001
0010
0000
0001
1000
0001
0100
0000
,
0010
1000
0010
0000
0100
0001
0100
0000
0010
1000
0010
0000
1000
0001
1000
0000
,
0100
1000
0100
0000
0010
0001
0010
0000
0001
1000
0001
0000
1000
0010
0100
0000
,
0001
1000
0001
0000
0010
0001
0010
0000
0100
1000
0100
0000
0010
0100
0010
0000
,
0001
0010
0001
0000
1000
0001
0400
0000
0301
1000
0400
0000
0310
0001
1000
0000
,
0010
1000
0010
0000
1000
0010
1000
0000
0001
1000
0100
0000
0010
0001
1000
0000
,
0010
1000
0010
0000
1000
0010
0100
0000
0001
1000
0001
0000
0010
0100
0010
0000
,
0001
0010
0001
0000
1000
0100
1000
0000
0100
0010
0100
0000
1000
0100
1000
0000
,
0001
0010
0001
0000
1000
0100
1000
0000
0001
1000
0001
1000
0010
0100
0001
0000
,
1000
0001
1000
0000
0001
0010
0001
0000
0010
0100
0010
0000
0001
0010
0001
0000
,
0100
0001
0100
0000
0010
1000
0010
0000
0100
0010
0100
0000
0010
1000
0001
0000
,
0010
0001
0010
0100
1000
0100
0010
0001
1000
0001
0100
0010
1000
0010
0100
0001
,
2000
0000
0000
3200
0000
0000
2300
0000
,
3001
1000
0100
0010
0001
1000
0001
1000
0010
0100
0001
1000
0010
0100
0001
1000
,
0100
1000
0001
0010
0100
1000
0100
1000
0010
0100
0001
1000
0100
1000
0001
1000
,
0010
0100
0001
1000
0100
1000
0100
1000
0001
0100
0010
1000
0001
0100
0010
1000
,
0001
0010
0100
1000
0001
0100
0001
0100
0010
1000
0001
1000
0010
0100
0001
1000
,
0001
1000
0100
0010
0001
1000
0001
1000
0010
0100
0001
1000
0010
0100
0001
1000
,
0100
1000
0001
0010
0100
1000
0100
1000
0010
0100
0001
1000
0100
1000
0001
1000
,
0010
0100
0001
1000
0100
1000
0100
1000
0001
0100
0010
1000
0001
0100
0010
1000
,
0001
0010
0100
1000
0001
0100
0001
0100
0010
1000
0001
1000
0010
0100
0001
1000
,
0001
1000
0010
0100
0001
1000
0001
1000
0100
0010
0001
1000
0100
0010
0001
1000
,
0010
1000
0001
0100
0010
1000
0010
1000
0100
0010
0001
1000
0010
1000
0001
1000
,
0100
0010
0001
1000
0010
1000
0010
1000
0001
0010
0100
1000
0001
0010
0100
1000
,
0001
0100
0010
1000
0001
0010
0001
0010
0100
1000
0001
1000
0100
0010
0001
1000
,
0001
1000
0010
0100
0001
1000
0001
1000
0100
0010
0001
1000
0100
0010
0001
1000
,
0010
1000
0001
0100
0010
1000
0010
1000
0100
0010
0001
1000
0010
1000
0001
1000
,
0100
0010
0001
1000
0010
1000
0010
1000
0001
0010
0100
1000
0001
0010
0100
1000
,
0001
0100
0010
1000
0100
1000
0010
0100
0001
0100
0010
1000
0100
0010
0001
0100
,
0010
1000
0001
1000
0010
0100
0010
0100
0001
1000
0100
1000
0001
1000
0100
1000
,
0001
0100
0010
0100
0001
1000
0001
1000
0100
0010
0001
1000
0010
1000
0001
0010
,
0100
1000
0001
1000
0100
0010
0100
0010
0001
1000
0010
1000
0001
1000
0010
1000
,
0001
0010
0100
0010
0001
1000
0001
1000
0010
0100
0001
1000
0100
1000
0001
0100
,
0010
1000
0001
1000
0010
0100
0010
0100
0001
1000
0100
1000
0001
1000
0100
1000
,
0001
0100
0010
0100
0001
1000
0001
1000
0100
0010
0001
1000
0010
1000
0001
0010
,
0100
1000
0001
1000
0100
0010
0100
0010
0001
1000
0010
1000
0001
1000
0010
1000
,
0001
0010
0100
0010
0001
1000
0001
1000
0010
0100
0001
1000
0100
1000
0001
0100
,
0001
1000
0100
0010
0001
1000
0001
1000
0010
0100
0001
1000
0010
0100
0001
1000
,
0100
1000
0001
1000
0010
0100
0010
1000
0100
1000
0001
0100
0001
1000
0100
0010
,
0001
1000
0010
0100
0001
1000
0001
1000
0100
0010
0001
1000
0100
0010
0001
1000
,
0010
1000
0001
1000
0100
0010
0100
1000
0010
1000
0001
0010
0001
1000
0010
0100
,
0001
1000
0100
0010
0001
1000
0001
1000
0010
0100
0001
1000
0010
0100
0001
1000
,
0100
1000
0001
1000
0010
0100
0010
1000
0100
1000
0001
0100
0001
1000
0100
0010
,
0001
0100
0010
1000
0001
1000
0010
0100
0001
0010
0100
0010
0001
0100
0010
1000
,
0100
0010
0200
0000
1300
0001
0100
0010
1000
0000
0001
1000
0010
0100
0001
0000
,
2002
0000
0000
0000
,
0000
0000
0000
0000
,
3003
0000
0000
0000
;
