#TITLE:Smooth;
#SUBTITLE:(Airbase Radio Edit);
#ARTIST:Iio;
#TITLETRANSLIT:;
#SUBTITLETRANSLIT:;
#ARTISTTRANSLIT:;
#CREDIT:;
#BANNER:smooth-bn.png;
#BACKGROUND:smooth-bg.png;
#LYRICSPATH:;
#CDTITLE:!joe.png;
#MUSIC:iio - smooth (airbase radio edit).mp3;
#OFFSET:0.160;
#SAMPLESTART:113.600;
#SAMPLELENGTH:12.000;
#SELECTABLE:YES;
#BPMS:0.000=135.000;
#STOPS:;
#BGCHANGES:;
// cache tags:
#FIRSTBEAT:12.000;
#LASTBEAT:435.125;
#SONGFILENAME:Songs/Essential Sim Collection/(Joe) Smooth  (Airbase Radio Edit)/smooth.sm;
#HASMUSIC:1;
#HASBANNER:1;
#MUSICLENGTH:203.598;
// end cache tags

//---------------dance-single - ----------------
#NOTES:
     dance-single:
     :
     Hard:
     12:
     1.000,0.882,0.963,0.059,1.000,1264.000,196.000,12.000,0.000,0.000:
0000
0000
0000
0000
,
0000
0000
0000
0000
,
0000
0000
0000
0000
,
1001
1100
0101
1100
,
1001
0000
0011
0000
1100
0010
0001
0000
,
1001
0010
0100
0000
1100
0001
0110
0010
,
0110
0000
1001
0000
0011
0001
0011
0000
,
1100
1000
1100
0000
1100
1000
0011
0001
,
1001
0100
1100
0000
0101
0100
1010
0000
,
1100
0100
0011
0000
1001
1000
0011
0001
,
1100
0000
0110
0000
0110
0010
0110
0000
,
0011
0100
1010
1000
1010
0100
1100
0100
,
0110
0000
1001
0100
0011
0001
1100
1000
,
1010
0010
0101
0100
1001
1000
0110
0001
,
1100
0100
0011
0010
1010
0001
0101
0100
,
0110
0000
1000
0000
0100
1000
0010
0100
0001
1000
0010
0100
0001
0010
0100
1000
,
0001
0100
0010
1000
0011
0000
0000
0000
1100
0000
0001
0000
0110
0000
1000
0000
,
0011
1000
1100
0001
0110
1000
0100
1100
,
0011
1100
1001
0001
0110
0100
1100
0001
,
1001
1000
1001
0001
0100
2000
0100
0010
,
3001
0110
1001
0001
1100
0100
0011
0010
,
1100
0000
0100
0000
1000
0001
0100
0010
1000
0100
1000
0010
0100
0010
0100
0001
,
0100
0001
1000
0010
1000
0100
1000
0010
1000
0001
1000
0100
0010
0000
0100
0000
,
0011
1100
0110
0001
1100
1010
0110
0001
,
1100
0110
1001
0010
1100
0011
0110
0001
,
0011
0000
0001
0000
1000
0100
1000
0010
0100
0001
0010
0001
0100
0010
1000
0001
,
0100
0010
0100
0001
1000
0010
0100
0001
0010
0100
1000
0001
1000
0000
1000
0000
,
0110
0010
1100
0001
0110
0200
0010
0001
,
0310
0101
1001
0001
1000
0001
0110
0011
,
0110
0000
1000
0000
0100
0010
0100
1000
0001
0100
0001
0100
0010
1000
0001
0010
,
0100
1000
0001
1000
0100
0010
0001
1000
0010
0100
0001
1000
0010
0000
0001
0000
,
0110
1000
0011
0010
1100
0001
0101
0010
,
1010
0010
0011
0010
1100
1000
0110
0011
,
1010
0000
0001
0000
0001
1000
0010
0100
0010
0100
0001
1000
0100
1000
0010
0100
,
0001
1000
0001
1000
0100
0010
0001
0010
0100
0010
0001
1000
0010
0100
0001
0100
,
0010
0011
1100
0100
0011
2000
0100
0001
,
3100
0000
1100
0000
0001
1000
0100
1000
0010
0100
0001
0010
0001
0100
0010
1000
,
0100
0010
0100
1000
0010
0100
0001
1000
0100
1000
0010
0100
0001
0010
0100
0010
,
0001
1000
0010
0100
0001
1000
0100
0010
0001
0010
0100
0010
0001
1000
0001
1000
,
0100
1000
0010
0100
0001
0010
0001
0100
0010
1000
0100
0010
0001
0100
0010
1000
,
0100
0010
0001
0010
0100
1000
0010
0100
0001
0100
0010
1000
0100
1000
0010
0100
,
0001
1000
0100
0010
0100
1000
0001
0010
0100
0010
0001
1000
0010
0100
0001
1000
,
0001
0100
0010
1000
0100
1000
0010
0100
0001
0010
0100
1000
0001
0100
0001
1000
,
0100
0000
1000
0000
0010
0000
0100
0000
0001
0000
0010
0000
0001
0000
0100
0000
0010
0000
1000
0000
0200
0000
0000
0000
0000
0000
0000
0000
0000
0000
0000
0300
,
0000
0000
1001
0010
0011
0110
1000
0101
,
0110
1000
0101
0011
0100
0101
1100
1000
,
0011
0100
1001
0001
0110
0100
1100
0010
,
1001
1000
0110
0010
0011
0110
1100
0110
,
0011
0100
0101
0010
1100
0100
0110
0001
,
1100
0001
0110
0001
0011
1000
1010
0101
,
1010
0010
0110
0001
1001
1000
0011
0001
,
1001
0100
0011
0001
1100
0010
1010
1100
,
0011
0000
0010
0000
1001
0000
0001
0000
1000
0001
1000
0100
1000
0010
0100
0001
,
1000
0100
0010
0001
0010
0001
1000
0001
0100
0010
0100
0001
0100
0010
1000
0001
,
0100
0001
0010
0100
1000
0001
0100
0000
1100
0000
0001
0000
0110
0000
0001
0000
,
1100
0100
1001
0011
0110
1100
0110
1001
,
0110
0000
0011
0000
1001
0000
0001
0000
0100
0001
0010
0100
1000
0010
1000
0001
,
0100
0010
0100
0001
0100
0010
1000
0001
0100
0010
1000
0001
1000
0010
1000
0100
,
0010
0001
1000
0000
1001
0000
1000
0000
0011
0000
0010
0000
1100
0000
0001
0000
,
0101
0010
1010
0100
0110
0001
1001
0010
,
0110
0010
1001
0010
0011
0100
0011
0100
,
0110
0001
0110
0001
1100
1000
1100
1000
,
1010
0010
1010
0001
0101
1000
0101
0010
,
0110
0000
1000
0000
0100
0010
0001
1000
0010
0100
0010
1000
0001
0010
0100
1000
,
0001
0100
0010
0100
1010
0000
0001
0000
0110
0000
1000
0000
0110
0000
0001
0000
,
0101
0010
0101
0100
1010
0001
1010
0100
,
0110
1000
0110
1000
0002
0003
0020
0030
,
0200
0300
2000
0000
3000
0002
0000
0003
,
1000
0000
1100
0000
0001
0010
0100
1000
0001
0010
0100
1000
0001
1000
0100
0010
,
0001
1000
0010
0100
0001
1000
0010
0100
0001
0010
0100
1000
0010
0100
0010
0100
,
0001
1000
0100
0010
0001
1000
0001
0100
0010
1000
0001
1000
0001
1000
0010
0100
,
0001
0100
0001
1000
0001
0010
0001
0100
0010
0100
0001
0100
0010
1000
0001
0010
,
0100
1000
0100
0010
0100
1000
0001
0010
0100
1000
0010
1000
0100
1000
0001
0100
,
0010
1000
0010
0100
0010
1000
0100
0010
0001
1000
0001
0010
0100
1000
0010
0100
,
0001
1000
0100
0010
0001
0100
0001
1000
0010
0100
0001
1000
0001
0100
0010
1000
,
0010
0100
0001
0100
0010
0100
0010
1000
0001
0010
0100
0010
0001
1000
0100
1000
,
0010
0100
0001
1000
0001
0010
0100
1000
0001
0100
0010
1000
0001
0100
0010
0100
,
0001
1000
0010
0100
0001
1000
0001
1000
0100
0010
0001
0010
0100
1000
0100
1000
,
0001
0100
0010
1000
0001
0100
0010
0100
0001
0010
0100
1000
0001
0100
0010
1000
,
0001
0100
0010
1000
0001
0010
0100
1000
0001
0100
0010
0100
0001
0010
0001
0100
,
0010
1000
0010
0100
0001
0010
0001
0010
0100
1000
0001
1000
0010
0100
0001
0100
,
0010
1000
0001
0010
0100
1000
0001
1000
0010
0100
0010
1000
0001
0010
0100
1000
,
0001
0100
0010
1000
0010
0100
0001
0010
0100
1000
0001
0100
0010
0100
0010
1000
,
0001
0010
0100
1000
0001
1000
0001
1000
0100
0010
0001
0100
0001
0010
0100
1000
,
0010
0100
0001
1000
0011
0000
0010
0000
0011
0000
0100
0000
1001
0000
0100
0000
,
0110
0000
0100
0000
1100
0010
0100
0001
1000
0010
0100
0001
1000
0100
0010
0001
,
0010
0001
0100
0001
0010
0100
1000
0001
0100
0010
1000
0001
0100
0001
0100
0010
,
1000
0001
0100
0010
0100
0001
1000
0010
0100
0001
1000
0001
1100
0000
1000
0000
,
0110
0000
1100
0000
0011
0000
0010
0000
1100
0010
0100
1000
0001
0100
0010
0100
,
0001
0100
0010
0100
0001
1000
0010
0100
0010
1000
0001
0010
0001
1000
0001
0010
,
0100
1000
0001
0100
0010
1000
0010
0100
0001
1000
0100
0010
0001
1000
0100
0010
,
0001
0100
0001
0100
0001
0010
0100
1000
0010
0100
0001
0010
0100
1000
0010
0100
,
0010
0100
0001
0010
1100
0000
1000
0000
0001
0010
0100
1000
0001
1000
0010
0100
,
0001
0010
0100
0010
0001
0100
0010
1000
0100
1000
0010
0100
0001
0010
0001
1000
,
0001
0010
0100
1000
0001
1000
0010
0100
0001
1000
0010
1000
0001
0100
0010
0100
,
0001
1000
0100
1000
0010
0100
0001
1000
0010
0100
0001
0010
0001
1000
0010
0100
,
0010
1000
0001
0100
0011
0000
0001
0000
1000
0100
0010
0001
0100
0010
0100
0001
,
1000
0010
0100
0001
1000
0010
0100
0001
0100
0001
0010
0100
0010
0100
1000
0001
,
0100
0010
1000
0100
0010
0100
1000
0001
1000
0010
1000
0100
0010
0001
0100
0010
,
1000
0001
0100
0001
0010
0001
0100
0010
1000
0100
0010
0001
0100
0010
1000
0010
,
1000
0001
0100
0001
0100
0010
1000
0001
0100
0001
1000
0010
0100
0010
1000
0010
,
0100
0001
0100
0001
0010
0100
0010
0100
1000
0001
1000
0001
0010
0100
0010
0001
,
1000
0100
1000
0001
0100
0010
0100
0001
1000
0010
0100
0001
1000
0010
0100
0001
,
1000
0100
1000
0001
0010
0100
0010
0001
1000
0100
1000
0001
1000
0001
2000
0000
,
3001
0000
0110
0000
1000
0001
0010
0001
1000
0010
1000
0100
0010
0001
0100
0010
,
1000
0100
1000
0010
1000
0100
1000
0010
0100
0001
0010
0100
1000
0010
0100
0001
,
0010
0001
0100
0010
1000
0010
0100
0001
0100
0001
1000
0100
1000
0001
1000
0100
,
1000
0100
0010
0001
0010
0001
0100
0010
1000
0100
0010
0001
0100
0010
1000
0100
,
0010
0000
0001
0000
1000
0000
0001
0000
0220
0000
0000
0000
0000
0000
0000
0000
0000
0000
0000
0000
0000
0000
0000
0000
0000
0330
0000
0000
0000
0000
0000
0000
;
