#TITLE:Holy Thunderforce;
#SUBTITLE:;
#ARTIST:Rhapsody;
#TITLETRANSLIT:;
#SUBTITLETRANSLIT:;
#ARTISTTRANSLIT:;
#CREDIT:;
#BANNER:holy.png;
#BACKGROUND:holy-bg.png;
#LYRICSPATH:;
#CDTITLE:!mm989cdtitle.png;
#MUSIC:rhapsody_-_holy_thunderforce.mp3;
#OFFSET:-0.243;
#SAMPLESTART:102.860;
#SAMPLELENGTH:19.000;
#SELECTABLE:YES;
#BPMS:0.000=180.000;
#STOPS:;
#BGCHANGES:;
// cache tags:
#FIRSTBEAT:0.000;
#LASTBEAT:768.000;
#SONGFILENAME:Songs/IzzySM Keyboard Mega Pack/Holy Thunderforce/holy.sm;
#HASMUSIC:1;
#HASBANNER:1;
#MUSICLENGTH:261.929;
// end cache tags

//---------------dance-single - ----------------
#NOTES:
     dance-single:
     :
     Challenge:
     12:
     1.000,1.000,0.794,0.244,1.000,1971.000,208.000,64.000,0.000,0.000:  // measure 1
1000
0001
0010
0100
1000
0100
0010
0001
0010
0000
0100
0000
1000
0000
0010
0000
,  // measure 2
0001
1000
0100
0010
0001
0010
0100
1000
0100
0000
0010
0000
0100
0000
0001
0000
,  // measure 3
0110
0100
0010
0110
0000
0001
1100
0000
,  // measure 4
0011
0011
0000
2000
0000
0000
3000
0000
,  // measure 5
0100
0001
1000
0100
0010
0001
1000
0010
0100
0000
0001
0000
0010
0000
1000
0000
,  // measure 6
0010
1000
0001
0010
0100
1000
0001
0100
0010
0000
0100
0000
1000
0000
0001
0000
,  // measure 7
0011
0010
0001
0011
0000
1000
0101
0000
,  // measure 8
1010
1010
0000
0002
0000
0000
1003
0100
,  // measure 9
0010
0001
0100
0010
1000
0010
0100
0001
1000
0100
0010
0001
0010
0100
1000
0001
,  // measure 10
0100
0010
0100
0001
1000
0010
0100
0001
0010
0100
0010
0001
0100
0010
1000
0100
,  // measure 11
0010
0010
0001
0010
0000
0100
0110
0000
,  // measure 12
1001
1001
0000
0200
0000
0010
0310
1000
,  // measure 13
0100
0010
0100
1000
0001
0100
0010
0100
0001
0010
0100
1000
0001
0100
0001
1000
,  // measure 14
0010
1000
0100
0010
0001
0100
0001
1000
0100
0010
0100
1000
0001
0010
0100
1000
,  // measure 15
0001
0001
0100
0001
0000
1000
1100
0000
,  // measure 16
0110
0110
0000
0002
0000
0010
0013
0100
,  // measure 17
1000
0100
1000
0100
0011
0000
0100
1000
0100
1000
0110
0000
1000
0100
1000
0100
,  // measure 18
1001
0000
0000
0000
0011
0000
0000
0000
0110
0000
0000
0000
1000
0100
1000
0100
,  // measure 19
1001
0000
0100
1000
0100
1000
0110
0000
1000
0100
1000
0100
0011
0000
0000
0000
,  // measure 20
2010
0000
0000
3001
0220
0000
0330
0000
,  // measure 21
0001
0100
0001
0100
1010
0000
0100
0001
0100
0001
0110
0000
0001
0100
0001
0100
,  // measure 22
1001
0000
0000
0000
1010
0000
0000
0000
0110
0000
0000
0000
0001
0100
0001
0100
,  // measure 23
1001
0000
0100
0001
0100
0001
0110
0000
0001
0100
0001
0100
1010
0000
0000
0000
,  // measure 24
0100
0001
0100
0010
1000
0001
0010
0100
0010
0001
1000
0010
0100
0010
1000
0100
,  // measure 25
0010
0001
0100
0010
1000
0001
0100
0001
0010
0100
1000
0001
0100
0010
1000
0100
,  // measure 26
0020
0000
0000
0030
,  // measure 27
1001
0100
0010
1000
0001
0000
1001
0000
,  // measure 28
0110
1000
0001
0100
0010
0000
0110
0000
,  // measure 29
1010
1000
0011
0100
,  // measure 30
0110
2002
0000
3003
,  // measure 31
0011
0010
0100
1000
0100
0000
0110
0000
,  // measure 32
1100
0100
0010
0001
0010
0000
1001
0000
,  // measure 33
0101
0100
1010
0001
,  // measure 34
0220
0000
0000
0330
,  // measure 35
1001
0100
0010
0100
1001
0000
0010
0000
,  // measure 36
1010
0100
0001
0100
1010
0000
0001
0000
,  // measure 37
0110
0001
1100
0010
,  // measure 38
0101
0220
0000
0330
,  // measure 39
0011
0100
0010
0100
0011
0000
1000
0000
,  // measure 40
0101
0010
0100
0010
0101
0000
0001
0000
,  // measure 41
1001
0010
0110
0001
,  // measure 42
2002
0000
0000
0000
3003
0000
1000
0010
,  // measure 43
0100
0001
1000
0100
0010
0001
0100
0010
1000
0001
0010
0001
1000
0100
0010
0100
,  // measure 44
1000
0010
0100
0001
0010
0100
1000
0010
0100
0001
0100
0001
1000
0010
0100
0001
,  // measure 45
1000
0100
0010
0001
0100
0001
1000
0010
0100
0001
0100
0010
1000
0100
0010
0001
,  // measure 46
1000
0010
1000
0001
0100
0010
0100
0001
1000
0010
1000
0001
0010
0001
0100
0010
,  // measure 47
1000
0010
0100
0001
1000
0001
0100
0010
1000
0010
0100
0001
0100
0010
1000
0100
,  // measure 48
0010
0001
0010
0100
1000
0010
1000
0100
0010
0100
1000
0001
0100
0010
1000
0010
,  // measure 49
0100
0001
1000
0001
0010
0100
1000
0010
0100
0001
1000
0100
0010
0001
1000
0010
,  // measure 50
0100
0001
1000
0100
0010
0100
1000
0001
0010
0100
0010
0001
0100
0001
1000
0100
,  // measure 51
0010
0001
1000
0010
1000
0001
0100
0001
0010
0100
0010
0001
1000
0000
0000
0000
,  // measure 52
0001
0010
0001
0010
1100
0000
0010
0001
0010
0001
0110
0000
0001
0010
0001
0010
,  // measure 53
1001
0000
0000
0000
1100
0000
0000
0000
0110
0000
0000
0000
0001
0010
0001
0010
,  // measure 54
1001
0000
0010
0001
0010
0001
0110
0000
0001
0010
0001
0010
1100
0000
0000
0000
,  // measure 55
0012
0000
0000
0103
2002
0000
3003
0000
,  // measure 56
1000
0010
1000
0010
0101
0000
0010
1000
0010
1000
0110
0000
1000
0010
1000
0010
,  // measure 57
1001
0000
0000
0000
0101
0000
0000
0000
0110
0000
0000
0000
1000
0010
1000
0010
,  // measure 58
1001
0000
0010
1000
0010
1000
0110
0000
1000
0010
1000
0010
0101
0000
0000
0000
,  // measure 59
0001
1000
0100
0010
0001
0100
0001
1000
0100
0010
0100
1000
0010
0100
0010
1000
,  // measure 60
0001
0100
0010
0100
0001
1000
0100
0010
0001
0010
0100
1000
0001
0100
0010
1000
,  // measure 61
0002
0000
0000
0003
,  // measure 62
1100
0010
0001
0010
0100
0000
1001
0000
,  // measure 63
1010
0100
0001
0100
0010
1000
0100
0000
,  // measure 64
0011
1000
1010
0100
,  // measure 65
1001
0220
0000
0330
,  // measure 66
0101
0010
0100
0001
1000
0000
0101
0000
,  // measure 67
1010
0100
0010
1000
0001
0000
1001
0000
,  // measure 68
0110
0001
1100
0010
,  // measure 69
2002
0000
0000
0000
3003
0000
0000
0000
1000
0100
0010
0001
0010
0100
1000
0001
,  // measure 70
0110
0010
0100
0001
1100
0000
0010
0000
,  // measure 71
0101
0001
1000
0010
1100
0000
0001
0000
,  // measure 72
0110
1000
0101
0010
,  // measure 73
1100
0202
0000
0303
,  // measure 74
0110
0001
1000
0100
0011
0000
0100
0000
,  // measure 75
1001
0010
0100
0001
1100
0000
0010
0000
,  // measure 76
1001
0100
0101
0010
,  // measure 77
0022
0000
0000
0000
0033
0000
0010
0100
,  // measure 78
1000
0001
0100
0001
0010
0100
1000
0010
0100
0001
1000
0010
0100
0010
1000
0001
,  // measure 79
0010
0100
0010
0001
1000
0100
1000
0010
0100
0001
0010
0100
1000
0100
0010
0001
,  // measure 80
0100
0010
1000
0100
1000
0001
0100
0010
0100
0001
1000
0001
0010
0001
1000
0100
,  // measure 81
0010
0100
1000
0001
0100
0010
1000
0001
0010
0100
1000
0001
0100
0001
1000
0010
,  // measure 82
1000
0001
0100
0010
1000
0100
0010
0100
1000
0001
0010
0100
1000
0010
0100
0001
,  // measure 83
0100
0010
1000
0001
0100
0001
1000
0100
0010
0001
0010
0100
1000
0001
1000
0100
,  // measure 84
0010
0001
0100
0010
1000
0100
1000
0001
0010
0100
1000
0001
0100
0001
1000
0100
,  // measure 85
0010
0100
1000
0010
0100
0001
0010
0100
1000
0001
1000
0010
0100
0001
0100
0010
,  // measure 86
1000
0100
1000
0001
0100
0010
1000
0001
0010
0100
1000
0001
0100
0010
1000
0000
,  // measure 87
0100
0010
0001
0010
0100
1000
0100
1000
0001
0000
0100
0000
0010
0000
0001
0000
,  // measure 88
0100
0010
1000
0010
0100
0001
0100
0001
1000
0000
0010
0000
0001
0000
0100
0000
,  // measure 89
1010
0010
1000
1010
0000
0001
1100
0000
,  // measure 90
0011
0011
0000
2000
0000
0000
3000
0000
,  // measure 91
1000
0001
0100
0001
1000
0010
1000
0010
0100
0000
1000
0000
0001
0000
0100
0000
,  // measure 92
1000
0001
0010
0001
1000
0100
1000
0100
0010
0000
0001
0000
0100
0000
1000
0000
,  // measure 93
0011
0001
0010
0011
0000
1000
0101
0000
,  // measure 94
1010
1010
0000
0002
0000
1000
1003
0100
,  // measure 95
1000
0001
0100
0001
1000
0100
0010
0001
0100
0010
1000
0001
0010
0100
1000
0010
,  // measure 96
0100
0010
1000
0001
0100
0010
0100
0001
1000
0100
1000
0001
0100
0010
1000
0010
,  // measure 97
0100
0001
0010
0100
1000
0010
1000
0001
0010
0001
0100
0010
1000
0001
0100
0001
,  // measure 98
1000
0100
0010
0100
1000
0001
0100
0010
1000
0100
0010
0001
0100
0001
1000
0010
,  // measure 99
0100
0010
1000
0001
1000
0010
0100
0001
0010
0100
1000
0010
0100
0001
0100
0010
,  // measure 100
1000
0001
0010
0100
0010
0001
1000
0100
0010
0001
0100
0010
1000
0100
0010
0100
,  // measure 101
1000
0001
0010
0100
1000
0100
0010
0001
1000
0001
0100
0010
0100
0001
1000
0010
,  // measure 102
0100
0010
1000
0100
0010
0100
1000
0001
0100
0001
1000
0010
1000
0001
0010
0100
,  // measure 103
1000
0000
0100
0000
1000
0000
0100
0000
0010
0000
0100
0000
0010
0000
0000
0001
0000
0000
1000
0000
0000
0100
0000
0000
,  // measure 104
0010
0000
0100
0000
0010
0000
0001
0000
0010
0000
0001
0000
0100
0000
0000
0010
0000
0000
1000
0000
0000
0100
0000
0000
,  // measure 105
0010
0001
0010
0100
1000
0010
0100
0001
1000
0100
1000
0001
0100
0010
1000
0001
,  // measure 106
0010
0100
0010
0001
0100
0010
1000
0001
0100
0010
0100
0001
1000
0100
0010
0001
,  // measure 107
1000
0100
1000
0010
0100
0001
1000
0100
0010
0001
0010
0100
1000
0001
0100
0010
,  // measure 108
0100
0001
1000
0010
0100
0001
0010
0100
1000
0010
0100
0010
1000
0100
0010
0001
,  // measure 109
2000
0000
0000
0000
3001
0100
0001
0100
0020
0000
0000
0000
0130
0001
0100
0001
,  // measure 110
0110
0000
0101
0000
0110
0000
1100
0000
0012
0000
0000
0000
0103
0010
0100
0010
,  // measure 111
2000
0000
0000
0000
3001
0010
0001
0010
0200
0000
0000
0000
1300
0010
1000
0010
,  // measure 112
1100
0011
0110
0011
2200
0000
3300
0000
,  // measure 113
1000
0001
1000
0001
1000
0001
1000
0001
1000
0100
0010
0100
1000
0001
0010
0100
,  // measure 114
1000
0100
0010
0001
0100
0010
1000
0010
0100
0001
1000
0100
1000
0001
0010
0100
,  // measure 115
1000
0001
0100
0001
1000
0100
1000
0001
1000
0100
1000
0100
0010
0001
0010
0001
,  // measure 116
1000
0100
1000
0100
0010
0001
0010
0001
0100
0010
0100
0010
0100
0001
0100
0001
,  // measure 117
0010
0100
1000
0001
0010
0100
1000
0100
1000
0001
0100
0010
0100
0001
1000
0100
,  // measure 118
0010
0001
0100
0001
1000
0010
0100
0001
1000
0100
1000
0001
0010
0100
0010
0001
,  // measure 119
0100
0001
1000
0100
0010
0001
1000
0001
0100
0010
0100
0010
0100
0010
0100
0010
,  // measure 120
1000
0100
1000
0100
1000
0100
1000
0100
0010
0001
0010
0001
0010
0001
0010
0001
,  // measure 121
0010
0001
0010
0001
0010
0001
0010
0001
0100
0010
0100
0010
0100
0010
0100
0010
,  // measure 122
0100
0000
0000
0010
0000
0000
0100
0000
0000
0010
0000
0000
0100
0000
0000
0010
0000
0000
0100
0000
0000
0010
0000
0000
1001
0000
0000
0000
0100
0000
0000
0000
0001
0000
0000
0000
1000
0000
0000
0000
0100
0000
0000
0000
0010
0000
0000
0000
,  // measure 123
0001
0000
0000
0100
0000
0000
0010
0000
0000
1000
0000
0000
0100
0000
1000
0000
0001
0000
0100
0000
0010
0000
1000
0000
,  // measure 124
0100
0000
0010
0000
0001
0000
1000
0000
0100
0010
0001
0100
0010
1000
0010
0100
,  // measure 125
0001
1000
0010
0100
0010
1000
0001
0010
0100
0010
0001
1000
0010
0100
0001
1000
,  // measure 126
0100
1000
0001
0010
0100
0010
0001
1000
0010
0100
0001
0100
0010
1000
0001
0010
,  // measure 127
0100
1000
0001
0100
0001
1000
0010
1000
0100
0010
0100
1000
0010
0100
0001
0010
,  // measure 128
0100
1000
0001
0100
0001
1000
0010
0100
0002
0000
0000
0000
1003
0010
1000
0010
,  // measure 129
0200
0000
0000
0000
0301
0010
0001
0010
1100
0000
0110
0000
0011
0000
0110
0000
,  // measure 130
2100
0000
0000
0000
3001
0100
0001
0100
0020
0000
0000
0000
1030
0001
1000
0001
,  // measure 131
0200
0000
0000
0000
0310
1000
0010
1000
0101
0000
0110
0000
1010
0000
0110
0000
,  // measure 132
0202
0000
0000
0000
0303
0000
0000
0000
0001
1000
0001
1000
0001
1000
0001
1000
,  // measure 133
0110
0010
1000
0001
0100
0000
0101
0000
,  // measure 134
1100
0100
0010
0001
0100
0000
1010
0000
,  // measure 135
1001
0010
0101
1000
,  // measure 136
1100
0220
0000
0330
,  // measure 137
0011
1000
0100
0010
0001
0000
1100
0000
,  // measure 138
1010
0001
0010
0100
1000
0000
0101
0000
,  // measure 139
1100
0010
0011
0100
,  // measure 140
0202
0000
0000
0000
0303
0000
0000
0000
0011
0100
1000
0000
0011
0100
1000
0000
,  // measure 141
0011
0100
1000
0010
0110
0000
0001
0000
,  // measure 142
1010
0001
1000
0100
0110
0000
1000
0000
,  // measure 143
0110
1000
1100
0001
,  // measure 144
0011
2020
0000
3030
,  // measure 145
0101
0010
0100
1000
0101
0000
0010
0000
,  // measure 146
1010
0100
0010
0001
1010
0000
0100
0000
,  // measure 147
1001
0010
0110
1000
,  // measure 148
2002
0000
0000
0000
3003
0000
1000
0001
,  // measure 149
0100
0001
1000
0100
0010
0001
0010
0100
1000
0001
0100
0001
1000
0010
0100
0001
,  // measure 150
0010
0100
1000
0010
0100
0001
1000
0100
0010
0100
1000
0010
0100
0001
1000
0010
,  // measure 151
1000
0001
0100
0001
1000
0010
0100
0001
0010
0100
0010
0001
1000
0010
0100
0001
,  // measure 152
1000
0100
1000
0001
0010
0100
0010
0001
1000
0100
0010
0001
0100
0001
1000
0010
,  // measure 153
1000
0001
0100
0010
1000
0100
1000
0001
0010
0001
0100
0010
1000
0001
0010
0100
,  // measure 154
1000
0100
0010
0001
1000
0010
0100
0010
1000
0001
0010
0100
0010
0001
1000
0100
,  // measure 155
0010
0001
0100
0010
1000
0010
0100
0001
0010
0100
1000
0001
1000
0100
0010
0100
,  // measure 156
1000
0001
0100
0010
1000
0010
0100
0001
0010
0100
0010
0001
1000
0100
0010
0001
,  // measure 157
0100
0010
1000
0010
0100
0001
1000
0100
1001
0000
0000
0000
0010
0000
0001
0000
,  // measure 158
0100
0010
1000
0100
0010
0001
1000
0010
0200
0000
0000
0000
0301
0000
1000
0000
,  // measure 159
0010
0100
0001
1000
0100
0010
0001
0010
0200
0000
0000
0000
1300
0000
0001
0000
,  // measure 160
0120
1030
0012
0103
,  // measure 161
0010
1000
0010
1000
0010
1000
0010
0100
0001
0000
0000
0000
1000
0000
0010
0000
,  // measure 162
0101
0010
1000
0100
0020
0000
0031
1000
,  // measure 163
0010
0100
0010
1000
0002
0000
0013
0100
,  // measure 164
1001
0100
0101
0010
,  // measure 165
0220
0000
0000
0000
0000
0000
0000
0330
,  // measure 166
2002
0000
0000
0000
3003
0000
0001
1000
,  // measure 167
0100
0010
0001
0010
0100
1000
0010
0100
0001
1000
0100
0010
0100
1000
0001
0010
,  // measure 168
0100
1000
0001
1000
0100
0010
0001
0100
0010
1000
0001
1000
0100
0010
0100
1000
,  // measure 169
0001
0010
0100
0010
0001
0100
0001
1000
0010
0100
0010
1000
0001
0010
0001
1000
,  // measure 170
0100
0010
0100
1000
0001
0100
0010
1000
0010
0100
0001
1000
0001
0010
0100
0010
,  // measure 171
0001
1000
0100
0010
0001
0100
0001
1000
0010
0100
0010
1000
0001
0010
0100
1000
,  // measure 172
0001
1000
0100
0010
0001
0100
0010
1000
0001
0100
0001
1000
0100
0010
0100
1000
,  // measure 173
0001
0010
0100
1000
0001
1000
0010
0100
0001
1000
0010
1000
0001
0010
0100
1000
,  // measure 174
0001
0100
0010
0100
0001
0010
0100
0010
0001
1000
0010
0100
0001
1000
0100
1000
,  // measure 175
0001
0100
0010
0100
0001
0010
0100
1000
0100
0010
0001
1000
0001
0100
0010
0100
,  // measure 176
1001
0000
0010
0000
0001
0100
0001
0100
0001
0000
0010
0000
1000
0000
0100
0000
,  // measure 177
0011
0000
0001
0000
0100
1000
0100
1000
0100
0000
0010
0000
1000
0000
0001
0000
,  // measure 178
1010
0000
1010
0001
0100
0010
0100
1000
,  // measure 179
0011
0000
0012
0000
1000
1000
1000
1000
,  // measure 180
1003
0010
0100
0010
1000
0001
0010
0001
0100
0010
1000
0001
0010
0100
1000
0100
,  // measure 181
0010
0001
0100
0001
1000
0100
0010
0100
1000
0001
0100
0001
1000
0100
0010
0001
,  // measure 182
1000
0001
0100
0001
1000
0100
1000
0001
0010
0100
0010
0001
1000
0010
0100
0001
,  // measure 183
0010
0100
1000
0001
0010
0001
0100
0010
1000
0100
0010
0100
1000
0001
0100
0001
,  // measure 184
1001
0000
0100
0000
1000
0010
1000
0010
1000
0000
0001
0000
0100
0000
1000
0000
,  // measure 185
0110
0000
0110
0000
0001
0010
0001
0010
0001
0000
0010
0000
0100
0000
1000
0000
,  // measure 186
0011
1000
0100
0011
0000
1000
1001
0000
,  // measure 187
0101
0100
0000
0002
0000
0000
0003
0000
,  // measure 188
1010
0000
0100
0000
0001
0100
1000
0100
0001
0000
1000
0000
0001
0000
0010
0000
,  // measure 189
1001
0000
1001
0000
0100
0010
0001
0100
1000
0000
0001
0000
0010
0000
1000
0000
,  // measure 190
0110
0010
1000
1001
0000
0100
0101
0000
,  // measure 191
0110
0001
1000
0101
0000
0010
0011
0000
,  // measure 192
1100
0001
0010
0101
0000
0001
1010
0000
,  // measure 193
1001
0000
0000
0000
;
