#TITLE:Go Beyond;
#SUBTITLE:;
#ARTIST:Ryu* vs Sota;
#TITLETRANSLIT:;
#SUBTITLETRANSLIT:;
#ARTISTTRANSLIT:;
#CREDIT:;
#BANNER:gobeyond-bn.png;
#BACKGROUND:gobeyond-bg.png;
#LYRICSPATH:;
#CDTITLE:KOMBO.png;
#MUSIC:Go Beyond.ogg;
#OFFSET:0.005;
#SAMPLESTART:63.800;
#SAMPLELENGTH:13.500;
#SELECTABLE:YES;
#BPMS:0.000=200.000;
#STOPS:;
#BGCHANGES:0.000=gobeyond-bg.png=1.000=0=0=1,
99999=-nosongbg-=1.000=0=0=0 // don't automatically add -songbackground-
;
// cache tags:
#FIRSTBEAT:5.000;
#LASTBEAT:382.000;
#SONGFILENAME:Songs/Definitive Keyboard Megapack/Go Beyond [KOMBO]/Go Beyond.sm;
#HASMUSIC:1;
#HASBANNER:1;
#MUSICLENGTH:119.808;
// end cache tags

//---------------dance-single - Kombo----------------
#NOTES:
     dance-single:
     Kombo:
     Hard:
     15:
     1.000,1.000,1.000,0.317,0.676,612.000,231.000,38.000,0.000,42.000:
0000
0000
0000
0000
,
0000
0000
1110
0010
0111
0010
1110
0100
,
0111
0000
1000
0000
1001
0000
0000
1001
0000
0000
0110
0000
1001
0000
0000
0000
,
0010
0000
0010
0000
0111
0010
0010
0000
1110
0000
0100
0000
0111
0000
0010
0000
,
1110
0000
0001
0000
1001
0000
0000
1001
0000
0000
0110
0000
1001
0000
0000
0000
,
0000
0000
1101
1000
1011
1000
1101
0001
,
1011
0000
0100
0000
0110
0000
0000
0110
0000
0000
1001
0000
0110
0000
0000
0000
,
0000
0000
0000
0000
2002
3003
0000
0000
0000
0000
0000
0000
1111
0000
0110
0000
,
1111
0000
0000
0000
0100
0000
0000
0010
0000
0000
0100
0000
0010
0000
1000
0000
,
1001
0001
0001
0001
1001
0000
0000
0000
1001
0000
1000
0000
1010
0000
0100
0000
,
1001
0010
0101
1010
1100
0100
0101
0010
,
1100
0101
0110
0100
1010
0100
1001
0100
,
0011
1100
0000
0101
0000
0110
0000
0101
,
0000
0010
1101
1000
1010
0100
1001
0110
,
0101
1000
1100
0100
0101
0010
1100
0101
,
0110
0100
1010
0100
0011
0100
1001
0001
,
1010
0000
0101
0000
0010
0010
0010
0000
1000
0000
0001
0000
0100
0000
1000
0000
,
0010
0100
1001
0001
0101
0010
1001
0100
,
1010
0001
0011
0010
1010
0100
0011
0001
,
0110
1100
0101
0010
1100
0010
1001
1000
,
0101
1010
0000
0110
0000
1010
0000
0100
,
1001
0000
0010
0100
1010
0000
0000
0000
1101
0000
0000
0000
0111
0000
1110
0000
,
0000
1011
1110
1101
0000
0111
0000
1110
,
0001
0000
0000
0010
0000
0000
0100
0000
0000
1000
0000
0000
0011
0000
0000
0000
0000
0000
0011
0000
0000
0000
0000
0000
0001
0000
0010
0000
0100
0000
1000
0000
0100
0000
0010
0000
1001
0000
0000
0000
0000
0000
0011
0000
0000
0000
0000
0000
,
1000
0100
1000
0001
0010
0001
0010
0100
1000
0000
0000
0000
0000
0000
0000
0000
0000
0000
0000
0000
0000
0000
0000
0000
0000
0000
0000
0000
0000
0000
0000
0000
,
0000
2100
0000
3020
,
0000
0032
0000
0203
,
0000
0320
0000
0000
,
0000
0000
0000
0032
,
0000
2003
0000
3020
,
0000
0032
0000
2003
,
0000
3200
0000
0000
,
0000
0000
0000
0320
,
0000
0132
0100
0213
,
0010
0321
0001
1230
,
1000
0312
0010
0000
,
0000
0000
0000
0123
,
0100
2031
0001
3210
,
0010
0312
0010
2103
,
0100
3021
0001
0000
,
0000
0000
0030
1001
,
0000
0110
0000
0000
,
0000
0000
0000
0101
,
0000
1010
0000
0000
,
0000
0000
0000
0110
,
0000
1001
0000
0101
,
0000
1010
0000
0110
,
0000
1111
0000
0000
,
0000
0000
0000
0000
,
0000
0000
0000
0000
,
0000
0000
0000
0000
2000
3000
0000
0000
0000
0000
0000
0000
0000
0000
0000
0000
,
0020
0230
0300
0000
0000
0000
0000
0000
0000
0000
0000
0000
0000
0000
0000
0000
,
0000
0000
1001
1001
,
1001
0000
0000
0000
1100
0001
1000
0001
1100
0001
1000
0010
1100
0010
0100
0010
,
0101
1000
0001
1000
0011
1000
0001
1000
0110
0001
1000
0001
1100
0001
1000
0001
,
1100
0001
0110
0001
1100
0001
1000
0001
1100
0001
1000
0010
1100
0001
1000
0100
,
0011
1000
0001
1000
0110
1000
0001
1000
0011
1000
0001
1000
0110
0001
0100
0010
,
0100
1000
0001
1000
0110
0001
1000
0001
1100
0001
0100
1000
0011
1000
0001
1000
,
0011
0100
0010
0100
1001
0100
0010
0100
0011
1000
0001
0010
1100
0010
0001
1000
,
0011
0100
0001
1000
0011
1000
0001
1000
0011
0100
0010
0100
0011
1000
0010
1000
,
0110
1000
0001
0010
0100
1000
0001
0010
0100
1000
0001
0010
0100
1000
0001
0010
,
0100
1000
0001
0010
1100
0001
1000
0001
1100
0001
1000
0010
1100
0010
0100
0010
,
0101
1000
0001
1000
0011
1000
0001
1000
0101
0010
0100
0001
1100
0001
0100
0010
,
1100
0001
0110
0001
1100
0001
1000
0001
1100
0001
1000
0010
1100
0010
0100
0010
,
1100
0001
1000
0001
1100
0001
1000
0010
0101
0010
0100
0010
1100
0001
0100
0010
,
0100
1000
0001
1000
0101
0010
0100
0010
1100
0010
0100
1000
0011
1000
0001
1000
,
0011
0100
0010
0100
1001
0100
0010
0100
0011
1000
0001
0010
1100
0010
0001
1000
,
0011
0100
0001
1000
0011
1000
0001
1000
0011
0100
0010
0100
0011
1000
0010
1000
,
0011
0100
0010
0100
1000
0100
0010
0001
1000
0100
0010
0001
1000
0100
0010
0001
,
1000
0100
0010
0001
1100
0000
1000
0000
1001
0000
0001
0000
0101
0000
0100
0000
,
0101
0001
1001
1000
1100
0100
0101
0001
,
0101
0110
1100
1000
1001
1000
1010
0010
,
1010
1000
1100
0100
0110
0010
1010
1000
,
1001
0110
1001
1000
1001
0001
0011
0010
,
1010
1000
1001
0001
0011
0010
1010
1000
,
1010
1000
1001
0001
0101
0100
0110
0010
,
0011
0001
0101
0000
0000
0000
0000
0000
,
0000
0000
0110
1000
0101
0010
1100
0010
,
0101
0010
1001
0010
1100
0010
0101
1000
,
0110
0101
1010
1000
0011
0100
1010
0001
,
1100
0001
1010
0001
1100
0010
0101
1000
,
0101
0000
0010
0010
1010
0000
0010
0000
0101
0000
1000
0000
0111
0000
1110
0000
,
0000
0111
1110
1101
0000
0111
0000
1110
,
0000
0000
0000
0000
0000
0000
0001
0000
0000
0100
0000
0000
1000
0000
0000
0000
0000
0000
0001
0000
0000
0000
0000
0000
1000
0000
0010
0000
0100
0000
0001
0000
1000
0000
0010
0000
0100
0000
0000
0000
0000
0000
0110
0000
0000
0000
0000
0000
,
0001
1000
0010
0100
0001
1000
0010
0100
1000
0000
0000
0000
0000
0000
0000
0000
0000
0000
0000
0000
0000
0000
0000
0000
0200
0000
0000
0000
0000
0000
0000
0000
,
0000
0320
0000
0000
,
0000
0000
0000
0032
,
0000
2003
0000
0000
,
0000
0000
0000
3200
,
0000
0302
0000
2003
,
0000
3020
0000
0230
,
0000
0320
0000
0000
,
0000
0000
0000
0000
,
0000
0000
0000
0000
,
0000
0000
0000
0000
,
0000
0030
0000
0000
;

//---------------dance-single - KOMBO----------------
#NOTES:
     dance-single:
     KOMBO:
     Medium:
     11:
     0.924,1.000,1.000,0.334,0.588,574.000,161.000,40.000,0.000,13.000:
0000
0000
0000
0000
,
0000
0000
1010
0100
0011
0010
0110
1000
,
0001
0000
1000
0000
0110
0000
0000
0110
0000
0000
0110
0000
1001
0000
0000
0000
,
0010
0010
0101
0010
1100
0100
0110
0001
,
1000
0000
0001
0000
0110
0000
0000
0110
0000
0000
0110
0000
1001
0000
0000
0000
,
0000
0000
1010
1010
0010
0011
0011
0100
,
0010
0000
0100
0000
1001
0000
0000
1001
0000
0000
0110
0000
1001
0000
0000
0000
,
0000
0000
1001
0000
0000
0000
0011
0110
,
0011
0000
0000
0000
1000
0000
0000
0010
0000
0000
0100
0000
0001
0000
0100
0000
,
0001
1000
0001
1000
0001
0000
0000
0000
1001
0000
1000
0000
1010
0000
0100
0000
,
1001
0100
0011
0011
1000
0100
0101
0010
,
1100
0101
0110
0100
1010
0100
1001
0100
,
0011
1100
0000
0101
0000
0110
0000
0101
,
0000
0010
1100
0100
0011
0100
1001
0100
,
0101
0010
1100
0010
0101
0010
1001
0010
,
1100
0001
1010
0100
0011
1000
0110
0001
,
1010
0000
0100
0000
0001
0100
0001
0000
1000
0000
0001
0000
0010
0000
1000
0000
,
0100
0001
1100
0010
0101
1000
0011
0011
,
1000
0001
0011
0010
1010
0100
0011
1000
,
0110
1000
0101
0101
1000
0010
1001
1000
,
0101
1010
0000
0110
0000
1010
0000
0100
,
1100
0000
0001
1000
0001
0000
0000
0000
0101
0000
0000
0000
1010
0000
1010
0000
,
0000
0011
0011
0011
0000
0110
0000
1100
,
0001
1000
0001
1000
0011
0000
0011
0000
0200
0000
0000
0000
0011
0000
0311
0000
,
2000
3001
0000
0000
,
0000
2000
0000
3020
,
0000
0032
0000
0203
,
0000
0320
0000
0000
,
0000
0000
0000
0032
,
0000
2003
0000
3020
,
0000
0032
0000
2003
,
0000
3200
0000
0000
,
0000
0000
0000
0320
,
0000
0132
0000
0213
,
0000
0321
0000
1230
,
0000
0312
0000
0000
,
0000
0000
0000
0123
,
0000
2130
0000
3210
,
0000
0312
0000
2013
,
0000
3120
0000
0000
,
0000
0000
0030
0011
,
0000
1001
0000
0000
,
0000
0000
0000
1100
,
0000
1001
0000
0000
,
0000
0000
0000
0011
,
0000
1100
0000
0110
,
0000
0101
0000
1010
,
0000
1001
0000
0000
,
0000
0000
0000
0000
,
0000
0000
0000
0000
,
0000
0000
0000
0000
2000
3000
0000
0000
0000
0000
0000
0000
0000
0000
0000
0000
,
0020
0230
0300
0000
0000
0000
0000
0000
0000
0000
0000
0000
0000
0000
0000
0000
,
0000
0000
1001
1001
,
1001
0000
0000
0000
1000
0001
1000
0001
1000
0001
1000
0010
0100
0010
0100
0010
,
0100
1000
0001
1000
0100
1000
0001
1000
0100
0010
0100
0001
1000
0001
0100
0010
,
0100
1000
0100
0010
1000
0001
1000
0001
1000
0001
1000
0010
0100
0010
0100
0010
,
0100
1000
0001
1000
0100
1000
0001
1000
0100
0010
0100
0001
1000
0001
0100
0010
,
0100
1000
0001
1000
0100
0010
0100
0010
0100
0010
0100
1000
0001
1000
0001
1000
,
0001
0100
0010
0100
0001
0100
0010
0100
0001
1000
0001
0010
0100
0010
0001
1000
,
0001
0100
0001
1000
0001
0010
0001
0010
1000
0100
0010
0100
0010
1000
0010
1000
,
0010
1000
0001
0010
0100
1000
0001
0010
0100
1000
0001
0010
0100
1000
0001
0010
,
0100
1000
0001
1000
0010
0100
0010
0100
0010
0100
0010
0001
1000
0001
1000
0001
,
1000
0010
0100
0010
1000
0010
0100
0010
1000
0001
1000
0100
0010
0100
1000
0001
,
1000
0010
1000
0001
0010
0100
1000
0100
0010
1000
0100
1000
0001
0010
0100
0010
,
0100
0001
1000
0001
1000
0010
0100
0010
0100
0010
0100
0010
0100
0001
1000
0001
,
0100
0010
0100
1000
0001
1000
0100
1000
0010
0100
0001
0100
0010
0001
1000
0001
,
1000
0010
1000
0010
0100
1000
0010
1000
0010
0001
1000
0001
0100
0010
0001
0010
,
0100
1000
0100
1000
0010
0100
1000
0100
0001
0010
0001
0010
0100
0001
0100
0001
,
1000
0010
0100
0010
1000
0100
0010
0001
1000
0100
0010
0001
1000
0100
0010
0001
,
1000
0100
0010
0001
1000
0000
0001
0000
1001
0000
1000
0000
1100
0000
0100
0000
,
0101
0001
1001
1000
1100
0100
0101
0001
,
0101
0110
1100
1000
1001
1000
1010
0010
,
1010
1000
1100
0100
0110
0010
1010
1000
,
1001
0110
1001
1000
1001
0001
0011
0010
,
1010
1000
1001
0001
0011
0010
1010
1000
,
1010
1000
1001
0001
0101
0100
0110
0010
,
0011
0001
1001
0000
0000
0000
0000
0000
,
0000
0000
1001
0010
1100
0001
1010
0001
,
1100
0001
0110
0001
1010
0001
1100
0010
,
1001
1100
0011
0010
0101
1000
0011
0100
,
1010
0100
0011
0100
1010
0001
1100
0010
,
1100
0000
0010
0100
0010
0000
0001
0000
1100
0000
0000
0000
0011
0000
0011
0000
,
0000
1001
1001
1001
0000
0011
0000
1100
,
0000
0000
0001
1000
0001
0000
1000
0000
0002
0000
0000
0000
1003
0000
0000
0000
,
2000
3001
0000
0200
,
0000
0320
0000
0000
,
0000
0000
0000
0032
,
0000
2003
0000
0000
,
0000
0000
0000
3200
,
0000
0302
0000
2003
,
0000
3020
0000
0230
,
0000
0320
0000
0000
,
0000
0000
0000
0000
,
0000
0000
0000
0000
,
0000
0000
0000
0000
,
0000
0000
0030
0000
;

//---------------dance-single - DIFÍCIL----------------
#NOTES:
     dance-single:
     DIFÍCIL:
     Beginner:
     15:
     1.000,1.000,1.000,1.000,0.684,622.000,305.000,178.000,0.000,82.000:

0000
0000
0000
0000
,
0000
0000
1110
0010
0111
0010
1110
0100
,
0111
0000
1000
0000
1001
0000
0000
1001
0000
0000
0110
0000
1001
0000
0000
0000
,
0010
0000
0010
0000
0111
0010
0010
0000
1110
0000
0100
0000
0111
0000
0010
0000
,
1110
0000
0001
0000
1001
0000
0000
1001
0000
0000
0110
0000
1001
0000
0000
0000
,
0000
0000
1101
1000
1011
1000
1101
0001
,
1011
0000
0100
0000
0110
0000
0000
0110
0000
0000
1001
0000
0110
0000
0000
0000
,
0000
0000
0000
0000
2002
3003
0000
0000
0000
0000
0000
0000
1111
0000
0110
0000
,
1111
0000
0000
0000
0100
0000
0000
0010
0000
0000
0100
0000
0010
0000
1000
0000
,
0011
0011
0011
0011
1100
0000
0000
0000
1001
0000
1000
0000
1010
0000
0100
0000
,
1001
0010
0101
1010
1100
0100
0101
0010
,
1100
0101
0110
0100
1010
0100
1001
0100
,
0011
1100
0000
0101
0000
0110
0000
0101
,
0000
0000
0010
0000
1101
0000
1000
0000
2022
3033
0100
0000
1001
0000
0110
0000
,
2202
3303
1000
0000
1100
0000
0100
0000
0222
0333
0010
0000
1100
0000
0101
0000
,
2220
3330
0100
0000
1010
0000
0100
0000
0222
0333
0100
0000
1001
0000
0001
0000
,
2220
3330
0001
0000
1010
1010
1010
0000
1000
0000
0001
0000
0100
0000
1000
0000
,
0010
0000
0100
0000
1001
0000
0001
0000
2202
3303
0010
0000
1001
0000
0100
0000
,
2022
3033
0001
0000
0011
0000
0010
0000
2220
3330
0001
0000
1010
0000
0001
0000
,
0222
0333
1010
0000
0101
0000
0010
0000
2202
3303
0010
0000
1001
0000
1000
0000
,
0222
0333
1010
0000
0000
0000
0110
0000
0000
0000
1010
0000
0000
0000
0100
0000
,
1001
0000
0010
0100
1010
0000
0000
0000
1101
0000
0000
0000
0111
0000
1110
0000
,
0000
1011
1110
1101
0000
0111
0000
1110
,
0001
0000
0000
0010
0000
0000
0100
0000
0000
1000
0000
0000
0101
0000
0000
0000
0000
0000
0101
0000
0000
0000
0000
0000
0010
0000
0100
0000
0010
0000
0100
0000
0010
0000
0100
0000
0011
0000
0000
0000
0000
0000
0011
0000
0000
0000
0000
0000
,
1000
0001
1000
0001
1000
0001
1000
0001
2000
0000
0000
0000
0000
0000
0000
0000
0000
0000
0000
0000
0000
0000
0000
0000
0000
0000
0000
0000
0000
0000
0000
0000
,
0000
3021
0000
0230
,
0000
0302
0000
0203
,
0000
0320
0000
0000
,
0000
0000
0000
0032
,
0000
2003
0000
3020
,
0000
0032
0000
2003
,
0000
3200
0000
0000
,
0000
0000
0000
0320
,
0000
1132
0100
0213
,
0010
0321
0001
1230
,
1000
0312
0010
1000
,
0000
0000
0000
1023
,
1000
2031
0001
3210
,
0010
0312
0010
2103
,
0100
3021
0001
0001
,
0000
0000
0000
2032
,
3003
0220
0330
0000
,
0000
0000
0000
0202
,
0303
2020
3030
0000
,
0000
0000
0000
0220
,
0330
2002
3003
0202
,
0303
2020
3030
0220
,
0330
2222
3333
0000
,
0000
0000
0000
0000
,
0000
0000
0000
0000
,
0000
2000
3000
0000
,
0020
0230
0300
0000
0000
0000
0000
0000
0000
0000
0000
0000
2000
3000
0020
0030
,
0200
0000
0300
0000
0000
0000
0000
0000
2222
3333
2222
0000
0000
0000
3333
0000
1001
0000
0000
0000
0000
0000
0000
0000
1001
0000
0000
0000
0000
0000
0000
0000
,
1001
0000
0000
0000
1100
0001
1100
0001
1100
0001
1100
0010
0101
0010
0101
0010
,
0101
1000
0011
1000
0110
1000
0011
1000
0101
0010
1100
0010
0101
0010
1100
0010
,
1001
0010
1100
0001
1100
0001
1100
0010
0101
0010
1001
0110
1001
0110
1001
0110
,
1001
0100
0011
1000
0110
1000
0011
1000
0101
1000
0011
0100
1010
0001
0010
0100
,
1000
0100
0011
0100
1010
0001
0110
0001
1100
0010
1100
0010
1100
0010
1100
0010
,
1100
0010
0101
1000
0110
0001
1100
0010
0101
0010
1001
0100
0011
0100
1010
0001
,
0110
0001
1100
0001
0110
0001
1010
0100
0011
1000
0011
1000
0011
1000
0011
1000
,
0011
1000
0011
0100
0001
1000
0001
1000
0001
1000
0011
1000
0110
0001
1000
0001
,
1000
0001
1000
0001
0110
1000
0011
1000
0110
1000
0011
0100
1010
0100
1010
0100
,
1010
0001
1100
0001
0110
0001
1100
0001
1010
0100
0011
0100
1010
0100
0011
0100
,
1001
0100
0011
1000
0011
1000
0011
0100
0011
0100
1010
0100
1010
0100
1010
0100
,
1010
0001
1100
0001
0110
0001
1100
0001
1010
0001
1100
0010
0101
1000
0110
0001
,
1100
0010
0101
1000
0110
0001
1010
0100
0011
1100
0011
1100
0011
1100
0011
1100
,
0011
0100
0011
0100
1010
0001
0110
0001
1100
0010
0101
1000
0110
0001
1100
0010
,
0101
0010
1100
0001
0110
0001
1100
0010
0101
0010
1100
0001
0110
0001
1010
0100
,
1010
0001
1100
0010
0001
1000
0001
1000
0001
1000
0100
0010
0001
1000
0001
1000
,
0001
1000
0001
1000
0011
0000
0001
0000
2202
3303
0001
0000
0101
0000
0100
0000
,
2202
3303
0001
0000
1001
0000
1000
0000
2220
3330
0100
0000
0101
0000
0001
0000
,
0222
0333
1100
0000
1001
0000
0001
0000
2202
3303
0100
0000
0110
0000
0010
0000
,
2022
3033
1000
0000
1100
0000
0100
0000
0222
0333
0010
0000
1010
0000
1000
0000
,
2221
3330
0110
0000
1001
0000
1000
0000
2202
3303
0001
0000
0011
0000
0010
0000
,
2022
3033
1000
0000
1001
0000
0001
0000
0222
0333
0010
0000
1010
0000
1000
0000
,
2202
3303
1000
0000
1001
0000
0001
0000
2202
3303
0100
0000
0110
0000
0010
0000
,
2202
3303
0001
0000
0101
0000
0000
0000
0000
0000
0000
0000
0000
0000
0000
0000
,
0000
0000
0000
0000
0110
0000
1000
0000
0222
0333
0010
0000
1100
0000
0010
0000
,
2220
3330
0010
0000
1001
0000
0010
0000
2202
3303
0010
0000
0101
0000
1000
0000
,
2202
3303
0101
0000
1010
0000
1000
0000
0222
0333
0100
0000
1010
0000
0001
0000
,
2220
3330
0001
0000
1010
0000
0001
0000
2022
3033
0010
0000
0101
0000
1000
0000
,
2202
3303
0011
0110
1010
0000
0010
0000
0101
0000
1000
0000
0111
0000
1110
0000
,
0000
0111
1110
1101
0000
0111
0000
1110
,
0000
0000
0000
0000
0000
0000
0001
0000
0000
0110
0000
0000
1000
0000
0000
0000
0000
0000
0011
0000
0000
0000
0000
0000
0001
0000
0010
0000
0100
0000
0010
0000
1000
0000
0100
0000
0001
0000
0000
0000
0000
0000
1111
0000
0000
0000
0000
0000
,
0001
0010
0100
1000
0001
1000
0100
0010
0002
0000
0000
0000
0000
0000
0000
0000
0000
0000
0000
0000
0000
0000
0000
0000
0203
0000
0000
0000
0000
0000
0000
0000
,
0000
2000
3002
0003
0320
0000
0000
0000
0000
0000
0000
0000
0000
0000
0000
0000
,
0000
0000
0000
0032
,
0000
2003
0000
0000
,
0000
0000
0000
3200
,
0000
0302
0000
2003
,
0000
3020
0000
0230
,
0000
0320
0000
0000
,
0000
0000
0000
0000
,
0000
0000
0000
0000
,
0000
0000
0000
0000
,
0000
0000
0000
0000
0000
0000
0000
0000
0000
0000
0000
0000
0000
0000
0000
0000
0000
0000
0000
0000
0000
0000
0000
0000
0000
0000
0000
0000
0000
0000
0000
0000
0000
0000
0000
0000
0000
0000
0000
0000
0000
0000
0000
0000
0000
0000
0000
0030
0020
0000
0000
0000
0000
0000
0000
0000
0000
0000
0000
0000
0000
0000
0000
0000
0000
0000
0000
0000
0000
0000
0000
0000
0000
0000
0000
0000
0000
0000
0000
0000
0000
0000
0000
0000
0030
0000
0000
0000
0000
0000
0000
0000
0000
0000
0000
0000
0000
0000
0000
0000
0000
0000
0000
0000
0000
0000
0000
0000
0000
0000
0000
0000
0000
0000
0000
0000
0000
0000
0000
0000
0000
0000
0000
0000
0000
0000
0000
0000
0000
0000
0000
0000
0000
0000
0000
0000
0000
0000
0000
0000
0000
0000
0000
0000
0000
0000
0000
0000
0000
0000
0000
0000
0000
0000
0000
0000
0000
0000
0000
0000
0000
0000
0000
0000
0000
0000
0000
0000
0000
0000
0000
0000
0000
0000
0000
0000
0000
0000
0000
0000
0000
0000
0000
0000
0000
0000
0000
0000
0000
0000
0000
0000
;
