#TITLE:SQUID VS PANTYHOSE;
#SUBTITLE:(feat. M-Project);
#ARTIST:m11dy;
#TITLETRANSLIT:;
#SUBTITLETRANSLIT:;
#ARTISTTRANSLIT:;
#CREDIT:Steps by sidke;
#BANNER:squidvspantyhosebanner.jpg;
#BACKGROUND:squidvspantyhosebg.jpg;
#LYRICSPATH:;
#CDTITLE:;
#MUSIC:SQUID VS PANTYHOSE (feat. M-Project).mp3;
#OFFSET:-1.112;
#SAMPLESTART:53.718;
#SAMPLELENGTH:12.500;
#SELECTABLE:YES;
#BPMS:0.000=90.000,16.000=180.002,48.000=360.004;
#STOPS:;
#BGCHANGES:;
// cache tags:
#FIRSTBEAT:0.000;
#LASTBEAT:776.000;
#SONGFILENAME:Songs/toune 8/[sidke] SQUID VS PANTYHOSE (feat. M-Project)/SQUID VS PANTYHOSE (feat. M-Project).sm;
#HASMUSIC:1;
#HASBANNER:1;
#MUSICLENGTH:146.604;
// end cache tags

//---------------dance-single - Challenge----------------
#NOTES:
     dance-single:
     Challenge:
     Challenge:
     12:
     0.939,1.000,0.355,0.368,0.331,853.000,52.000,54.000,0.000,19.000:

2020
0000
0000
0030
,
3022
0000
0230
0023
,
2332
0000
0000
3000
,
2203
0000
0000
0000
0002
0000
0020
3333
,
0010
0000
0010
0000
0000
0000
0000
0010
0000
0000
0010
0000
0000
0010
0000
0001
,
1000
0000
1000
0000
0000
0000
0000
1000
0000
0000
1000
0000
0000
0100
0000
0010
,
0100
0000
0100
0000
0000
0000
0000
0100
0000
0000
0010
0000
0000
0001
0000
1000
,
0100
0000
0100
0000
0000
0000
0000
0100
0000
0000
0100
0000
0000
0100
0000
0010
,
0001
0000
0010
0000
0000
0000
0000
0010
0000
0000
0010
0000
0000
1000
0000
0100
,
1000
0000
1000
0000
0000
0000
0000
1000
0000
0000
1000
0000
0000
0010
0000
0100
,
0010
0000
0010
0000
0000
0000
0000
0010
0000
0000
0010
0000
0000
0100
0000
0010
,
0100
0000
0100
0000
0000
0000
0000
0010
0000
0000
0010
0000
0000
0010
0000
0100
,
1001
0000
0010
0000
,
0100
0000
0100
0001
,
0000
0000
1000
0000
,
0100
2000
0001
3000
,
0101
0000
0100
0000
,
0010
0000
0010
1000
,
1000
0000
0001
0000
,
0010
0000
0102
0000
,
1013
0000
0010
0000
,
0010
0000
0100
0100
,
0001
0000
1000
0000
,
0100
0000
0001
0000
,
0102
0000
0103
0000
,
0010
0000
0100
0010
,
1201
0320
0000
0030
,
2000
0000
0000
0000
3000
0011
0000
0000
,
1000
0100
0010
0001
,
0100
0010
1000
0100
,
0010
0000
0001
0000
1000
0100
1000
0000
,
1000
0001
0010
0100
,
1000
0010
0100
0001
,
0010
0000
0100
0000
1000
0000
0001
0010
,
0001
1000
0010
0100
,
0001
0000
0010
0000
0100
0000
0010
0000
0000
0000
0000
0010
0001
0000
0010
0000
,
1000
0010
0100
0001
,
1000
0001
0100
0010
,
1000
0000
0100
0000
0010
0100
0001
0000
,
0010
0100
0010
1000
,
0100
0010
0001
0010
,
0100
0000
0000
0000
1000
0000
0001
0000
0010
0100
1000
0100
0010
0001
0010
0100
,
1000
0000
0000
0000
1000
0000
0000
0010
0000
0000
0000
1000
0010
0000
0000
0000
,
0001
0010
0100
1000
0000
1000
0100
0010
,
1000
0100
0010
0001
,
1000
0100
0010
0001
,
0100
0000
0010
0000
0001
0010
0001
0000
,
0100
0000
1000
0000
0100
0010
0100
1000
,
0100
0000
0010
0001
0010
0000
0100
0000
,
1000
0000
0100
0000
0010
0000
0001
0010
,
0001
0100
0010
1000
,
0100
0010
1000
0100
0000
0001
0010
0100
,
1000
0100
0001
0010
,
0100
1000
0010
0100
,
1000
0000
0100
0000
0010
0100
0010
0000
,
1000
0000
0000
0000
0100
0000
0000
0000
0010
0100
1000
0100
0010
0001
0010
0100
,
1000
0000
1000
0100
1000
0000
0001
0010
,
0001
0000
0100
1000
0100
0000
0010
0001
,
0010
0000
1000
0000
,
0100
0000
0001
1000
,
0101
0000
0010
0000
0100
0000
0000
0010
,
1000
0000
0100
0000
1000
0000
0010
0100
,
0001
0000
0010
0000
0001
0000
0000
1000
,
0100
0000
0010
0000
0100
0000
0010
0100
,
0010
0000
0100
0000
0001
0000
0000
0100
,
0010
0000
0001
0000
0100
0000
0010
0100
,
1000
0000
0010
0000
0100
0000
0000
1000
,
0100
0000
0001
0000
1010
0000
0001
0100
,
0010
0000
0100
0000
0010
0000
0000
1000
,
0001
0000
0100
0000
0010
0000
0100
1000
,
0100
0000
0010
0000
0100
0000
0000
0010
,
1000
0000
0001
0000
0100
0000
0001
1000
,
0010
0000
0001
0000
0010
0000
0000
1000
,
0010
0000
0001
0000
0100
0000
0010
0100
,
1000
0000
0001
0000
0010
0000
0000
1000
,
0100
0000
1000
0000
0101
0000
0010
0001
,
1100
0000
0010
0000
0101
0000
0000
0010
,
0100
0000
0001
0000
1010
0000
0001
0100
,
1000
0000
0100
0000
1001
0000
0000
0010
,
0100
0000
0010
0000
1100
0000
0001
0010
,
0100
0000
0010
0000
1001
0000
0000
0100
,
0010
0000
0100
0000
1010
0000
0001
0100
,
0010
0000
1000
0000
0011
0000
0000
1000
,
0010
0000
0001
0000
1100
0000
0010
0100
,
0010
0000
0100
0000
0011
0000
0000
0100
,
1000
0000
0100
0000
1001
0000
0010
0100
,
0010
0000
0100
0000
1010
0000
0000
0100
,
0001
0000
1000
0000
0110
0000
0001
0010
,
0100
0000
0010
0000
1100
0000
0000
1000
,
0001
0000
0100
0000
1001
0000
0010
0100
,
0010
0000
0100
0000
0011
0000
0000
0100
,
1000
0000
0010
0000
1001
0000
0010
0001
,
1100
0000
0001
0000
0010
0000
0000
1000
,
0010
0000
1000
0000
0001
0000
0100
0010
,
1001
0000
0100
0000
0001
0000
0000
0010
,
1000
0000
0100
0000
0001
0000
0010
0100
,
0011
0000
1000
0000
0010
0000
0000
1000
,
0100
0000
0001
0000
0100
0000
0010
1000
,
0110
0000
0001
0000
0100
0000
0000
0010
,
0100
0000
0001
0000
0010
0000
1000
0100
,
1011
0000
0100
0000
0010
0000
0000
0010
,
1000
0000
0001
0000
0100
0000
0010
0001
,
1110
0000
0001
0000
0100
0000
0000
0010
,
1000
0000
0001
0000
0010
0000
0100
1000
,
0111
0000
1000
0000
0010
0000
0000
0010
,
1101
0000
0010
0000
1000
0000
0001
0100
,
0020
0030
2000
0000
0000
3000
0200
0000
,
0000
0000
0000
0300
2002
0000
0000
3003
,
0010
0100
0010
0000
1000
0000
0100
0000
0010
0000
0000
0000
1000
0000
0100
0000
,
0010
0000
0001
0000
0100
0010
0001
0000
,
0010
0100
1000
0000
0200
0000
0310
0100
,
0010
0001
0010
0000
0100
0000
1000
0000
0001
0010
0100
1000
0001
0010
0100
1000
,
0100
0000
0000
0000
1000
0000
0000
0000
0001
0010
0001
0000
1000
0000
0100
0000
,
0010
0000
0000
0000
0001
0000
0010
0000
0100
0000
0000
0000
2000
0000
0000
3000
,
0001
0000
0010
0000
0100
0000
0001
0000
0010
0000
0100
0000
1000
0100
0010
0001
,
1000
0100
0010
0001
1000
0100
0010
0001
1000
0100
0010
0001
1000
0100
0010
0001
,
1000
0000
0100
0000
1000
0000
0000
0000
0100
0010
0100
0000
0001
0000
0000
0000
,
1000
0000
0100
0000
0010
0001
0010
0000
1000
0000
0000
0000
0010
0000
0000
0000
,
0100
0000
0000
0000
0001
0010
0100
1000
0001
0010
0100
1000
0001
0010
0100
1000
,
0001
0000
1000
0000
0002
0000
0000
0000
0103
0000
0010
0000
0001
0010
0100
1000
,
0001
0000
0000
0000
1000
0000
0100
0000
0010
0000
0001
0000
1000
0100
0010
0001
,
1000
0100
0010
0001
0000
0000
0000
0000
2000
0000
0000
0000
0000
0000
0000
0000
,
3100
0010
0001
0010
0100
0000
1000
0000
0100
0000
1000
0000
0100
0000
0010
0000
,
0100
0010
0001
0010
0002
0000
0000
0000
,
0103
0010
0100
1000
,
0001
0010
0100
1000
,
0010
0000
0100
0000
0010
0001
0010
0000
,
1000
0100
0001
0010
,
0100
1000
0100
0010
,
1000
0000
0001
0000
0010
0000
0100
1000
,
0100
0010
0001
0100
,
0010
0000
0100
0000
1000
0100
0010
0001
1000
0100
0010
0001
1000
0000
0100
0000
,
0010
0100
1000
0001
,
0001
0010
0100
1000
0001
0010
0100
1000
0001
0010
0100
1000
0001
0010
0100
1000
,
0001
0000
1000
0000
0010
0100
0010
0000
,
0001
0100
0010
1000
,
0001
0010
0001
0000
1000
0000
1000
0100
,
1000
0000
0010
0100
0010
0000
0002
0000
,
1003
0100
0010
0001
1000
0000
0100
0000
0010
0000
0001
0000
1000
0000
0100
0000
,
0010
0000
0000
0000
,
0110
1000
0010
0100
,
0001
0100
0010
1000
,
0001
0010
0100
1000
0001
0010
0100
1000
0001
0000
0010
0000
0100
0000
0000
0000
,
0010
0000
0001
0000
1000
0100
0010
0100
,
1000
0000
0001
0010
0100
0000
0010
0000
,
0100
0000
1000
0000
0100
0000
0002
0100
,
0013
0001
0100
1000
,
0010
0001
1000
0100
0001
1000
0100
0010
,
0001
0010
0100
0000
1000
0000
0001
0000
0010
0000
0100
0000
1000
0000
0010
0000
,
1000
0100
0010
0001
0100
0010
1000
0100
,
0010
0100
1000
0001
0010
0100
0010
0001
,
0100
0010
1000
0100
0010
0001
0100
0001
,
0010
0100
1000
0001
0010
0100
1000
0100
,
0010
0000
0001
0000
0010
0000
0100
0000
1000
0000
0100
0000
0010
0001
0010
0100
,
2000
0000
3200
0000
,
0000
0000
0000
0000
2300
0000
3020
0030
,
0001
0000
0010
0000
,
1000
0000
0100
0001
,
0010
0000
1000
0000
,
0100
2000
0001
0000
,
3210
0000
1300
0000
,
0100
0000
0010
1000
,
0100
0000
0010
0000
,
0001
0000
1020
0000
,
1230
0000
0310
0000
,
0100
0000
0100
0010
,
0021
0000
1030
0000
,
0010
0000
0100
0000
,
2100
0000
3001
0000
,
1020
0000
1030
0100
,
1002
0000
0123
0000
,
1030
0100
0010
0001
1000
0100
0010
0001
1000
0100
0010
0001
1000
0100
0010
0001
,
2000
0000
0000
0000
,
0000
0000
0000
0000
,
0000
0000
0000
0000
,
0000
0000
0000
0000
,
3022
0000
0000
0000
,
0000
0000
0030
0000
,
0203
0000
0000
0000
,
2300
0000
0000
0000
,
3220
0000
0000
0000
,
0000
0000
0000
0000
,
0000
0000
0000
0000
,
0300
0000
0000
0000
,
0230
0000
0000
0000
,
0000
0000
0000
0000
,
0302
0000
0000
0000
,
0223
0000
0000
0000
,
0000
0000
0000
0000
,
0000
0000
0000
0000
,
0000
0000
0000
0000
,
0000
0000
0000
0000
,
0000
0000
0000
0000
,
0030
0000
0000
0000
,
0300
0000
0000
0000
;
