#TITLE:the shadow;
#SUBTITLE:;
#ARTIST:kors k;
#TITLETRANSLIT:;
#SUBTITLETRANSLIT:;
#ARTISTTRANSLIT:;
#CREDIT:Darkmage;
#BANNER:theshadow-bn.png;
#BACKGROUND:theshadow-bg.png;
#LYRICSPATH:;
#CDTITLE:!darkmagetitle2.png;
#MUSIC:the shadow.ogg;
#OFFSET:1.100;
#SAMPLESTART:12.752;
#SAMPLELENGTH:15.320;
#SELECTABLE:YES;
#BPMS:0.000=156.000,28.000=120.000,29.500=38.000,30.000=624.000,32.000=156.000,63.000=311.999,65.000=156.000,66.000=311.999,68.000=156.000,84.000=312.000,85.000=156.000,91.500=78.000,92.000=156.000,128.000=78.000,129.500=394.499,132.000=156.000,162.500=312.000,163.750=44.500,164.000=156.000,170.500=311.999,171.750=44.500,172.000=156.000,196.000=78.000,212.500=19.500,213.000=39.000,214.000=78.000,216.000=156.000,220.000=312.000,232.000=624.000,248.000=78.000,250.000=7777.000,255.000=156.000,255.250=78.000,255.500=19.500,255.750=39.000,256.000=156.000;
#STOPS:30.000=0.290
,31.000=0.290
;
#BGCHANGES:0.000=theshadow-bg.png=1.000=0=0=1,
99999=-nosongbg-=1.000=0=0=0 // don't automatically add -songbackground-
;
// cache tags:
#FIRSTBEAT:4.000;
#LASTBEAT:331.000;
#SONGFILENAME:Songs/Archmage and Dark0wl Hammer of Thor UltraHyperMegaPack/the shadow/the shadow.sm;
#HASMUSIC:1;
#HASBANNER:1;
#MUSICLENGTH:105.000;
// end cache tags

//---------------dance-single - Darkmage----------------
#NOTES:
     dance-single:
     Darkmage:
     Challenge:
     14:
     1.000,1.000,1.000,0.200,1.000,799.000,132.000,21.000,0.000,0.000:
0000
0000
0000
0000
,
1001
0010
0100
1000
0100
0010
0001
0010
0101
0000
0010
0100
0001
1000
0010
0100
,
1010
0000
0000
0000
0000
0000
1100
0000
0000
0000
0000
0000
0011
0000
0000
0000
0000
0000
0000
0000
1000
0000
0100
0000
1000
0000
0001
0000
0100
0010
0100
0010
,
0100
0000
0000
0000
0000
0000
0010
0000
0000
0100
0000
0000
0001
0000
0000
0100
0000
0000
0010
0000
0000
1000
0000
0000
0010
0000
0000
0100
0000
0000
0001
0000
0000
0100
0000
0000
0010
0000
0000
1000
0000
0000
0001
0000
0100
0000
0001
0000
,
0100
0010
1000
0000
0001
0000
0101
0000
0000
0000
1010
0000
0000
0000
0101
0000
,
1001
0100
0010
1000
0010
0100
0001
0010
0001
0100
0010
0101
0000
0000
0100
0010
,
0101
0000
0000
0110
0000
0000
1010
0000
0000
0000
1000
0100
1000
0010
0100
0001
,
0100
0000
0101
0110
,
1010
0000
0000
0000
0100
0000
0010
0000
1000
0000
0001
0000
0100
0010
1000
0001
1001
0000
0000
0000
1000
0000
0001
0000
1000
0000
0000
0000
0001
0000
1000
0000
,
0001
0000
1000
0001
1000
0000
0001
1000
0001
0000
1000
0001
1000
0000
0001
1000
,
0001
0000
1000
0001
1000
0000
0001
1000
0001
0000
0100
0010
0100
0000
0010
0100
,
0010
0000
0100
0010
0100
0000
0010
0100
0001
0100
0010
1000
0010
0100
0001
0010
,
0100
0000
1000
0010
0100
0000
0001
0100
1001
0000
0100
0010
0100
0000
0010
0100
,
0010
0000
1000
0001
1000
0000
0001
1000
0001
0000
1000
0100
1000
0000
0100
1000
,
1100
0000
1100
0000
0011
0000
0011
0000
0001
0000
0010
0001
0010
0000
0100
1000
,
0100
0000
0000
0000
0010
0000
0001
0000
1000
0000
0000
0000
0010
0100
0010
0100
1001
0000
0010
0000
0100
0000
0000
0000
0002
0000
0000
0000
0000
0000
0000
0000
,
1003
0000
0000
0000
0100
0010
1000
0000
0202
0000
0000
0000
0303
0000
0000
0000
,
1001
0000
0100
0010
1000
0000
0001
0010
0100
0000
1000
0001
0100
0000
0010
0100
,
0001
0000
0010
0100
1000
0000
0001
0100
0010
0000
1000
0100
0010
0000
0100
1000
,
0010
0000
0100
0001
0010
0000
0100
1000
0001
0000
0010
0001
1000
0000
0001
0100
,
0010
1000
0010
1000
0001
0010
0001
0010
0100
0000
1000
0100
0010
0000
0001
0010
,
1100
0000
0000
0000
1000
0100
1000
0000
0001
0010
0100
0000
0010
0001
0010
0000
,
0100
1000
0001
0000
0101
0000
1000
0000
1010
0000
0100
0001
1000
0000
0010
0010
,
1001
0000
0000
0000
0100
0000
0010
0000
1000
0000
0000
0000
0001
0000
0100
0000
0010
0000
0000
0000
1000
0000
0010
0000
0100
0000
0000
0000
0001
0100
0001
0100
,
0010
1010
0110
0001
0101
0101
1020
0130
,
0101
0000
0110
0000
1010
0000
2000
0000
3200
0000
0320
0000
0032
0000
1003
0010
,
1001
0101
0110
0200
0320
2030
3020
0130
,
0101
0000
0000
1010
0000
0000
1100
0000
0000
0020
0000
0000
0032
0000
0000
0023
0000
0000
0230
0000
0000
1300
0100
1000
,
0200
2300
3001
1100
0000
0011
0000
0101
,
1001
0000
0000
0101
0000
0000
0110
0000
1010
0000
0000
1100
0000
0000
0011
0000
,
0101
0000
0000
0110
0000
0000
1010
0000
1100
0000
0000
0011
0000
0000
0101
0000
,
0110
1010
0110
0101
0011
0110
1100
0110
,
1000
0000
0000
0000
0000
0000
0100
0000
0000
0000
0000
0000
1000
0000
0000
0000
0000
0000
0100
0000
0000
0000
0000
0000
0010
0000
0000
0000
0000
0000
0001
0000
0000
0000
0000
0000
0010
0000
0000
0000
0000
0000
0001
0000
0000
0000
0000
0000
1000
0000
0000
0000
0000
0000
0100
0000
0000
0000
0000
0000
1000
0000
0000
0000
0100
0000
0000
0000
0010
0000
0000
0000
0001
0000
0000
0000
0000
0000
0000
0000
0000
0000
0000
0000
0000
0000
0000
0000
0000
0000
0000
0000
0000
0000
0000
0000
0000
0000
0000
0000
0000
0000
0000
0000
0000
0000
0000
0000
0000
0000
0000
0000
0000
0000
0000
0000
0000
0000
0000
0000
0000
0000
0000
0000
0000
0000
0000
0000
0000
0000
0000
0000
0000
0000
0000
0000
0000
0000
0000
0000
0000
0000
0000
0000
0000
0000
0000
0000
0000
0000
0000
0000
0000
0000
0000
0000
0000
0000
0000
0000
0000
0000
0000
0000
0000
0000
0000
0000
0000
0000
0000
0000
0000
0000
0000
0000
0000
0000
0000
0000
0000
0000
0000
0000
0000
0000
0000
0000
0000
0000
0000
0000
,
1001
0000
1000
0001
1000
0000
0001
1000
0001
0000
1000
0001
1000
0000
0001
0100
,
0010
0000
0100
0010
0100
0000
0010
0100
0010
0000
0100
0010
0100
0000
0010
1000
,
0100
0000
0010
0100
0010
0000
0100
0010
0100
0000
0010
0100
0010
0000
0100
0010
,
0001
0010
0001
0010
0100
1000
0100
1000
0001
0000
1000
0010
0100
0000
0010
0100
,
1001
0000
0100
0010
1000
0000
0001
0100
0010
0000
1000
0100
0010
0000
0001
0010
,
0100
0000
0010
0001
0100
0000
0010
1000
0001
0000
0100
0010
1000
0000
0001
0100
,
0010
0000
0100
0001
1000
0000
0100
0010
0001
0000
0100
0010
1000
0000
0001
0100
,
1001
0000
0011
0011
0000
1100
1100
0000
0000
0000
1001
0000
0000
0000
0000
0000
,
1001
0100
1000
0000
0001
0100
0001
0000
1000
0010
1000
0000
0001
0010
0001
0000
,
1000
0100
1000
0000
0001
0010
0001
0000
1000
0010
0100
0000
0000
0000
0000
0000
,
1001
0100
1000
0000
0001
0100
0000
0000
1000
0100
1000
0000
0001
0010
0001
0000
,
1000
0100
1000
0100
0010
0001
0010
0001
1000
0000
0010
0100
0001
0000
0100
0010
,
1001
0000
0000
0000
0100
0000
0010
0000
1000
0000
0000
0000
0101
0000
0000
0000
1010
0000
0000
0000
0100
0000
0010
0000
1000
0000
0000
0000
0001
0010
0100
1000
,
0100
0010
0001
0010
0100
0000
1000
0000
0100
0000
1000
0000
0100
0000
0000
0000
0010
0000
0001
0000
0010
0000
0000
0000
0100
0000
1000
0000
0100
0000
0010
0000
,
1001
0100
1000
0000
0010
0100
0000
0000
0101
0010
1000
0000
1001
0100
0010
1000
,
0101
0010
1000
0100
0010
0001
1000
0010
0100
0010
1000
0001
0010
0000
0000
0000
,
1001
0000
0000
0100
0000
0000
0010
0000
0000
0000
0000
1000
0000
0000
0010
0000
0000
0100
0000
0000
0001
0000
0000
0000
0000
0000
0000
0001
0000
0000
0100
0000
,
0000
0000
0010
0000
0000
0000
0000
0000
1000
0000
0000
0000
0000
0000
0000
0000
0000
0000
0000
0000
0000
0000
0100
0000
0000
0000
0000
0000
0010
0000
0000
0000
0000
0001
0100
0010
1000
0100
0000
0000
0001
0000
0000
0000
0100
0000
0000
0000
0000
0000
0001
0000
0000
0000
0100
0000
0010
0000
0000
0000
1000
0000
0000
0000
,
0000
0000
0001
0000
0000
0000
1000
0000
0100
0000
0000
0000
0010
0000
0000
0000
0000
0000
0100
0000
0000
0000
1000
0000
0001
0000
0000
0000
0010
0000
0000
0000
0000
0000
0100
0000
0000
0000
1000
0000
0010
0000
0000
0000
0100
0000
0000
0000
0000
0000
0001
0000
0000
0000
0010
0000
0100
1000
0100
0000
1000
0000
0000
0000
,
0001
0000
0100
0010
1000
0001
0000
0000
0000
0000
0000
0100
0000
0000
0010
0000
1000
0000
0001
0000
1000
0000
0001
0000
0010
0100
1000
0100
0010
0001
0010
0100
,
1000
0100
0010
0001
1001
0000
0000
0000
1001
0000
0000
0000
0000
0000
0000
0000
1001
0000
0000
0000
0000
0000
0000
0000
0000
0000
0000
0000
0000
0000
0000
0000
,
1001
0000
0000
0000
,
1001
0000
0000
0000
,
1001
0000
0000
0000
,
1001
0000
0000
0000
,
1001
0000
0000
0000
,
1001
0000
0000
0000
,
1001
0000
0000
0000
,
1001
0000
0000
0000
,
1001
0000
1001
0000
1001
1001
1001
1001
0000
0000
0000
0000
0000
0000
0000
0000
,
0000
0000
0000
0000
,
0000
0000
0000
0000
0000
1001
0000
0000
0000
0000
0000
0000
0000
0000
0000
0000
,
0000
0000
0000
0000
0000
0000
0110
0000
0000
0101
0000
0000
0100
0010
1000
0100
,
0000
0010
0001
0000
1000
0010
0000
0010
1000
0000
0011
0000
0000
0000
0100
1000
,
0000
1000
0001
0000
0010
0100
0000
0100
1000
0000
0101
0000
0000
0000
0100
0010
,
0000
0000
0000
0010
0000
0000
0100
0000
0000
0000
0000
0000
0010
0000
1000
0000
0010
0000
1000
0000
0000
0010
0000
0000
0100
0000
0000
0010
0000
0000
1000
0000
0000
0000
0000
0000
0000
0000
0000
0000
0000
0000
1001
0000
0000
0000
0000
0000
,
0110
0000
1000
0010
1001
0100
0010
0000
1000
0010
0000
0000
0000
0000
1000
0100
,
1000
0000
0001
0010
0000
0010
0100
0000
0100
1000
0000
1001
0000
0000
0101
0000
,
0110
0000
1000
0010
0100
0000
0010
0000
0100
0000
0010
0000
1000
0100
1000
0100
,
0010
0001
0010
0001
1100
0000
0110
0000
0011
0000
0110
0000
1100
0000
0110
0000
,
0012
0000
1003
0000
0001
0010
0001
0010
0100
1000
0100
1000
0010
1000
0010
1000
,
0001
0100
0001
0100
0010
1000
0010
1000
0100
1000
0100
1000
0010
0100
0000
0000
,
0010
0100
0001
0010
0001
0100
0010
1000
0100
1000
0010
0100
0001
0010
0100
0010
,
0001
0000
0000
1000
0000
0000
0100
0000
0000
0000
0000
0000
0001
0000
0010
0000
0001
0000
0010
0000
0000
0100
0000
0000
1000
0000
0000
0010
0000
0000
0100
0000
0000
0001
0000
0000
0010
0000
0000
0001
0000
0000
0100
0000
0000
0010
0000
0000
,
1000
0100
1000
0010
0110
0000
1010
0000
0101
0000
0011
0000
0110
0000
1010
0000
,
0101
0000
0011
0000
0000
0000
1100
0000
0000
0000
0011
0000
1100
0000
0000
0001
,
0100
0001
0000
0100
0010
0100
0000
0010
0001
0010
0000
1000
0100
1000
0000
0100
,
0010
1000
0000
0001
0010
1000
0000
0100
1000
0001
0000
0100
0010
0001
0000
1000
,
0010
0100
0000
0001
1001
0000
0000
0100
0000
0000
0010
0000
1000
0000
0001
0000
,
0000
0100
0000
0000
2002
0000
0000
0000
0000
0000
0000
0000
3003
0000
0000
0000
;
