#TITLE:Fascination MAXX;
#SUBTITLE:;
#ARTIST:100-200-400;
#TITLETRANSLIT:;
#SUBTITLETRANSLIT:;
#ARTISTTRANSLIT:;
#CREDIT:;
#BANNER:Fascination MAXX.png;
#BACKGROUND:Fascination MAXX-bg.png;
#LYRICSPATH:;
#CDTITLE:./CDTitles/Dance Dance Revolution SuperNOVA.png;
#MUSIC:Fascination MAXX.mp3;
#OFFSET:-0.088;
#SAMPLESTART:19.770;
#SAMPLELENGTH:12.000;
#SELECTABLE:YES;
#DISPLAYBPM:*;
#BPMS:0.000=100.000,16.000=400.000,80.000=200.000,82.000=400.000,98.000=200.000,99.000=400.000,110.000=200.000,111.000=200.000,111.500=400.000,128.500=200.000,129.500=400.000,138.500=100.000,154.500=200.000,265.250=400.000,377.250=100.000,381.250=200.000,389.250=400.000;
#STOPS:250.500=2.400
,258.167=0.400
;
#BGCHANGES:;
// cache tags:
#FIRSTBEAT:16.000;
#LASTBEAT:412.167;
#SONGFILENAME:Songs/juju steps/Fascination MAXX/Fascination MAXX.sm;
#HASMUSIC:1;
#HASBANNER:1;
#MUSICLENGTH:100.576;
// end cache tags

//---------------dance-single - ----------------
#NOTES:
     dance-single:
     :
     Hard:
     10:
     0.937,1.000,0.159,0.040,1.000,640.000,16.000,4.000,0.000,0.000:

0000
0000
0000
0000
,
0000
0000
0000
0000
,
0000
0000
0000
0000
,
0000
0000
0000
0000
,
1000
0010
0100
0001
,
0100
0010
1000
0100
,
0010
0001
1000
0010
,
1000
0001
0100
0010
,
0100
1000
0100
0001
,
1000
0010
1000
0100
,
0010
0100
1000
0001
,
0010
0100
0001
0100
,
1000
0010
0100
0001
,
1000
0100
1000
0010
,
0100
0001
0100
1000
,
0100
0010
1000
0001
,
0010
0100
1000
0100
,
0001
0100
0010
0001
,
0100
0010
1000
0100
,
1000
0001
0100
0010
,
0100
0000
1001
0000
0010
0000
1000
0100
,
1000
0000
0001
0000
1000
0010
1000
0000
,
0100
0000
0010
0001
0010
0000
0100
0000
,
1000
0001
1000
0000
0010
0100
0010
0100
,
0001
0100
0001
0100
0010
0000
1000
0000
,
0001
0100
0001
0000
0010
0000
0100
1000
,
0100
0000
1000
0000
0001
0010
0001
0010
,
0100
1000
0100
1000
0001
0000
0000
0010
,
0000
0001
0010
0001
0000
1000
0000
0100
,
0010
0100
0000
1000
0000
0010
1000
0010
,
0000
0100
0000
0001
1000
0001
0000
0010
,
0100
0010
0100
1000
0100
1000
0100
0010
,
0001
0010
0000
0100
0000
0010
0100
0010
,
0000
0001
0000
1000
0010
1000
0010
0100
,
0001
0100
0001
1000
0001
1000
0010
0100
,
0010
0000
0000
1000
0000
0000
0001
0000
0100
0010
0000
0000
1000
0000
0100
0010
0000
0000
0001
0000
0000
0100
0000
0000
,
0001
0000
0000
0001
0000
0010
0000
1000
0000
0010
0000
0001
0000
0100
0000
1000
0000
0000
0100
0000
0000
0010
0000
0000
,
0100
0000
0000
0001
0000
0010
0000
0100
0000
1001
0000
0000
0000
0000
0000
0100
0000
0001
0000
0010
0000
0001
0000
0100
,
0000
0000
0000
0000
0000
0000
0000
0000
0001
0000
0000
0000
0000
0000
0000
0000
0000
0000
0000
0000
0000
0000
0000
0000
1000
0000
0000
0000
0000
0000
0000
0000
0000
0000
0000
0000
0010
0000
0000
0000
0000
0000
0000
0000
0000
0000
0000
0000
1000
0000
0000
0000
0000
0000
0000
0000
0000
0000
0000
0000
0100
0000
0000
0000
0000
0000
0000
0000
0000
0000
0000
0000
0010
0000
0000
0000
0000
0000
0001
0000
0000
0000
0000
0000
0010
0000
0000
0000
0000
0000
0001
0000
0000
0000
0000
0000
1000
0000
0000
0000
0000
0000
0001
0000
0000
0000
0000
0000
1000
0000
0000
0000
0000
0000
0001
0000
0000
0000
0000
0000
0010
0000
0000
0000
0000
0000
0000
0000
0000
0000
0000
0000
0000
0000
0000
0000
0100
0000
0000
0000
0000
0000
0000
0000
0000
0000
0000
0000
0000
0000
0000
0000
0000
0000
0000
0000
0000
0000
0000
0000
0000
0000
0000
0000
0000
0000
0000
0000
0100
0000
0000
0000
0000
0000
0000
0000
0000
0000
0000
0000
0000
0000
0000
0000
1000
0000
0000
0000
0000
0000
0000
0000
,
0000
0000
0000
1000
0000
0010
0000
0000
0000
0010
0000
0100
0000
0000
0000
0100
0000
0001
0000
0000
0000
0001
0000
0010
,
0000
0000
0000
0010
0000
1000
0000
0000
0000
1000
0000
0000
0001
0000
0000
0100
0000
1000
0000
0000
0000
1000
0000
0001
,
0000
0000
0000
0001
0000
0010
0000
0000
0000
0010
0000
0100
0000
0000
0000
0100
0000
1000
0000
0000
0000
1000
0000
0010
,
0000
0000
0000
0010
0000
0100
0000
0000
0000
0100
0000
0000
1000
0000
0000
0100
0000
0001
0000
0000
0000
0001
0000
1000
,
0000
0000
0000
1000
0000
0100
0000
0000
0000
0100
0000
0010
0000
0000
0000
0010
0000
0100
0000
0000
0000
0100
0000
1000
,
0000
0000
0000
1000
0000
0010
0000
0000
0000
0010
0000
0000
0100
0000
0000
0001
0000
0010
0000
0000
0000
0010
0000
0001
,
0000
0000
0000
0001
0000
0100
0000
0000
0000
0100
0000
1000
0000
0000
0000
1000
0000
0100
0000
0000
0000
0100
0000
0001
,
0000
0000
0000
0001
0000
0010
0000
0000
0000
0010
0000
0000
0100
0000
0000
1000
0000
0100
0000
0000
0000
0100
0000
0010
,
0000
0000
0000
0010
0000
0001
0000
0000
0000
0001
0000
0100
0000
0000
0000
0100
0000
0010
0000
0000
0000
0010
0000
1000
,
0000
0000
0000
1000
0000
0100
0000
0000
0000
0100
0000
0000
0001
0000
0000
0100
0000
1000
0000
0000
0000
1000
0000
0010
,
0000
0000
0000
0010
0000
0100
0000
0000
0000
0100
0000
0001
0000
0000
0000
0001
0000
0010
0000
0000
0000
0010
0000
0001
,
0000
0000
0000
0001
0000
0000
0100
0000
0000
0010
0000
0000
1000
0000
0000
0100
0000
1000
0000
0000
0000
0001
0000
0010
,
0000
0000
0000
1000
0000
0010
0000
0000
0000
0001
0000
1000
0000
0000
0000
0001
0000
0100
0000
0000
0000
0001
0000
0010
,
0000
0000
0000
0100
0000
1000
0000
0000
0000
0010
0000
0000
0100
0000
0000
0001
0000
1000
0000
0000
0000
0100
0000
1000
,
0000
0000
0000
0010
0000
0100
0000
0000
0000
1000
0000
0100
0000
0000
0000
0001
0000
0100
0000
0000
0000
0010
0000
1000
,
0000
0000
0000
0100
0000
0010
0000
0000
0000
0100
0000
0000
1000
0000
0000
0010
0000
0100
0000
0000
0000
0010
0000
1000
,
0000
0000
0000
0001
0000
0100
0000
0000
0000
0001
0000
0000
0010
0000
0000
0100
0000
1000
0000
0000
0000
0001
0000
0100
,
0000
0000
0000
0010
0000
0100
0000
0000
0000
0001
0000
0000
1000
0000
0000
0100
0000
0010
0000
0000
0000
0001
0000
0000
,
1000
0000
0000
0100
0000
0000
1000
0000
0000
0001
0000
0100
0000
0000
0000
0010
0000
0000
1000
0000
0000
0001
0000
0000
,
1000
0000
0000
0010
0000
0100
0000
0000
0000
0001
0000
0000
0010
0000
0000
0001
0000
0000
0100
0000
0000
0010
0000
1000
,
0000
0000
0000
0001
0000
1000
0000
0000
0000
0100
0000
1000
0000
0000
0000
0001
0000
0010
0000
0000
0000
0001
0000
0000
,
1000
0000
0000
0010
0000
0000
0100
0000
0000
0001
0000
0000
0010
0000
0000
0100
0000
0010
0000
0000
0000
0001
0000
0100
,
0000
0000
0000
0010
0000
0100
0000
0000
0000
1000
0000
0000
0100
0000
0000
0001
0000
0000
0010
0000
0000
0100
0000
1000
,
0000
0000
0000
0010
0000
0000
0100
0000
0000
0001
0000
0000
0100
0000
0000
0010
0000
1000
0000
0100
0000
0010
0000
0100
,
0000
1000
0000
0010
0000
0100
0000
0010
0000
1000
0000
0001
0000
0010
0000
0100
0000
1000
0000
0001
0000
0100
0000
0010
,
0000
0100
0000
0001
0000
0010
0000
0001
0000
1000
0000
0010
0000
1000
0000
0100
0000
0010
0000
0001
0000
0010
0000
0100
,
0000
1000
0000
0100
0000
0001
0000
0100
0000
1000
0000
0010
0000
0001
0000
0010
0000
1000
0000
0001
0000
0100
0000
0010
,
0000
1000
0000
0100
0000
0010
0000
0001
0000
0000
0000
0000
0000
1000
0000
0000
0000
0000
0000
0010
0000
0000
0100
0000
,
0000
0010
0000
0000
0100
0000
0000
0010
0000
0000
0000
0000
0000
1000
0000
0000
0000
0000
0000
0001
0000
0000
0100
0000
,
0000
0001
0000
0000
0100
0000
0000
0001
0000
0000
0000
0000
0000
0010
0000
0000
0000
0000
0000
0100
0000
0000
1000
0000
,
0000
0100
0000
0000
1000
0000
0000
0100
0000
0000
0000
0000
0000
1000
0000
0000
0000
0000
0000
0010
0000
0000
0100
0000
,
0000
0010
0000
0000
0100
0000
0000
0010
0000
0000
0000
0000
0000
1000
0000
0000
0000
0000
0000
0001
0000
0000
0010
0000
,
0000
0001
0000
0000
0010
0000
0000
0001
0000
0000
0000
0000
0000
0100
0000
0000
0000
0000
0000
0010
0000
0000
1000
0000
,
0000
0010
0000
0000
1000
0000
0000
0010
0000
0000
0000
0000
0000
0100
0000
0000
0000
0000
0000
0001
0000
0000
1000
0000
,
0000
0001
0000
0000
1000
0000
0000
0001
0000
0000
0000
0000
0000
0010
0000
0000
0000
0000
0000
0100
0000
0000
1000
0000
,
0000
0100
0000
0000
1000
0000
0000
0100
0000
0000
0000
0000
0000
1000
0000
0000
0000
0000
0000
0001
0000
0000
0010
0000
,
0000
0001
0000
0000
1000
0000
0000
0001
0000
0000
0000
0000
0000
0100
0000
0000
0000
0000
0000
0010
0000
0000
0100
0000
,
0000
1000
0000
0000
0100
0000
0000
0010
0000
0000
0000
0000
0000
1000
0000
0000
0000
0000
0000
0100
0000
0000
0010
0000
,
0000
0100
0000
0000
1000
0000
0000
0100
0000
0000
0000
0000
0000
0010
0000
0000
0000
0000
0000
0001
0000
0000
0010
0000
,
0000
0001
0000
0000
0100
0000
0000
0001
0000
0000
0000
0000
0000
1000
0000
0000
0000
0000
0000
0010
0000
0000
0100
0000
,
0000
0010
0000
0000
0001
0000
0000
0010
0000
0000
0000
0000
0000
0100
0000
0000
0000
0000
0000
0001
0000
0000
1000
0000
,
0000
0001
0000
0000
0100
0000
0000
0001
0000
0000
0000
0000
0000
1000
0000
0000
0000
0000
0000
0100
0000
0000
0001
0000
,
0000
0100
0000
0000
0010
0000
0000
0100
0000
0000
0000
0000
0000
1000
0000
0000
0000
0000
0000
0010
0000
0000
0100
0000
,
0000
0001
0000
0000
0000
0000
0000
1001
0000
0000
0000
0000
0000
0010
0000
0000
0000
0000
0000
1000
0000
0000
0000
0000
,
0000
0101
0000
0000
0000
0000
0000
1000
0000
0000
0000
0000
0000
0100
0000
0000
0000
0000
0000
0011
0000
0000
0000
0000
,
0000
0100
0000
0000
0000
0000
0000
0001
0000
0000
0000
0000
0000
1010
0000
0000
0000
0000
0000
0001
0000
0000
0000
0000
,
0000
1000
0000
0000
0000
0000
0000
0110
0000
0000
0000
0000
0000
0001
0000
0000
0000
0000
0000
0010
0000
0000
0000
0000
,
0000
0101
0000
0000
0000
0000
0000
1000
0000
0000
0000
0000
0000
0010
0000
0000
0000
0000
0000
0100
0000
0000
0000
0000
,
0000
1001
0000
0000
0000
0000
0000
0001
0000
0000
0000
0000
0000
0010
0000
0000
0000
0000
0000
1100
0000
0000
0000
0000
,
0000
0010
0000
0000
0000
0000
0000
1000
0000
0000
0000
0000
0000
0101
0000
0000
0000
0000
0000
0010
0000
0000
0000
0000
,
0000
0100
0000
0000
0000
0000
0000
1001
0000
0000
0000
0000
0000
0100
0000
0000
0000
0000
0000
0001
0000
0000
0000
0000
,
0000
1010
0000
0000
0000
0000
0000
0001
0000
0000
0000
0000
0000
1000
0000
0000
0000
0000
0000
0100
0000
0000
0000
0000
,
0000
0011
0000
0000
0000
0000
0000
1000
0000
0000
0000
0000
0000
0010
0000
0000
0000
0000
0000
0101
0000
0000
0000
0000
,
0000
1000
0000
0000
0000
0000
0000
0001
0000
0000
0000
0000
0000
0110
0000
0000
0000
0000
0000
0001
0000
0000
0000
0000
,
0000
1000
0000
0000
0000
0000
0000
0010
0000
0000
0100
0000
0000
0001
0000
0000
1000
0000
0000
0100
0000
0000
0010
0000
,
0000
0000
0001
0000
0000
0000
0000
0000
1000
0000
0000
0000
0000
0000
0010
0000
0000
0010
0000
0000
1000
0000
0000
0001
0000
0000
0001
0000
0000
1000
0000
0000
0100
0000
0000
0100
0000
0000
0010
0000
0000
0001
0000
0000
1000
0000
0000
1000
,
0000
0000
0010
0000
0000
0100
0000
0000
0100
0000
0000
0010
0000
0000
1000
0000
0000
0000
0000
0000
0000
0000
0000
0000
0000
0000
0001
0000
0000
0000
0000
0000
0100
0000
0000
0000
0000
0000
0001
0000
0000
0000
0000
0000
1000
0000
0000
0000
,
0000
0010
0000
0000
0100
0000
0000
0000
0000
0000
0001
0000
0000
1000
0000
0000
0100
0000
0000
1000
0000
0000
0001
0000
,
0000
0100
0000
0000
0000
0000
0000
0010
0000
0000
1000
0000
0000
0010
0000
0000
1000
0000
0000
0020
0000
0000
0000
0000
,
0000
0030
0000
0000
0000
0000
0000
0100
0000
0000
0010
0000
0000
0200
0000
0000
0000
0000
0000
0300
0000
0000
0000
0000
,
0000
0001
0000
0000
0100
0000
0000
0002
0000
0000
0000
0000
0000
0003
0000
0000
0000
0000
0000
0010
0000
0000
0001
0000
,
0000
1000
0000
0000
0010
0000
0000
0100
0000
0000
0001
0000
0000
1000
0000
0000
0100
0000
0000
0010
0000
0000
0100
0000
,
0000
1000
0000
0000
0010
0000
0000
0200
0000
0000
0000
0000
0000
0000
0000
0000
0000
0000
0000
0000
0000
0000
0000
0000
,
0000
0000
0000
0000
0300
0000
0000
0001
0000
0000
0010
0000
0000
0100
0000
0000
1000
0000
0000
0010
0000
0000
0100
0000
,
0000
0001
0000
0000
0000
0000
0000
0000
0000
0000
0000
0000
0000
0000
0000
0000
0000
0000
0000
0000
0000
0000
0000
0000
;

//---------------dance-double - ----------------
#NOTES:
     dance-double:
     :
     Hard:
     10:
     0.898,1.000,0.010,0.030,1.000,628.000,1.000,3.000,0.000,0.000:






00000000
00000000
00000000
00000000
,
00000000
00000000
00000000
00000000
,
00000000
00000000
00000000
00000000
,
00000000
00000000
00000000
00000000
,
10000000
00100000
01000000
00010000
,
00001000
00010000
00001000
00000010
,
00000001
00000010
00000100
00000001
,
00000010
00000100
00010000
00001000
,
01000000
00010000
10000000
00010000
,
00100000
10000000
00010000
01000000
,
10000000
01000000
00010000
00001000
,
00000010
00000100
00001000
00000001
,
00000100
00000010
00000100
00000001
,
00000010
00001000
00010000
00100000
,
10000000
01000000
00100000
00010000
,
01000000
00100000
10000000
00010000
,
00100000
01000000
00010000
00001000
,
00000100
00000010
00000100
00001000
,
00010000
00100000
00010000
00001000
,
00000010
00000001
00000100
00000010
,
00000100
00000000
00001001
00000000
00000010
00000000
00010000
00001000
,
00010000
00000000
00001000
00000000
01000000
00001000
01000000
00000000
,
00100000
00000000
10000000
00010000
10000000
00000000
01000000
00000000
,
00100000
00010000
00100000
00000000
00001000
00000000
00010000
00000000
,
00000100
00000010
00000100
00000010
00000001
00000000
00001000
00000000
,
00000001
00000100
00000001
00000000
00000010
00000000
00001000
00010000
,
00001000
00000000
01000000
00000000
00100000
10000000
00100000
00000000
,
01000000
00010000
01000000
00010000
10000000
00000000
00000000
01000000
,
00000000
00100000
00010000
00100000
00000000
10000000
00000000
00100000
,
01000000
00100000
00000000
00001000
00000000
00010000
00000010
00010000
,
00000000
00001000
00000000
00000010
00000001
00000010
00000000
00000100
,
00000000
00001000
00000010
00001000
00000000
00000001
00000010
00000001
,
00000010
00000100
00000000
00001000
00000000
00000010
00000100
00000010
,
00000000
00001000
00000000
00010000
01000000
00010000
00000000
10000000
,
00000000
01000000
00100000
01000000
00100000
00010000
00001000
00010000
,
00100000
00000000
00000000
01000000
00000000
00000000
00000000
00000000
10000000
01000000
00000000
00000000
00000000
00000000
00010000
00001000
00000000
00000000
00000010
00000000
00000000
00000001
00000000
00000000
,
00000000
00000000
00000000
00001000
00000000
00000010
00000000
00001000
00000000
00000100
00000000
00000001
00000000
00000100
00000000
00001000
00000000
00000000
00000001
00000000
00000000
00000010
00000000
00000000
,
00000100
00000000
00000000
00000010
00000000
00001000
00000000
00010000
00000000
00001000
00000000
00000000
00000000
00000000
00000000
00100000
00000000
00010000
00000000
01000000
00000000
00100000
00000000
10000000
,
00000000
00000000
01000000
00000000
00000000
00000000
10000000
00000000
00000000
00100000
00000000
00000000
01000000
00000000
00000000
00010000
00000000
00000000
01000000
00000000
00000000
00100000
00000000
00000000
10000000
00000000
00000000
01000000
00000000
00000000
00010000
00000000
00000000
00000000
00000000
00000000
00000000
00000000
00000000
00000000
00000000
00000000
00001000
00000000
00000000
00000000
00000000
00000000
,
00000100
00000010
00010000
00000100
00000010
00000001
00000100
00000010
,
00000000
00001000
00000000
00000001
00000010
00001000
00010000
00001000
,
00000100
00001000
00010000
00100000
00000000
10000000
00000000
00010000
,
01000000
00100000
01000000
00001000
00010000
00100000
10000000
01000000
,
00000000
00010000
00000000
00001000
00000100
00000001
00000010
00001000
,
00010000
00100000
00010000
00001000
00000000
00000010
00000000
00000100
,
00001000
00000010
00010000
00001000
00100000
00010000
01000000
00001000
,
00000000
00010000
00000000
00100000
10000000
01000000
00010000
00001000
,
00100000
01000000
10000000
00010000
00000000
00001000
00000000
00000010
,
00000100
00000001
00000010
00000100
00001000
00000010
00010000
00001000
,
00000000
00100000
00000000
00010000
01000000
00100000
00010000
00001000
,
00000010
00001000
00010000
00001000
00000100
00000001
00000010
00001000
,
00000001
00000100
00001000
00010000
01000000
10000000
01000000
00100000
,
10000000
01000000
00100000
00001000
00010000
00100000
00010000
00001000
,
00000100
00000001
00001000
00000100
00010000
00000010
00000100
00000001
,
00000010
00001000
00010000
01000000
00010000
00001000
00010000
00100000
,
10000000
00010000
01000000
00100000
10000000
01000000
00010000
00001000
,
00000010
00000001
00000100
00001000
00010000
00100000
10000000
00010000
,
00100000
00010000
00100000
01000000
10000000
00010000
01000000
00010000
,
01000000
00001000
00010000
00000100
00000010
00000100
00000010
00000001
,
00000010
00000100
00001000
00000100
00000010
00000001
00000100
00001000
,
00010000
00000010
00001000
00000100
00010000
00000010
00001000
00000100
,
00000010
00001000
00010000
00100000
10000000
01000000
00010000
00001000
,
00000100
00000000
00000000
00000001
00000000
00000000
00000010
00000000
00000000
00000100
00000000
00000000
00001000
00000000
00000000
00000001
00000000
00000100
00000000
00000001
00000000
00000010
00000000
00001000
,
00000000
00000010
00000000
00001000
00000000
00010000
00000000
00001000
00000000
00100000
00000000
00010000
00000000
00100000
00000000
00010000
00000000
10000000
00000000
00010000
00000000
01000000
00000000
00100000
,
00000000
01000000
00000000
00100000
00000000
00010000
00000000
00100000
00000000
00010000
00000000
00001000
00000000
00000100
00000000
00000010
00000000
00000100
00000000
00000001
00000000
00000010
00000000
00000001
,
00000000
00001000
00000000
00000010
00000000
00001000
00000000
00000001
00000000
00000100
00000000
00000001
00000000
00001000
00000000
00000100
00000000
00001000
00000000
00000010
00000000
00010000
00000000
00000010
,
00000000
00001000
00000000
00000001
00000000
00001000
00000000
00000100
00000000
00000000
00000000
00000000
00000000
00000010
00000000
00000000
00000000
00000000
00000000
00000001
00000000
00000000
00000100
00000000
,
00000000
00000001
00000000
00000000
00000100
00000000
00000000
00000001
00000000
00000000
00000000
00000000
00000000
00000010
00000000
00000000
00000000
00000000
00000000
00001000
00000000
00000000
00010000
00000000
,
00000000
00001000
00000000
00000000
00010000
00000000
00000000
00001000
00000000
00000000
00000000
00000000
00000000
00010000
00000000
00000000
00000000
00000000
00000000
00100000
00000000
00000000
10000000
00000000
,
00000000
00100000
00000000
00000000
10000000
00000000
00000000
00100000
00000000
00000000
00000000
00000000
00000000
01000000
00000000
00000000
00000000
00000000
00000000
00010000
00000000
00000000
10000000
00000000
,
00000000
00010000
00000000
00000000
10000000
00000000
00000000
00010000
00000000
00000000
00000000
00000000
00000000
00100000
00000000
00000000
00000000
00000000
00000000
00001000
00000000
00000000
00010000
00000000
,
00000000
00001000
00000000
00000000
00010000
00000000
00000000
00001000
00000000
00000000
00000000
00000000
00000000
00000100
00000000
00000000
00000000
00000000
00000000
00000001
00000000
00000000
00000010
00000000
,
00000000
00000001
00000000
00000000
00000010
00000000
00000000
00000001
00000000
00000000
00000000
00000000
00000000
00000100
00000000
00000000
00000000
00000000
00000000
00000010
00000000
00000000
00001000
00000000
,
00000000
00000010
00000000
00000000
00001000
00000000
00000000
00000010
00000000
00000000
00000000
00000000
00000000
00010000
00000000
00000000
00000000
00000000
00000000
00001000
00000000
00000000
00100000
00000000
,
00000000
00001000
00000000
00000000
00100000
00000000
00000000
00001000
00000000
00000000
00000000
00000000
00000000
00010000
00000000
00000000
00000000
00000000
00000000
00100000
00000000
00000000
10000000
00000000
,
00000000
00100000
00000000
00000000
10000000
00000000
00000000
00100000
00000000
00000000
00000000
00000000
00000000
01000000
00000000
00000000
00000000
00000000
00000000
00001000
00000000
00000000
00010000
00000000
,
00000000
00001000
00000000
00000000
00010000
00000000
00000000
00001000
00000000
00000000
00000000
00000000
00000000
00000100
00000000
00000000
00000000
00000000
00000000
00000001
00000000
00000000
00000010
00000000
,
00000000
00000001
00000000
00000000
00000010
00000000
00000000
00000001
00000000
00000000
00000000
00000000
00000000
00001000
00000000
00000000
00000000
00000000
00000000
00000100
00000000
00000000
00010000
00000000
,
00000000
00000100
00000000
00000000
00010000
00000000
00000000
00000100
00000000
00000000
00000000
00000000
00000000
00000010
00000000
00000000
00000000
00000000
00000000
00000001
00000000
00000000
00001000
00000000
,
00000000
00000001
00000000
00000000
00001000
00000000
00000000
00000001
00000000
00000000
00000000
00000000
00000000
00000100
00000000
00000000
00000000
00000000
00000000
00001000
00000000
00000000
00010000
00000000
,
00000000
00001000
00000000
00000000
00010000
00000000
00000000
00001000
00000000
00000000
00000000
00000000
00000000
01000000
00000000
00000000
00000000
00000000
00000000
00010000
00000000
00000000
00100000
00000000
,
00000000
00010000
00000000
00000000
00100000
00000000
00000000
00010000
00000000
00000000
00000000
00000000
00000000
10000000
00000000
00000000
00000000
00000000
00000000
00100000
00000000
00000000
01000000
00000000
,
00000000
00100000
00000000
00000000
01000000
00000000
00000000
00100000
00000000
00000000
00000000
00000000
00000000
00010000
00000000
00000000
00000000
00000000
00000000
00001000
00000000
00000000
00000000
00000000
,
00000000
00000010
00000000
00000000
00000001
00000000
00000000
00001000
00000000
00000000
00000000
00000000
00000000
00000010
00000000
00000000
00000000
00000000
00000000
00000100
00000000
00000000
00000001
00000000
,
00000000
00001000
00000000
00000000
00000000
00000000
00000000
00000100
00000000
00000000
00000000
00000000
00000000
00000010
00000000
00000000
00000001
00000000
00000000
00000010
00000000
00000000
00000001
00000000
,
00000000
00000010
00000000
00000000
00000001
00000000
00000000
00000100
00000000
00000000
00000000
00000000
00000000
00001000
00000000
00000000
00000000
00000000
00000000
00010000
00000000
00000000
00000000
00000000
,
00000000
00100000
00000000
00000000
10000000
00000000
00000000
00010000
00000000
00000000
00000000
00000000
00000000
01000000
00000000
00000000
00000000
00000000
00000000
00001000
00000000
00000000
00000000
00000000
,
00000000
00100000
00000000
00000000
00010000
00000000
00000000
01000000
00000000
00000000
00000000
00000000
00000000
00100000
00000000
00000000
00000000
00000000
00000000
10000000
00000000
00000000
01000000
00000000
,
00000000
10000000
00000000
00000000
00000000
00000000
00000000
00010000
00000000
00000000
00000000
00000000
00000000
00100000
00000000
00000000
00001000
00000000
00000000
00100000
00000000
00000000
00001000
00000000
,
00000000
00100000
00000000
00000000
00001000
00000000
00000000
00010000
00000000
00000000
00000000
00000000
00000000
00000100
00000000
00000000
00000000
00000000
00000000
00000010
00000000
00000000
00000000
00000000
,
00000000
00000001
00000000
00000000
00001000
00000000
00000000
00000010
00000000
00000000
00000000
00000000
00000000
00000100
00000000
00000000
00000000
00000000
00000000
00000001
00000000
00000000
00000000
00000000
,
00000000
00001000
00000000
00000000
00000100
00000000
00000000
00010000
00000000
00000000
00000000
00000000
00000000
00100000
00000000
00000000
00000000
00000000
00000000
00010000
00000000
00000000
00001000
00000000
,
00000000
01000000
00000000
00000000
00000000
00000000
00000000
00100000
00000000
00000000
00000000
00000000
00000000
10000000
00000000
00000000
00010000
00000000
00000000
10000000
00000000
00000000
00010000
00000000
,
00000000
10000000
00000000
00000000
00000000
00000000
00000000
01000000
00000000
00000000
00100000
00000000
00000000
01000000
00000000
00000000
00100000
00000000
00000000
00001000
00000000
00000000
00010000
00000000
,
00000000
00000000
00001000
00000000
00000000
00000000
00000000
00000000
00010000
00000000
00000000
00000000
00000000
00000000
00000010
00000000
00000000
00000010
00000000
00000000
00001000
00000000
00000000
00000100
00000000
00000000
00000100
00000000
00000000
00010000
00000000
00000000
00100000
00000000
00000000
00100000
00000000
00000000
01000000
00000000
00000000
00010000
00000000
00000000
00100000
00000000
00000000
00100000
,
00000000
00000000
00001000
00000000
00000000
00000100
00000000
00000000
00000100
00000000
00000000
00000010
00000000
00000000
00001000
00000000
00000000
00000000
00000000
00000000
00000000
00000000
00000000
00000000
00000000
00000000
00000100
00000000
00000000
00000000
00000000
00000000
00000010
00000000
00000000
00000000
00000000
00000000
00000100
00000000
00000000
00000000
00000000
00000000
00010000
00000000
00000000
00000000
,
00000000
00000010
00000000
00000000
00000100
00000000
00000000
00000000
00000000
00000000
00000001
00000000
00000000
00000010
00000000
00000000
00001000
00000000
00000000
00010000
00000000
00000000
01000000
00000000
,
00000000
10000000
00000000
00000000
00000000
00000000
00000000
00010000
00000000
00000000
00100000
00000000
00000000
00010000
00000000
00000000
00100000
00000000
00000000
00010000
00000000
00000000
00000000
00000000
,
00000000
01000000
00000000
00000000
00001000
00000000
00000000
02000000
00000000
00000000
00000000
00000000
00000000
00000000
00000000
00000000
00000000
00000000
00000000
03000000
00000000
00000000
00000000
00000000
,
00000000
00001000
00000000
00000000
00010000
00000000
00000000
00002000
00000000
00000000
00000000
00000000
00000000
00003000
00000000
00000000
00000000
00000000
00000000
00000010
00000000
00000000
00000001
00000000
,
00000000
00000010
00000000
00000000
00000001
00000000
00000000
00001000
00000000
00000000
00000100
00000000
00000000
00001000
00000000
00000000
00000100
00000000
00000000
00010000
00000000
00000000
00001000
00000000
,
00000000
00010000
00000000
00000000
00001000
00000000
00000000
00020000
00000000
00000000
00000000
00000000
00000000
00000000
00000000
00000000
00000000
00000000
00000000
00000000
00000000
00000000
00000000
00000000
,
00000000
00000000
00000000
00000000
00030000
00000000
00000000
00100000
00000000
00000000
10000000
00000000
00000000
00100000
00000000
00000000
10000000
00000000
00000000
00010000
00000000
00000000
00100000
00000000
,
00000000
00010000
00000000
00000000
00000000
00000000
00000000
00000000
00000000
00000000
00000000
00000000
00000000
00000000
00000000
00000000
00000000
00000000
00000000
00000000
00000000
00000000
00000000
00000000
;
