#TITLE:Tarantula;
#SUBTITLE:;
#ARTIST:Pendulum ft. DJ Fresh, $pyda & Tenor Fly;
#TITLETRANSLIT:;
#SUBTITLETRANSLIT:;
#ARTISTTRANSLIT:;
#CREDIT:;
#BANNER:tarantulabn.png;
#BACKGROUND:tarantulabg.png;
#LYRICSPATH:;
#CDTITLE:;
#MUSIC:tarantula.ogg;
#OFFSET:0.009;
#SAMPLESTART:237.240;
#SAMPLELENGTH:22.070;
#SELECTABLE:YES;
#BPMS:0.000=174.000;
#STOPS:;
#BGCHANGES:;
// cache tags:
#FIRSTBEAT:64.000;
#LASTBEAT:813.333;
#SONGFILENAME:Songs/Pendulum/Tarantula/tarantula.sm;
#HASMUSIC:1;
#HASBANNER:1;
#MUSICLENGTH:280.000;
// end cache tags

//---------------dance-single - I. Pyles----------------
#NOTES:
     dance-single:
     I. Pyles:
     Beginner:
     1:
     0.024,0.071,0.000,0.000,0.000,48.000,0.000,0.000,0.000,0.000:

0000
0000
0000
0000
,
0000
0000
0000
0000
,
0000
0000
0000
0000
,
0000
0000
0000
0000
,
0000
0000
0000
0000
,
0000
0000
0000
0000
,
0000
0000
0000
0000
,
0000
0000
0000
0000
,
0000
0000
0000
0000
,
0000
0000
0000
0000
,
0000
0000
0000
0000
,
0000
0000
0000
0000
,
0000
0000
0000
0000
,
0000
0000
0000
0000
,
0000
0000
0000
0000
,
0000
0000
0000
0000
,
0100
0000
0000
0000
,
0000
0000
0000
0000
,
0000
0000
0000
0000
,
0000
0000
0000
0000
,
0010
0000
0000
0000
,
0000
0000
0000
0000
,
0000
0000
0000
0000
,
0000
0000
0000
0000
,
0100
0000
0000
0000
,
0000
0000
0000
0000
,
0000
0000
0000
0000
,
0000
0000
0000
0000
,
0010
0000
0000
0000
,
0000
0000
0000
0000
,
0100
0000
0000
0000
,
0000
0000
0000
0000
,
1000
0000
0000
0000
,
0000
0000
0000
0000
,
0000
0000
0000
0000
,
0000
0000
0000
0000
,
1000
0000
0000
0000
,
0000
0000
0000
0000
,
0000
0000
0000
0000
,
0000
0000
0000
0000
,
0100
0000
0000
0000
,
0000
0000
0000
0000
,
0000
0000
0000
0000
,
0000
0000
0000
0000
,
0100
0000
0000
0000
,
0000
0000
0000
0000
,
0000
0000
0000
0000
,
0000
0000
0000
0000
,
1000
0000
0000
0000
,
0000
0000
0000
0000
,
0000
0000
0000
0000
,
0000
0000
0000
0000
,
1000
0000
0000
0000
,
0000
0000
0000
0000
,
0000
0000
0000
0000
,
0000
0000
0000
0000
,
0010
0000
0000
0000
,
0000
0000
0000
0000
,
0000
0000
0000
0000
,
0000
0000
0000
0000
,
1000
0000
0000
0000
,
0000
0000
0000
0000
,
0000
0000
0000
0000
,
0000
0000
0000
0000
,
0100
0000
0000
0000
,
0000
0000
0000
0000
,
0000
0000
0000
0000
,
0000
0000
0000
0000
,
0010
0000
0000
0000
,
0000
0000
0000
0000
,
0000
0000
0000
0000
,
0000
0000
0000
0000
,
0100
0000
0000
0000
,
0000
0000
0000
0000
,
0000
0000
0000
0000
,
0000
0000
0000
0000
,
0100
0000
0000
0000
,
0000
0000
0000
0000
,
0000
0000
0000
0000
,
0000
0000
0000
0000
,
0100
0000
0000
0000
,
0000
0000
0000
0000
,
0000
0000
0000
0000
,
0000
0000
0000
0000
,
0010
0000
0000
0000
,
0000
0000
0000
0000
,
0000
0000
0000
0000
,
0000
0000
0000
0000
,
0100
0000
0000
0000
,
0000
0000
0000
0000
,
0000
0000
0000
0000
,
0000
0000
0000
0000
,
1000
0000
0000
0000
,
0000
0000
0000
0000
,
0000
0000
0000
0000
,
0000
0000
0000
0000
,
0010
0000
0000
0000
,
0000
0000
0000
0000
,
0000
0000
0000
0000
,
0000
0000
0000
0000
,
0100
0000
0000
0000
,
0000
0000
0000
0000
,
0000
0000
0000
0000
,
0000
0000
0000
0000
,
0100
0000
0000
0000
,
0000
0000
0000
0000
,
0000
0000
0000
0000
,
0000
0000
0000
0000
,
0100
0000
0000
0000
,
0000
0000
0000
0000
,
0000
0000
0000
0000
,
0000
0000
0000
0000
,
0010
0000
0000
0000
,
0000
0000
0000
0000
,
0000
0000
0000
0000
,
0000
0000
0000
0000
,
1000
0000
0000
0000
,
0000
0000
0000
0000
,
0000
0000
0000
0000
,
0000
0000
0000
0000
,
1000
0000
0000
0000
,
0000
0000
0000
0000
,
0000
0000
0000
0000
,
0000
0000
0000
0000
,
0100
0000
0000
0000
,
0000
0000
0000
0000
,
0000
0000
0000
0000
,
0000
0000
0000
0000
,
0010
0000
0000
0000
,
0000
0000
0000
0000
,
0000
0000
0000
0000
,
0000
0000
0000
0000
,
0100
0000
0000
0000
,
0000
0000
0000
0000
,
0000
0000
0000
0000
,
0000
0000
0000
0000
,
0100
0000
0000
0000
,
0000
0000
0000
0000
,
0000
0000
0000
0000
,
0000
0000
0000
0000
,
0010
0000
0000
0000
,
0000
0000
0000
0000
,
0000
0000
0000
0000
,
0000
0000
0000
0000
,
1000
0000
0000
0000
,
0000
0000
0000
0000
,
0000
0000
0000
0000
,
0000
0000
0000
0000
,
1000
0000
0000
0000
,
0000
0000
0000
0000
,
0000
0000
0000
0000
,
0000
0000
0000
0000
,
1000
0000
0000
0000
,
0000
0000
0000
0000
,
0000
0000
0000
0000
,
0000
0000
0000
0000
,
0010
0000
0000
0000
,
0000
0000
0000
0000
,
0000
0000
0000
0000
,
0000
0000
0000
0000
,
0010
0000
0000
0000
,
0000
0000
0000
0000
,
0000
0000
0000
0000
,
0000
0000
0000
0000
,
0100
0000
0000
0000
,
0000
0000
0000
0000
,
0000
0000
0000
0000
,
0000
0000
0000
0000
,
1000
0000
0000
0000
,
0000
0000
0000
0000
,
0000
0000
0000
0000
,
0000
0000
0000
0000
,
0100
0000
0000
0000
,
0000
0000
0000
0000
,
0000
0000
0000
0000
,
0000
0000
0000
0000
,
0010
0000
0000
0000
,
0000
0000
0000
0000
,
0000
0000
0000
0000
,
0000
0000
0000
0000
,
0010
0000
0000
0000
,
0000
0000
0000
0000
,
0000
0000
0000
0000
,
0000
0000
0000
0000
,
0010
0000
0000
0000
,
0000
0000
0000
0000
,
0000
0000
0000
0000
,
0000
0000
0000
0000
,
0001
0000
0000
0000
,
0000
0000
0000
0000
,
0000
0000
0000
0000
,
0000
0000
0000
0000
,
0010
0000
0000
0000
,
0000
0000
0000
0000
,
0000
0000
0000
0000
,
0000
0000
0000
0000
,
0100
0000
0000
0000
,
0000
0000
0000
0000
,
0000
0000
0000
0000
,
0000
0000
0000
0000
,
0100
0000
0000
0000
;

//---------------dance-single - I. Pyles----------------
#NOTES:
     dance-single:
     I. Pyles:
     Easy:
     9:
     0.610,0.763,0.207,0.375,0.073,1032.000,58.000,105.000,12.000,0.000:



0000
0000
0000
0000
,
0000
0000
0000
0000
,
0000
0000
0000
0000
,
0000
0000
0000
0000
,
0000
0000
0000
0000
,
0000
0000
0000
0000
,
0000
0000
0000
0000
,
0000
0000
0000
0000
,
0000
0000
0000
0000
,
0000
0000
0000
0000
,
0000
0000
0000
0000
,
0000
0000
0000
0000
,
0000
0000
0000
0000
,
0000
0000
0000
0000
,
0000
0000
0000
0000
,
0000
0000
0000
0000
,
1001
0000
0000
0001
0000
1000
0001
0000
0001
0100
0000
0000
,
0001
0000
0000
0010
0000
0100
1000
0000
1000
0001
0000
0000
,
1000
0000
0000
0001
0000
1000
0001
0000
0001
0200
0000
0000
,
0320
0000
2030
0000
,
3001
0000
0000
1000
0000
0001
1000
0000
1000
0100
0000
0000
,
1000
0000
0000
0010
0000
0100
0001
0000
0001
1000
0000
0000
,
0001
0000
0000
0000
0000
0000
1000
0000
0000
0000
0001
0000
1000
0000
0000
0000
1000
0000
0200
0000
0000
0320
0000
0000
,
0032
0000
0000
0000
0203
0000
0000
0300
,
1001
0000
0000
0001
0000
1000
0001
0000
0001
0010
0000
0000
,
0001
0000
0000
0100
0000
0010
2000
0000
0000
3020
0000
0000
,
0230
0000
0000
0301
0000
1000
0001
0000
0001
0020
0000
0000
,
0230
0000
2300
0000
,
3000
0000
0000
0000
,
0000
0000
0000
0000
0000
0000
0000
0000
0000
0000
0000
0000
0001
1000
0001
1000
,
0100
0000
0000
0000
,
0000
0000
0000
0000
,
0001
0000
1000
0010
1000
0000
0001
0000
1000
0000
0001
0010
0001
0000
1000
0000
,
0001
0000
1000
0010
1000
0000
0001
0000
1000
0000
0001
0010
0001
0000
1000
0000
,
0001
1000
0010
0100
0001
1000
0100
0010
,
0001
1000
0001
0000
1000
0010
1000
0000
0001
1000
0001
0000
0200
0000
0300
0000
,
0001
0100
0010
0000
1000
0100
0010
0000
,
0001
1000
0001
1000
0001
1000
0010
0000
,
0100
0001
1000
0001
0100
0001
1000
0001
,
0010
0100
1000
0000
0010
0100
0001
0000
,
1000
0010
0100
0000
0001
0010
0100
0000
,
1000
0001
1000
0001
1000
0001
0100
0000
,
0010
1000
0001
1000
0010
1000
0001
1000
,
0100
0010
0001
0000
0100
0010
1000
0000
,
0001
0100
0010
0000
1000
0100
0010
0000
,
0001
1000
0001
1000
0001
1000
0010
0000
,
0100
0001
1000
0001
0100
0001
1000
0001
,
0010
0100
1000
0000
0010
0100
0001
1000
,
0001
0001
0001
0001
,
0101
0101
0101
0101
,
1010
1010
1010
1010
,
1001
1001
1100
1100
,
1000
0100
0010
0100
0000
1000
0001
0000
,
0200
0000
0302
0023
,
0031
0010
0100
0010
0000
0001
1000
0000
,
0020
0000
0230
0000
0302
0000
0000
0003
,
1000
0100
0010
0100
0000
1000
0001
0000
,
0200
0000
0302
0023
,
0031
0010
0100
0010
0000
0001
1000
0000
,
1020
0030
2001
3000
0102
0000
0000
0003
,
1000
0100
0010
0100
0000
1000
0001
0000
,
0200
0000
0302
0023
,
0031
0010
0100
0010
0000
0001
1000
0000
,
0020
0000
0230
0000
0302
0000
0000
0003
,
1000
0100
1000
0100
0010
0001
0010
0001
,
0100
0010
0100
0010
1000
0001
1000
0001
,
0020
0000
0000
0030
0000
0000
0000
0000
,
0000
0000
0000
0000
,
0001
0010
0100
0010
0001
1000
0010
0000
,
0100
0001
1000
0000
0100
1000
0010
0000
,
1000
0100
0010
0001
0010
0100
0010
0001
,
0100
0001
1000
0000
0100
1000
0010
0000
,
1000
0100
0010
0100
1000
0001
0100
0000
,
0010
1000
0001
0000
0010
0001
0100
0000
,
0001
0010
0100
1000
0100
0010
0100
1000
,
0010
1000
0001
0000
0010
0001
0100
0000
,
0001
0010
0100
0010
0001
1000
0010
0000
,
0100
0001
1000
0000
0100
1000
0010
0000
,
1000
0100
0010
0001
0010
0100
0010
0001
,
0100
0001
1000
0000
0100
1000
0010
0000
,
1000
0100
0010
0100
1000
0100
0010
0100
,
1000
0010
0100
0010
1000
0010
0100
0010
,
1000
0001
0010
0001
1000
0001
0010
0001
,
0100
0010
0100
0001
0010
0100
0010
0000
,
0002
0000
0100
0003
0201
0300
0201
0300
,
0210
0000
0010
0300
2010
3000
1001
0000
,
1000
0001
0010
0001
0100
0001
1000
0001
,
0010
0100
1000
0000
0010
0100
0001
0000
,
1000
0010
0100
0000
0001
0010
0100
0000
,
1000
0001
1000
0001
1000
0001
0100
0000
,
0010
1000
0001
1000
0010
1000
0001
1000
,
0100
0010
0001
0000
0100
0010
1000
0000
,
0001
0100
0010
0000
1000
0100
0010
0000
,
0001
1000
0001
1000
0001
1000
0010
0000
,
0100
0001
1000
0001
0100
0001
1000
0001
,
0010
0100
1000
0000
0010
0100
0001
0000
,
0001
0001
0001
0001
,
0101
0101
0101
0101
,
1010
1010
1010
1010
,
1001
1001
1100
1100
,
1000
0100
0010
0100
0000
1000
0001
0000
,
0200
0000
0302
0023
,
0031
0010
0100
0010
0000
0001
1000
0000
,
0020
0000
0230
0000
0302
0000
0000
0003
,
1000
0100
0010
0100
0000
1000
0001
0000
,
0200
0000
0302
0023
,
0031
0010
0100
0010
0000
0001
1000
0000
,
1020
0030
2001
3000
0102
0000
0000
0003
,
1000
0100
0010
0100
0000
1000
0001
0000
,
0200
0000
0302
0023
,
0031
0010
0100
0010
0000
0001
1000
0000
,
0020
0000
0230
0000
0302
0000
0000
0003
,
1000
0100
1000
0100
0010
0001
0010
0001
,
0100
0010
0100
0010
1000
0001
1000
0001
,
0020
0000
0000
0030
0000
0000
0000
0000
,
0000
0000
0000
0000
,
1000
0001
0001
1000
0001
0001
1000
0000
,
0001
1000
1000
0001
1000
1000
0001
0000
,
1000
0001
0001
1000
0001
0001
1000
0000
,
0001
1000
0010
1000
0001
0010
0001
0100
,
0001
1000
0001
0001
1000
0001
0001
0000
,
1000
0001
1000
1000
0001
1000
1000
0000
,
0001
0000
1000
0010
1000
0000
0010
1000
0000
0001
0010
0000
0001
0000
0100
0000
,
0100
0000
0001
0010
0001
0000
0010
0001
0000
1000
0010
0000
0010
0000
0000
0000
,
1000
0001
0001
1000
0001
0001
1000
0000
,
0001
1000
0010
1000
0001
0010
0010
0000
,
0001
1000
1000
0001
1000
1000
0000
0000
,
1010
0000
0000
1001
0000
0000
0011
0000
,
1000
0000
0001
0100
0001
0000
1000
0000
0001
0000
1000
0100
1000
0000
0001
0000
,
1000
0000
0001
0100
0001
0000
1000
0000
0001
0000
1000
0100
1000
0000
0001
0000
,
1000
0001
0100
0010
1000
0001
0010
0100
,
1000
0001
1000
0000
0001
0100
0001
0000
1000
0001
1000
0000
0020
0000
0030
0000
,
1000
0010
0100
0000
0001
0010
0100
0000
,
1000
0001
1000
0001
1000
0001
0100
0000
,
0010
1000
0001
1000
0010
1000
0001
1000
,
0100
0010
0001
0000
0100
0010
1000
0000
,
0001
0100
0010
0000
1000
0100
0010
0000
,
0001
1000
0001
1000
0001
1000
0010
0000
,
0100
0001
1000
0001
0100
0001
1000
0001
,
0010
0100
1000
0000
0010
0100
0001
0000
,
1000
0010
0100
0000
0001
0010
0100
0000
,
1000
0001
1000
0001
1000
0001
0100
0000
,
0010
1000
0001
1000
0010
1000
0001
1000
,
0100
0010
0001
0000
0100
0010
1000
0001
,
1000
1000
1000
1000
,
1010
1010
1010
1010
,
0101
0101
0101
0101
,
1001
1001
0011
0011
,
0001
0010
0100
0010
0000
0001
1000
0000
,
0020
0000
2030
3200
,
1300
0100
0010
0100
0000
1000
0001
0000
,
0200
0000
0320
0000
2030
0000
0000
3000
,
0001
0010
0100
0010
0000
0001
1000
0000
,
0020
0000
2030
3200
,
1300
0100
0010
0100
0000
1000
0001
0000
,
0201
0300
1002
0003
2010
0000
0000
3000
,
0001
0010
0100
0010
0000
0001
1000
0000
,
0020
0000
2030
3200
,
1300
0100
0010
0100
0000
1000
0001
0000
,
0200
0000
0320
0000
2030
0000
0000
3000
,
0001
0010
0001
0010
0100
1000
0100
1000
,
0010
0100
0010
0100
0001
1000
0001
1000
,
0200
0000
0000
0300
0000
0000
0000
0000
,
0000
0000
0000
0000
,
1000
0100
0010
0100
1000
0001
0100
0000
,
0010
1000
0001
0000
0010
0001
0100
0000
,
0001
0010
0100
1000
0100
0010
0100
1000
,
0010
1000
0001
0000
0010
0001
0100
0000
,
0001
0010
0100
0010
0001
1000
0010
0000
,
0100
0001
1000
0000
0100
1000
0010
0000
,
1000
0100
0010
0001
0010
0100
0010
0001
,
0100
0001
1000
0000
0100
1000
0010
0000
,
1000
0100
0010
0100
1000
0001
0100
0000
,
0010
1000
0001
0000
0010
0001
0100
0000
,
0001
0010
0100
1000
0100
0010
0100
1000
,
0010
1000
0001
0000
0010
0001
0100
0000
,
0001
0010
0100
0010
0001
0010
0100
0010
,
0001
0100
0010
0100
0001
0100
0010
0100
,
0001
1000
0100
1000
0001
1000
0100
1000
,
0010
0100
0010
1000
0100
0010
0100
1000
,
0001
0010
0100
0010
0000
0001
1000
0000
,
0020
0000
2030
3200
,
1300
0100
0010
0100
0000
1000
0001
0000
,
0200
0000
0320
0000
2030
0000
0000
3000
,
0001
0010
0100
0010
0000
0001
1000
0000
,
0020
0000
2030
3200
,
1300
0100
0010
0100
0000
1000
0001
0000
,
1200
0300
1002
0003
2010
0000
0000
3000
,
0001
0010
0100
0010
0000
0001
1000
0000
,
0020
0000
2030
3200
,
1300
0100
0010
0100
0000
1000
0001
0000
,
0200
0000
0320
0000
2030
0000
0000
3000
,
0001
0010
0001
0010
0100
1000
0100
1000
,
0010
0100
0010
0100
0001
1000
0001
1000
,
0020
0000
0000
0030
0000
0000
2000
3002
,
0023
0000
0230
0000
,
0320
0000
0000
0000
,
0000
0000
0000
0000
,
0032
0000
0000
0000
,
2003
0000
0000
0000
,
3020
0000
0000
0000
,
0000
0000
0000
0000
,
0230
0000
0000
0300
,
MMMM
0000
MMMM
0000
MMMM
0000
0000
0000
0000
0000
0000
0000
;

//---------------dance-single - I. Pyles----------------
#NOTES:
     dance-single:
     I. Pyles:
     Medium:
     11:
     0.738,0.944,0.471,0.318,0.284,1225.000,132.000,89.000,12.000,12.000:





0000
0000
0000
0000
,
0000
0000
0000
0000
,
0000
0000
0000
0000
,
0000
0000
0000
0000
,
0000
0000
0000
0000
,
0000
0000
0000
0000
,
0000
0000
0000
0000
,
0000
0000
0000
0000
,
0000
0000
0000
0000
,
0000
0000
0000
0000
,
0000
0000
0000
0000
,
0000
0000
0000
0000
,
0000
0000
0000
0000
,
0000
0000
0000
0000
,
0000
0000
0000
0000
,
0000
0000
0000
0000
,
1001
0000
0000
0001
0000
1000
0001
0000
0001
0100
0000
0000
,
0001
0000
0000
0010
0000
0100
1000
0000
1000
0001
0000
0000
,
1000
0000
0000
0001
0000
1000
0001
0000
0001
0200
0000
0000
,
0320
0000
2030
0000
,
3001
0000
0000
1000
0000
0001
1000
0000
1000
0100
0000
0000
,
1000
0000
0000
0010
0000
0100
0001
0000
0001
1000
0000
0000
,
0001
0000
0000
0000
0000
0000
1000
0000
0000
0000
0001
0000
1000
0000
0000
0000
1000
0000
0200
0000
0000
0320
0000
0000
,
0032
0000
0000
0000
0203
0000
0000
0300
,
1001
0000
0000
0001
0000
1000
0001
0000
0001
0010
0000
0000
,
0001
0000
0000
0100
0000
0010
2000
0000
0000
3020
0000
0000
,
0230
0000
0000
0301
0000
1000
0001
0000
0001
0020
0000
0000
,
0230
0000
2300
0000
,
3000
0000
0000
0000
,
0000
0000
0000
0000
0000
0000
0000
0000
0000
0000
0000
0000
0001
0010
0100
1000
,
0010
0000
0000
0000
,
0000
0000
0000
0000
,
1001
0000
0001
0100
0001
0000
1000
0100
1000
0000
0001
0100
0001
0000
1000
0100
,
1000
0000
0001
0010
0001
0000
1000
0010
1000
0000
0001
0010
0001
0000
1000
0010
,
1000
0001
0100
0010
1000
0001
0010
0100
,
1000
0001
1000
0001
1000
0001
1000
0001
1000
0001
1000
0001
0200
0000
0300
0000
,
0001
0100
0010
0000
1000
0100
0010
0000
,
0001
1000
0001
1000
0001
1000
0010
0000
,
0100
0001
1000
0001
0100
0001
1000
0001
,
0010
0100
1000
0000
0010
0100
0001
0000
,
1000
0010
0100
0000
0001
0010
0100
0000
,
1000
0001
1000
0001
1000
0001
0100
0000
,
0010
1000
0001
1000
0010
1000
0001
1000
,
0100
0010
0001
0000
0100
0010
1000
0000
,
0001
0000
1000
0000
1001
0000
0001
1000
0100
1000
0100
0000
0010
0000
0000
0000
,
0100
0000
1000
0000
1001
0000
0001
0010
0100
0010
0100
0000
1000
0000
0001
0000
,
1000
0000
0001
0000
1001
0000
1000
0001
0100
0001
0100
0000
0010
0000
0000
0000
,
0100
0000
0001
0000
1001
0000
1000
0010
0100
0010
0100
0000
0001
0000
1000
0000
,
0001
0001
0001
0001
,
0101
0101
0101
0101
,
1010
1010
1010
1010
,
1001
1001
1100
1100
,
1000
0000
0001
0000
1001
0000
1000
0001
0010
0001
0010
0000
0100
0000
0000
0000
,
0010
0000
0001
0000
1001
0000
1000
0100
0010
0100
0010
0000
0001
0000
1000
0000
,
0001
0000
1000
0000
1001
0000
0001
1000
0010
1000
0010
0000
0200
0000
0000
0000
,
0302
0023
0230
0000
,
1300
0000
0001
0000
1001
0000
1000
0001
0010
0001
0010
0000
0100
0000
0000
0000
,
0010
0000
0001
0000
1001
0000
1000
0100
0010
0100
0010
0000
0001
0000
1000
0000
,
0001
0000
1000
0000
1001
0000
0001
1000
0010
1000
0010
0000
0200
0000
0000
0000
,
1320
0000
2031
0000
3012
0000
0000
0003
,
1000
0100
0010
0100
0000
1000
0001
0000
,
0200
0000
0302
0023
,
0031
0010
0100
0010
0000
0001
1000
0000
,
0020
0000
0230
0000
0302
0000
0000
0003
,
1000
0100
1000
0100
0010
0001
0010
0001
,
0100
0010
0100
0010
1000
0001
1000
0001
,
0020
0000
0000
0030
0000
0000
0000
0000
,
0000
0000
0000
0000
,
0001
0010
0100
0010
0001
1000
0010
0000
,
0100
0001
1000
0000
0100
1000
0010
0000
,
1000
0100
0010
0001
0010
0100
0010
0001
,
0100
0001
1000
0000
0100
1000
0010
0000
,
1000
0000
0001
0000
1001
0000
1000
0001
0010
0001
0010
0000
0100
0000
0000
0000
,
0010
0000
0001
0000
1001
0000
1000
0100
0010
0100
0010
0000
0001
0000
1000
0000
,
0001
0000
1000
0000
1001
0000
0001
1000
0010
1000
0010
0000
0100
0000
0000
0000
,
0010
0000
1000
0000
1001
0000
0001
0100
0010
0100
0010
0000
1000
0000
0001
0000
,
1000
0000
0001
0000
1001
0000
1000
0001
0010
0001
0010
0000
0100
0000
0000
0000
,
0010
0000
0001
0000
1001
0000
1000
0100
0010
0100
0010
0000
0001
0000
1000
0000
,
0001
0000
1000
0000
1001
0000
0001
1000
0010
1000
0010
0000
0100
0000
0000
0000
,
0010
0000
1000
0000
1001
0000
0001
0100
0010
0100
0010
0000
1000
0000
0001
0000
,
1000
0100
0010
0100
1000
0100
0010
0100
,
1000
0010
0100
0010
1000
0010
0100
0010
,
1000
0001
0010
0001
1000
0001
0010
0001
,
0100
0010
0100
0001
0010
0100
0010
0000
,
0002
0000
0100
0003
0201
0300
0201
0300
,
0210
0000
0010
0300
2010
3000
1001
0000
,
1000
0001
0010
0001
0100
0001
1000
0001
,
0010
0100
1000
0000
0010
0100
0001
0000
,
1000
0010
0100
0000
0001
0010
0100
0000
,
1000
0001
1000
0001
1000
0001
0100
0000
,
0010
1000
0001
1000
0010
1000
0001
1000
,
0100
0010
0001
0000
0100
0010
1000
0000
,
0001
0000
1000
0000
1001
0000
0001
1000
0100
1000
0100
0000
0010
0000
0000
0000
,
0100
0000
1000
0000
1001
0000
0001
0010
0100
0010
0100
0000
1000
0000
0001
0000
,
1000
0000
0001
0000
1001
0000
1000
0001
0100
0001
0100
0000
0010
0000
0000
0000
,
0100
0000
0001
0000
1001
0000
1000
0010
0100
0010
0100
0000
0001
0000
1000
0000
,
0001
0001
0001
0001
,
0101
0101
0101
0101
,
1010
1010
1010
1010
,
1001
1001
1100
1100
,
1000
0000
0001
0000
1001
0000
1000
0001
0010
0001
0010
0000
0100
0000
0000
0000
,
0010
0000
0001
0000
1001
0000
1000
0100
0010
0100
0010
0000
0001
0000
1000
0000
,
0001
0000
1000
0000
1001
0000
0001
1000
0010
1000
0010
0000
0200
0000
0000
0000
,
0302
0023
0230
0000
,
1300
0000
0001
0000
1001
0000
1000
0001
0010
0001
0010
0000
0100
0000
0000
0000
,
0010
0000
0001
0000
1001
0000
1000
0100
0010
0100
0010
0000
0001
0000
1000
0000
,
0001
0000
1000
0000
1001
0000
0001
1000
0010
1000
0010
0000
0200
0000
0000
0000
,
1320
0000
2031
0000
3012
0000
0000
0003
,
1000
0100
0010
0100
0000
1000
0001
0000
,
0200
0000
0302
0023
,
0031
0010
0100
0010
0000
0001
1000
0000
,
0020
0000
0230
0000
0302
0000
0000
0003
,
1000
0100
1000
0100
0010
0001
0010
0001
,
0100
0010
0100
0010
1000
0001
1000
0001
,
0020
0000
0000
0030
0000
0000
0000
0000
,
0000
0000
0000
0000
,
1000
0001
1001
1000
0001
1001
1000
0000
,
0001
1000
1001
0001
1000
1001
0001
0000
,
1000
0001
1001
1000
0001
1001
1000
0000
,
0001
1000
1010
1000
0001
0011
0001
0100
,
0001
1000
1001
0001
1000
1001
0001
0000
,
1000
0001
1001
1000
0001
1001
1001
0000
,
0001
0000
1000
0010
1000
0000
0010
1000
0000
0001
0010
0000
0001
0000
0100
0000
,
0100
0000
0001
0010
0001
0000
0010
0001
0000
1000
0010
0000
0010
0000
0000
0000
,
1000
0001
1001
1000
0001
1001
1000
0000
,
0001
1000
1010
1000
0001
0011
0011
0000
,
1000
0001
1001
1000
0001
1001
0000
0000
,
1010
0000
0000
1001
0000
0000
0011
0000
,
1001
0000
1000
0010
1000
0000
0001
0010
0001
0000
1000
0010
1000
0000
0001
0010
,
0001
0000
1000
0100
1000
0000
0001
0100
0001
0000
1000
0100
1000
0000
0001
0100
,
0001
1000
0010
0100
0001
1000
0100
0010
,
0001
1000
0001
1000
0001
1000
0001
1000
0001
1000
0001
1000
0020
0000
0030
0000
,
1000
0010
0100
0000
0001
0010
0100
0000
,
1000
0001
1000
0001
1000
0001
0100
0000
,
0010
1000
0001
1000
0010
1000
0001
1000
,
0100
0010
0001
0000
0100
0010
1000
0000
,
0001
0100
0010
0000
1000
0100
0010
0000
,
0001
1000
0001
1000
0001
1000
0010
0000
,
0100
0001
1000
0001
0100
0001
1000
0001
,
0010
0100
1000
0000
0010
0100
0001
0000
,
1000
0000
0001
0000
1001
0000
1000
0001
0010
0001
0010
0000
0100
0000
0000
0000
,
0010
0000
0001
0000
1001
0000
1000
0100
0010
0100
0010
0000
0001
0000
1000
0000
,
0001
0000
1000
0000
1001
0000
0001
1000
0010
1000
0010
0000
0100
0000
0000
0000
,
0010
0000
1000
0000
1001
0000
0001
0100
0010
0100
0010
0000
1000
0000
0001
0000
,
1000
1000
1000
1000
,
1010
1010
1010
1010
,
0101
0101
0101
0101
,
1001
1001
0011
0011
,
0001
0000
1000
0000
1001
0000
0001
1000
0100
1000
0100
0000
0010
0000
0000
0000
,
0100
0000
1000
0000
1001
0000
0001
0010
0100
0010
0100
0000
1000
0000
0001
0000
,
1000
0000
0001
0000
1001
0000
1000
0001
0100
0001
0100
0000
0020
0000
0000
0000
,
2030
3200
0320
0000
,
0031
0000
1000
0000
1001
0000
0001
1000
0100
1000
0100
0000
0010
0000
0000
0000
,
0100
0000
1000
0000
1001
0000
0001
0010
0100
0010
0100
0000
1000
0000
0001
0000
,
1000
0000
0001
0000
1001
0000
1000
0001
0100
0001
0100
0000
0020
0000
0000
0000
,
0231
0000
1302
0000
2103
0000
0000
3000
,
0001
0010
0100
0010
0000
0001
1000
0000
,
0020
0000
2030
3200
,
1300
0100
0010
0100
0000
1000
0001
0000
,
0200
0000
0320
0000
2030
0000
0000
3000
,
0001
0010
0001
0010
0100
1000
0100
1000
,
0010
0100
0010
0100
0001
1000
0001
1000
,
0200
0000
0000
0300
0000
0000
0000
0000
,
0000
0000
0000
0000
,
1000
0100
0010
0100
1000
0001
0100
0000
,
0010
1000
0001
0000
0010
0001
0100
0000
,
0001
0010
0100
1000
0100
0010
0100
1000
,
0010
1000
0001
0000
0010
0001
0100
0000
,
0001
0000
1000
0000
1001
0000
0001
1000
0100
1000
0100
0000
0010
0000
0000
0000
,
0100
0000
1000
0000
1001
0000
0001
0010
0100
0010
0100
0000
1000
0000
0001
0000
,
1000
0000
0001
0000
1001
0000
1000
0001
0100
0001
0100
0000
0010
0000
0000
0000
,
0100
0000
0001
0000
1001
0000
1000
0010
0100
0010
0100
0000
0001
0000
1000
0000
,
0001
0000
1000
0000
1001
0000
0001
1000
0100
1000
0100
0000
0010
0000
0000
0000
,
0100
0000
1000
0000
1001
0000
0001
0010
0100
0010
0100
0000
1000
0000
0001
0000
,
1000
0000
0001
0000
1001
0000
1000
0001
0100
0001
0100
0000
0010
0000
0000
0000
,
0100
0000
0001
0000
1001
0000
1000
0010
0100
0010
0100
0000
0001
0000
1000
0000
,
0001
0010
0100
0010
0001
0010
0100
0010
,
0001
0100
0010
0100
0001
0100
0010
0100
,
0001
1000
0100
1000
0001
1000
0100
1000
,
0010
0100
0010
1000
0100
0010
0100
1000
,
0001
0000
1000
0000
1001
0000
0001
1000
0100
1000
0100
0000
0010
0000
0000
0000
,
0100
0000
1000
0000
1001
0000
0001
0010
0100
0010
0100
0000
1000
0000
0001
0000
,
1000
0000
0001
0000
1001
0000
1000
0001
0100
0001
0100
0000
0020
0000
0000
0000
,
2030
3200
0320
0000
,
0031
0000
1000
0000
1001
0000
0001
1000
0100
1000
0100
0000
0010
0000
0000
0000
,
0100
0000
1000
0000
1001
0000
0001
0010
0100
0010
0100
0000
1000
0000
0001
0000
,
1000
0000
0001
0000
1001
0000
1000
0001
0100
0001
0100
0000
0020
0000
0000
0000
,
0231
0000
1302
0000
2103
0000
0000
3000
,
0001
0010
0100
0010
0000
0001
1000
0000
,
0020
0000
2030
3200
,
1300
0100
0010
0100
0000
1000
0001
0000
,
0200
0000
0320
0000
2030
0000
0000
3000
,
0001
0010
0001
0010
0100
1000
0100
1000
,
0010
0100
0010
0100
0001
1000
0001
1000
,
0020
0000
0000
0030
0000
0000
2000
3002
,
0023
0000
0230
0000
,
0320
0000
0000
0000
,
0000
0000
0000
0000
,
0032
0000
0000
0000
,
2003
0000
0000
0000
,
3020
0000
0000
0000
,
0000
0000
0000
0000
,
0230
0000
0000
0300
,
MMMM
0000
MMMM
0000
MMMM
0000
0000
0000
0000
0000
0000
0000
;

//---------------dance-single - I. Pyles----------------
#NOTES:
     dance-single:
     I. Pyles:
     Hard:
     13:
     0.998,1.000,0.507,0.232,1.000,1750.000,142.000,65.000,12.000,12.000:







0000
0000
0000
0000
,
0000
0000
0000
0000
,
0000
0000
0000
0000
,
0000
0000
0000
0000
,
0000
0000
0000
0000
,
0000
0000
0000
0000
,
0000
0000
0000
0000
,
0000
0000
0000
0000
,
0000
0000
0000
0000
,
0000
0000
0000
0000
,
0000
0000
0000
0000
,
0000
0000
0000
0000
,
0000
0000
0000
0000
,
0000
0000
0000
0000
,
0000
0000
0000
0000
,
0000
0000
0000
0000
,
1001
0000
0000
0001
0000
1000
0001
0000
0001
0100
0000
0000
,
0001
0000
0000
0010
0000
0100
1000
0000
1000
0001
0000
0000
,
1000
0000
0000
0001
0000
1000
0001
0000
0001
0200
0000
0000
,
0320
0000
2030
0000
,
3001
0000
0000
1000
0000
0001
1000
0000
1000
0100
0000
0000
,
1000
0000
0000
0010
0000
0100
0001
0000
0001
1000
0000
0000
,
0001
0000
0000
0000
0000
0000
1000
0000
0000
0000
0001
0000
1000
0000
0000
0000
1000
0000
0200
0000
0000
0320
0000
0000
,
0032
0000
0000
0000
0203
0000
0000
0300
,
1001
0000
0000
0001
0000
1000
0001
0000
0001
0010
0000
0000
,
0001
0000
0000
0100
0000
0010
2000
0000
0000
3020
0000
0000
,
0230
0000
0000
0301
0000
1000
0001
0000
0001
0020
0000
0000
,
0230
0000
2300
0000
,
3000
0000
0000
0000
,
0000
0000
0000
0000
0000
0000
0000
0000
0000
0000
0000
0000
0001
0010
0100
1000
,
0010
0000
0000
0000
,
0000
0000
0000
0000
,
1001
0000
0001
0100
0001
0000
1000
0100
1000
0000
0001
0100
0001
0000
1000
0100
,
1000
0000
0001
0010
0001
0000
1000
0010
1000
0000
0001
0010
0001
0000
1000
0010
,
1000
0001
0100
0010
1000
0001
0010
0100
,
1000
0001
1000
0001
1000
0001
1000
0001
1000
0001
1000
0001
0200
0000
0300
0000
,
0001
0000
1000
0000
1001
0000
0001
1000
0100
1000
0100
0000
0010
0000
0000
0000
,
0100
0000
1000
0000
1001
0000
0001
0010
0100
0010
0100
0000
1000
0000
0001
0000
,
1000
0000
0001
0000
1001
0000
1000
0001
0100
0001
0100
0000
0010
0000
0000
0000
,
0100
0000
0001
0000
1001
0000
1000
0010
0100
0010
0100
0000
0001
0000
1000
0000
,
0001
0000
1000
0000
1001
0000
0001
1000
0100
1000
0100
0000
0010
0000
0000
0000
,
0100
0000
1000
0000
1001
0000
0001
0010
0100
0010
0100
0000
1000
0000
0001
0000
,
1000
0000
0001
0000
1001
0000
1000
0001
0100
0001
0100
0000
0010
0000
0000
0000
,
0100
0000
0001
0000
1001
0000
1000
0010
0100
0010
0100
0000
0001
0000
1000
0000
,
0001
0010
0100
0010
0001
1000
0100
1000
0010
1000
0100
1000
0001
0100
0010
1000
,
0010
0100
0001
1000
0001
0010
0001
0100
0001
1000
0001
0100
0001
0010
0100
1000
,
0001
0100
0010
0100
0001
1000
0010
1000
0100
1000
0010
1000
0001
0010
0100
1000
,
0100
0010
0001
1000
0001
0100
0001
0010
0001
1000
0001
0010
0001
0100
0010
1000
,
0001
0001
0001
0001
,
0101
0101
0101
0101
,
1010
1010
1010
1010
,
1001
1001
1100
1100
,
1000
0000
0001
0000
1001
0000
1000
0001
0010
0001
0010
0000
0100
0000
0000
0000
,
0010
0000
0001
0000
1001
0000
1000
0100
0010
0100
0010
0000
0001
0000
1000
0000
,
0001
0000
1000
0000
1001
0000
0001
1000
0010
1000
0010
0000
0200
0000
0000
0000
,
0302
0023
0230
0000
,
1300
0000
0001
0000
1001
0000
1000
0001
0010
0001
0010
0000
0100
0000
0000
0000
,
0010
0000
0001
0000
1001
0000
1000
0100
0010
0100
0010
0000
0001
0000
1000
0000
,
0001
0000
1000
0000
1001
0000
0001
1000
0010
1000
0010
0000
0200
0000
0000
0000
,
1320
0000
2031
0000
3012
0000
0000
0003
,
1000
0100
0010
0100
1000
0001
0010
0001
0100
0001
0010
0001
1000
0010
0100
0001
,
0100
0010
1000
0001
1000
0100
1000
0010
1000
0001
1000
0010
1000
0100
0010
0001
,
1000
0010
0100
0010
1000
0001
0100
0001
0010
0001
0100
0001
1000
0100
0010
0001
,
0010
0100
1000
0001
1000
0010
1000
0100
1000
0001
1000
0100
1000
0010
0100
0001
,
1000
0001
0010
0100
1000
0100
1000
0100
1000
0001
0100
0010
1000
0010
1000
0010
,
1000
0100
0010
0001
0010
0001
0010
0001
1000
0010
0100
0001
0100
0001
0100
0001
,
0020
0000
0000
0030
0000
0000
0000
0000
,
0000
0000
0000
0000
,
0001
0000
1000
0000
1001
0000
0001
1000
0100
1000
0100
0000
0010
0000
0000
0000
,
0100
0000
1000
0000
1001
0000
0001
0010
0100
0010
0100
0000
1000
0000
0001
0000
,
1000
0000
0001
0000
1001
0000
1000
0001
0100
0001
0100
0000
0010
0000
0000
0000
,
0100
0000
0001
0000
1001
0000
1000
0010
0100
0010
0100
0000
0001
0000
1000
0000
,
0001
0000
1000
0000
1001
0000
0001
1000
0100
1000
0100
0000
0010
0000
0000
0000
,
0100
0000
1000
0000
1001
0000
0001
0010
0100
0010
0100
0000
1000
0000
0001
0000
,
1000
0000
0001
0000
1001
0000
1000
0001
0100
0001
0100
0000
0010
0000
0000
0000
,
0100
0000
0001
0000
1001
0000
1000
0010
0100
0010
0100
0000
0001
0000
1000
0000
,
0001
0010
0100
0010
0001
1000
0100
1000
0010
1000
0100
1000
0001
0100
0010
1000
,
0010
0100
0001
1000
0001
0010
0001
0100
0001
1000
0001
0100
0001
0010
0100
1000
,
0001
0100
0010
0100
0001
1000
0010
1000
0100
1000
0010
1000
0001
0010
0100
1000
,
0100
0010
0001
1000
0001
0100
0001
0010
0001
1000
0001
0010
0001
0100
0010
1000
,
0001
0100
0010
1000
0001
1000
0010
1000
0010
1000
0010
1000
0001
0010
0100
1000
,
0001
0100
0001
0100
0010
0100
0001
0100
0001
0100
0001
0100
0010
1000
0001
0010
,
0100
1000
0100
1000
0001
1000
0100
1000
0100
1000
0100
1000
0001
1000
0100
1000
,
0010
0100
0001
0010
0100
0010
0001
0010
0100
1000
0010
1000
0001
1000
0010
1000
,
0002
0000
0100
0003
0201
0300
0201
0300
,
0210
0000
0010
0300
2010
3000
1001
0000
,
1000
0000
0001
0000
1001
0000
1000
0001
0010
0001
0010
0000
0100
0000
0000
0000
,
0010
0000
0001
0000
1001
0000
1000
0100
0010
0100
0010
0000
0001
0000
1000
0000
,
0001
0000
1000
0000
1001
0000
0001
1000
0010
1000
0010
0000
0100
0000
0000
0000
,
0010
0000
1000
0000
1001
0000
0001
0100
0010
0100
0010
0000
1000
0000
0001
0000
,
1000
0000
0001
0000
1001
0000
1000
0001
0010
0001
0010
0000
0100
0000
0000
0000
,
0010
0000
0001
0000
1001
0000
1000
0100
0010
0100
0010
0000
0001
0000
1000
0000
,
0001
0010
0100
0010
0001
1000
0100
1000
0010
1000
0100
1000
0001
0100
0010
1000
,
0010
0100
0001
1000
0001
0010
0001
0100
0001
1000
0001
0100
0001
0010
0100
1000
,
0001
0100
0010
0100
0001
1000
0010
1000
0100
1000
0010
1000
0001
0010
0100
1000
,
0100
0010
0001
1000
0001
0100
0001
0010
0001
1000
0001
0010
0001
0100
0010
1000
,
0001
0001
0001
0001
,
1001
1001
1001
1001
,
1100
1100
1100
1100
,
1001
1001
0101
0101
,
0001
0000
1000
0000
1001
0000
0001
1000
0100
1000
0100
0000
0010
0000
0000
0000
,
0100
0000
1000
0000
1001
0000
0001
0010
0100
0010
0100
0000
1000
0000
0001
0000
,
1000
0000
0001
0000
1001
0000
1000
0001
0100
0001
0100
0000
0020
0000
0000
0000
,
2030
3200
0320
0000
,
0031
0000
1000
0000
1001
0000
0001
1000
0100
1000
0100
0000
0010
0000
0000
0000
,
0100
0000
1000
0000
1001
0000
0001
0010
0100
0010
0100
0000
1000
0000
0001
0000
,
1000
0000
0001
0000
1001
0000
1000
0001
0100
0001
0100
0000
0020
0000
0000
0000
,
0231
0000
1302
0000
2103
0000
0000
3000
,
0001
0010
0100
0010
0001
1000
0100
1000
0010
1000
0100
1000
0001
0100
0010
1000
,
0010
0100
0001
1000
0001
0010
0001
0100
0001
1000
0001
0100
0001
0010
0100
1000
,
0001
0100
0010
0100
0001
1000
0010
1000
0100
1000
0010
1000
0001
0010
0100
1000
,
0100
0010
0001
1000
0001
0100
0001
0010
0001
1000
0001
0010
0001
0100
0010
1000
,
0001
1000
0100
0010
0001
0010
0001
0010
0001
1000
0010
0100
0001
0100
0001
0100
,
0001
0010
0100
1000
0100
1000
0100
1000
0001
0100
0010
1000
0010
1000
0010
1000
,
0200
0000
0000
0300
0000
0000
0000
0000
,
0000
0000
0000
0000
,
1000
0001
1001
1000
0001
1001
1000
0000
,
0001
1000
1001
0001
1000
1001
0001
0000
,
1000
0001
1001
1000
0001
1001
1000
0000
,
0001
1000
1010
1000
0001
0011
0001
0100
,
0001
1000
1001
0001
1000
1001
0001
0000
,
1000
0001
1001
1000
0001
1001
1001
0000
,
0001
0000
1000
0010
1000
0000
0010
1000
0000
0001
0010
0000
0001
0000
0100
0000
,
0100
0000
0001
0010
0001
0000
0010
0001
0000
1000
0010
0000
0010
0000
0000
0000
,
1000
0001
1001
1000
0001
1001
1000
0000
,
0001
1000
1010
1000
0001
0011
0011
0000
,
1000
0001
1001
1000
0001
1001
0000
0000
,
1010
0000
0000
1001
0000
0000
0011
0000
,
1001
0000
1000
0010
1000
0000
0001
0010
0001
0000
1000
0010
1000
0000
0001
0010
,
0001
0000
1000
0100
1000
0000
0001
0100
0001
0000
1000
0100
1000
0000
0001
0100
,
0001
1000
0010
0100
0001
1000
0100
0010
,
0001
1000
0001
1000
0001
1000
0001
1000
0001
1000
0001
1000
0020
0000
0030
0000
,
1000
0000
0001
0000
1001
0000
1000
0001
0010
0001
0010
0000
0100
0000
0000
0000
,
0010
0000
0001
0000
1001
0000
1000
0100
0010
0100
0010
0000
0001
0000
1000
0000
,
0001
0000
1000
0000
1001
0000
0001
1000
0010
1000
0010
0000
0100
0000
0000
0000
,
0010
0000
1000
0000
1001
0000
0001
0100
0010
0100
0010
0000
1000
0000
0001
0000
,
1000
0000
0001
0000
1001
0000
1000
0001
0010
0001
0010
0000
0100
0000
0000
0000
,
0010
0000
0001
0000
1001
0000
1000
0100
0010
0100
0010
0000
0001
0000
1000
0000
,
0001
0000
1000
0000
1001
0000
0001
1000
0010
1000
0010
0000
0100
0000
0000
0000
,
0010
0000
1000
0000
1001
0000
0001
0100
0010
0100
0010
0000
1000
0000
0001
0000
,
1000
0100
0010
0100
1000
0001
0010
0001
0100
0001
0010
0001
1000
0010
0100
0001
,
0100
0010
1000
0001
1000
0100
1000
0010
1000
0001
1000
0010
1000
0100
0010
0001
,
1000
0010
0100
0010
1000
0001
0100
0001
0010
0001
0100
0001
1000
0100
0010
0001
,
0010
0100
1000
0001
1000
0010
1000
0100
1000
0001
1000
0100
1000
0010
0100
0001
,
1000
1000
1000
1000
,
1010
1010
1010
1010
,
0101
0101
0101
0101
,
1001
1001
0011
0011
,
0001
0000
1000
0000
1001
0000
0001
1000
0100
1000
0100
0000
0010
0000
0000
0000
,
0100
0000
1000
0000
1001
0000
0001
0010
0100
0010
0100
0000
1000
0000
0001
0000
,
1000
0000
0001
0000
1001
0000
1000
0001
0100
0001
0100
0000
0020
0000
0000
0000
,
2030
3200
0320
0000
,
0031
0000
1000
0000
1001
0000
0001
1000
0100
1000
0100
0000
0010
0000
0000
0000
,
0100
0000
1000
0000
1001
0000
0001
0010
0100
0010
0100
0000
1000
0000
0001
0000
,
1000
0000
0001
0000
1001
0000
1000
0001
0100
0001
0100
0000
0020
0000
0000
0000
,
0231
0000
1302
0000
2103
0000
0000
3000
,
0001
0010
0100
0010
0001
1000
0100
1000
0010
1000
0100
1000
0001
0100
0010
1000
,
0010
0100
0001
1000
0001
0010
0001
0100
0001
1000
0001
0100
0001
0010
0100
1000
,
0001
0100
0010
0100
0001
1000
0010
1000
0100
1000
0010
1000
0001
0010
0100
1000
,
0100
0010
0001
1000
0001
0100
0001
0010
0001
1000
0001
0010
0001
0100
0010
1000
,
0001
1000
0100
0010
0001
0010
0001
0010
0001
1000
0010
0100
0001
0100
0001
0100
,
0001
0010
0100
1000
0100
1000
0100
1000
0001
0100
0010
1000
0010
1000
0010
1000
,
0200
0000
0000
0300
0000
0000
0000
0000
,
0000
0000
0000
0000
,
1000
0000
0001
0000
1001
0000
1000
0001
0010
0001
0010
0000
0100
0000
0000
0000
,
0010
0000
0001
0000
1001
0000
1000
0100
0010
0100
0010
0000
0001
0000
1000
0000
,
0001
0000
1000
0000
1001
0000
0001
1000
0010
1000
0010
0000
0100
0000
0000
0000
,
0010
0000
1000
0000
1001
0000
0001
0100
0010
0100
0010
0000
1000
0000
0001
0000
,
1000
0000
0001
0000
1001
0000
1000
0001
0010
0001
0010
0000
0100
0000
0000
0000
,
0010
0000
0001
0000
1001
0000
1000
0100
0010
0100
0010
0000
0001
0000
1000
0000
,
0001
0000
1000
0000
1001
0000
0001
1000
0010
1000
0010
0000
0100
0000
0000
0000
,
0010
0000
1000
0000
1001
0000
0001
0100
0010
0100
0010
0000
1000
0000
0001
0000
,
1000
0100
0010
0100
1000
0001
0010
0001
0100
0001
0010
0001
1000
0010
0100
0001
,
0100
0010
1000
0001
1000
0100
1000
0010
1000
0001
1000
0010
1000
0100
0010
0001
,
1000
0010
0100
0010
1000
0001
0100
0001
0010
0001
0100
0001
1000
0100
0010
0001
,
0010
0100
1000
0001
1000
0010
1000
0100
1000
0001
1000
0100
1000
0010
0100
0001
,
1000
0010
0100
0001
1000
0001
0100
0001
0100
0001
0100
0001
1000
0100
0010
0001
,
1000
0010
1000
0010
0100
0010
1000
0010
1000
0010
1000
0010
0100
0001
1000
0100
,
0010
0001
0010
0001
1000
0001
0010
0001
0010
0001
0010
0001
1000
0001
0010
0001
,
0100
0010
1000
0100
0010
0100
1000
0100
0010
0001
0100
0001
1000
0001
0100
0001
,
1000
0000
0001
0000
1001
0000
1000
0001
0010
0001
0010
0000
0100
0000
0000
0000
,
0010
0000
0001
0000
1001
0000
1000
0100
0010
0100
0010
0000
0001
0000
1000
0000
,
0001
0000
1000
0000
1001
0000
0001
1000
0010
1000
0010
0000
0200
0000
0000
0000
,
0302
0023
0230
0000
,
1300
0000
0001
0000
1001
0000
1000
0001
0010
0001
0010
0000
0100
0000
0000
0000
,
0010
0000
0001
0000
1001
0000
1000
0100
0010
0100
0010
0000
0001
0000
1000
0000
,
0001
0000
1000
0000
1001
0000
0001
1000
0010
1000
0010
0000
0200
0000
0000
0000
,
1320
0000
2031
0000
3012
0000
0000
0003
,
1000
0100
0010
0100
1000
0001
0010
0001
0100
0001
0010
0001
1000
0010
0100
0001
,
0100
0010
1000
0001
1000
0100
1000
0010
1000
0001
1000
0010
1000
0100
0010
0001
,
1000
0010
0100
0010
1000
0001
0100
0001
0010
0001
0100
0001
1000
0100
0010
0001
,
0010
0100
1000
0001
1000
0010
1000
0100
1000
0001
1000
0100
1000
0010
0100
0001
,
1000
0001
0010
0100
1000
0100
1000
0100
1000
0001
0100
0010
1000
0010
1000
0010
,
1000
0100
0010
0001
0010
0001
0010
0001
1000
0010
0100
0001
0100
0001
0100
0001
,
0020
0000
0000
0030
0000
0000
0002
2003
,
3020
0000
0230
0000
,
0320
0000
0000
0000
,
0000
0000
0000
0000
,
2030
0000
0000
0000
,
3002
0000
0000
0000
,
0023
0000
0000
0000
,
0000
0000
0000
0000
,
0230
0000
0000
0300
,
MMMM
0000
MMMM
0000
MMMM
0000
0000
0000
0000
0000
0000
0000
;

//---------------dance-single - I. Pyles----------------
#NOTES:
     dance-single:
     I. Pyles:
     Challenge:
     15:
     1.000,1.000,0.243,0.118,1.000,2261.000,68.000,33.000,12.000,0.000:









0000
0000
0000
0000
,
0000
0000
0000
0000
,
0000
0000
0000
0000
,
0000
0000
0000
0000
,
0000
0000
0000
0000
,
0000
0000
0000
0000
,
0000
0000
0000
0000
,
0000
0000
0000
0000
,
0000
0000
0000
0000
,
0000
0000
0000
0000
,
0000
0000
0000
0000
,
0000
0000
0000
0000
,
0000
0000
0000
0000
,
0000
0000
0000
0000
,
0000
0000
0000
0000
,
0000
0000
0000
0000
,
1001
0000
0000
0001
0000
1000
0001
0000
0001
0100
0000
0000
,
0001
0000
0000
0010
0000
0100
1000
0000
1000
0001
0000
0000
,
1000
0000
0000
0001
0000
1000
0001
0000
0001
0200
0000
0000
,
0320
0000
2030
0000
,
3001
0000
0000
1000
0000
0001
1000
0000
1000
0100
0000
0000
,
1000
0000
0000
0010
0000
0100
0001
0000
0001
1000
0000
0000
,
0001
0000
0000
0000
0000
0000
1000
0000
0000
0000
0001
0000
1000
0000
0000
0000
1000
0000
0200
0000
0000
0320
0000
0000
,
0032
0000
0000
0000
0203
0000
0000
0300
,
1001
0000
0000
0001
0000
1000
0001
0000
0001
0010
0000
0000
,
0001
0000
0000
0100
0000
0010
2000
0000
0000
3020
0000
0000
,
0230
0000
0000
0301
0000
1000
0001
0000
0001
0020
0000
0000
,
0230
0000
2300
0000
,
3000
0000
0000
0000
,
0000
0000
0000
0000
0000
0000
0000
0000
0000
0000
0000
0000
0001
0010
0100
1000
,
0010
0000
0000
0000
,
0000
0000
0000
0000
,
1001
0000
0001
0100
0001
0000
1000
0100
1000
0000
0001
0100
0001
0000
1000
0100
,
1000
0000
0001
0010
0001
0000
1000
0010
1000
0000
0001
0010
0001
0000
1000
0010
,
1000
0001
0100
0010
1000
0001
0010
0100
,
1000
0001
1000
0001
1000
0001
1000
0001
1000
0001
1000
0001
0200
0000
0300
0000
,
0001
0100
0010
0100
0001
0100
0001
1000
0100
1000
0010
1000
0100
1000
0100
0010
,
0001
1000
0100
1000
0001
1000
0010
0100
0001
0010
0100
0010
0001
0010
0001
1000
,
0001
0100
0010
1000
0001
1000
0010
0100
0001
0010
0100
1000
0001
1000
0100
0010
,
0001
1000
0100
1000
0100
0010
0001
1000
0010
0100
0001
0100
0001
1000
0010
1000
,
0001
1000
0100
0010
0100
1000
0001
0010
0100
0010
0001
1000
0010
0100
0001
1000
,
0001
0100
0010
1000
0001
1000
0100
0010
0001
1000
0001
0010
0100
1000
0001
1000
,
0001
0100
0010
1000
0001
1000
0010
0100
0001
1000
0100
1000
0001
1000
0010
0100
,
0001
1000
0010
1000
0001
1000
0100
0010
0001
1000
0001
0010
0100
1000
0001
1000
,
0001
0010
0100
0010
0001
0010
0001
1000
0010
1000
0100
1000
0010
1000
0010
0100
,
0001
1000
0010
1000
0001
1000
0100
0010
0001
0100
0010
0100
0001
0100
0001
1000
,
0001
0010
0100
1000
0001
1000
0100
0010
0001
0100
0010
1000
0001
1000
0010
0100
,
0001
1000
0010
1000
0010
0100
0001
1000
0100
0010
0001
0010
0001
1000
0100
1000
,
0001
0001
0001
0001
,
0101
0101
0101
0101
,
1010
1010
1010
1010
,
1001
1001
1100
1100
,
1000
0100
0010
0001
0010
0001
1000
0010
1000
0010
0100
0001
0010
0100
1000
0001
,
1000
0010
0100
0001
1000
0001
0100
0001
0010
0100
1000
0001
0100
0010
1000
0001
,
1000
0100
0010
0001
0010
0001
1000
0010
1000
0010
0100
0001
0010
0100
1000
0001
,
0100
0010
1000
0001
0010
0100
1000
0010
1000
0100
1000
0001
1000
0100
1000
0001
,
1000
0100
0010
0001
0010
0001
1000
0010
1000
0010
0100
0001
0010
0100
1000
0001
,
1000
0010
0100
0001
1000
0001
0100
0001
0010
0100
1000
0001
0100
0010
1000
0001
,
1000
0100
0010
0001
0010
0001
1000
0010
1000
0010
0100
0001
0010
0100
1000
0001
,
0100
0001
1000
0001
0010
0100
1000
0010
0100
0001
0010
0100
0010
0001
0010
0100
,
1000
0010
0100
0001
0100
0001
1000
0100
1000
0100
0010
0001
0100
0010
1000
0001
,
1000
0100
0010
0001
1000
0001
0010
0001
0100
0010
1000
0001
0010
0100
1000
0001
,
1000
0010
0100
0001
0100
0001
1000
0100
1000
0100
0010
0001
0100
0010
1000
0001
,
0010
0100
1000
0001
0100
0010
1000
0100
1000
0010
1000
0001
1000
0010
1000
0001
,
1000
0001
0010
0100
1000
0100
1000
0100
1000
0001
0100
0010
1000
0010
1000
0010
,
1000
0100
0010
0001
0010
0001
0010
0001
1000
0010
0100
0001
0100
0001
0100
0001
,
0020
0000
0000
0030
0000
0000
0000
0000
,
0000
0000
0000
0000
,
0001
0100
0001
0010
0001
1000
0010
1000
0100
1000
0001
0010
0100
1000
0001
0010
,
0100
0010
0001
1000
0010
1000
0001
0100
0001
0100
0001
1000
0010
1000
0001
1000
,
0001
0010
0001
0100
0001
1000
0100
1000
0010
1000
0001
0100
0010
1000
0001
0100
,
0010
0100
0001
1000
0100
1000
0001
0010
0001
0010
0001
1000
0100
1000
0001
1000
,
0001
0100
0001
0010
0001
1000
0010
1000
0100
1000
0001
0010
0100
1000
0001
0010
,
0100
0010
0001
1000
0010
1000
0001
0100
0001
0100
0001
1000
0010
1000
0001
1000
,
0001
0010
0001
0100
0001
1000
0100
1000
0010
1000
0001
0100
0010
1000
0001
0100
,
0010
0100
0001
1000
0100
1000
0001
0010
0001
0010
0001
1000
0100
1000
0001
1000
,
0001
0010
0100
0010
0001
1000
0100
1000
0010
1000
0100
1000
0001
0100
0010
1000
,
0010
0100
0001
1000
0001
0010
0001
0100
0001
1000
0001
0100
0001
0010
0100
1000
,
0001
0100
0010
0100
0001
1000
0010
1000
0100
1000
0010
1000
0001
0010
0100
1000
,
0100
0010
0001
1000
0001
0100
0001
0010
0001
1000
0001
0010
0001
0100
0010
1000
,
0001
0100
0010
1000
0001
1000
0010
1000
0010
1000
0010
1000
0001
0010
0100
1000
,
0001
0100
0001
0100
0010
0100
0001
0100
0001
0100
0001
0100
0010
1000
0001
0010
,
0100
1000
0100
1000
0001
1000
0100
1000
0100
1000
0100
1000
0001
1000
0100
1000
,
0010
0100
0001
0010
0100
0010
0001
0010
0100
1000
0010
1000
0001
1000
0010
1000
,
0002
0000
0100
0003
0201
0300
0201
0300
,
0210
0000
0010
0300
2010
3000
1001
0000
,
1000
0100
0010
0001
1000
0001
0010
0100
1000
0010
0100
0001
1000
0001
0100
0010
,
1000
0001
0100
0001
0100
0010
1000
0001
0010
0100
1000
0100
1000
0001
0010
0001
,
1000
0001
0100
0010
0100
0001
1000
0010
0100
0010
1000
0001
0010
0100
1000
0001
,
1000
0100
0010
0001
1000
0001
0100
0010
1000
0001
1000
0010
0100
0001
1000
0001
,
1000
0100
0010
0001
1000
0001
0010
0100
1000
0001
0100
0001
1000
0001
0010
0100
,
1000
0001
0010
0001
1000
0001
0100
0010
1000
0001
1000
0010
0100
0001
1000
0001
,
1000
0010
0100
0010
1000
0010
1000
0001
0010
0001
0100
0001
0010
0001
0010
0100
,
1000
0001
0010
0001
1000
0001
0100
0010
1000
0100
0010
0100
1000
0100
1000
0001
,
1000
0010
0100
0001
1000
0001
0100
0010
1000
0100
0010
0001
1000
0001
0010
0100
,
1000
0001
0010
0001
0010
0100
1000
0001
0100
0010
1000
0010
1000
0001
0100
0001
,
1000
1000
1000
1000
,
1100
1100
1100
1100
,
0011
0011
0011
0011
,
1001
1001
0101
0101
,
0001
0100
0010
1000
0010
1000
0001
0010
0001
0010
0100
1000
0010
0100
0001
1000
,
0001
0010
0100
1000
0001
1000
0100
1000
0010
0100
0001
1000
0100
0010
0001
1000
,
0001
0100
0010
1000
0010
1000
0001
0010
0001
0010
0100
1000
0010
0100
0001
1000
,
0100
0010
0001
1000
0010
0100
0001
0010
0001
0100
0001
1000
0001
0100
0001
1000
,
0001
0100
0010
1000
0010
1000
0001
0010
0001
0010
0100
1000
0010
0100
0001
1000
,
0001
0010
0100
1000
0001
1000
0100
1000
0010
0100
0001
1000
0100
0010
0001
1000
,
0001
0100
0010
1000
0010
1000
0001
0010
0001
0010
0100
1000
0010
0100
0001
1000
,
0100
1000
0001
1000
0010
0100
0001
0010
0100
1000
0010
0100
0010
1000
0010
0100
,
0001
0010
0100
1000
0100
1000
0001
0100
0001
0100
0010
1000
0100
0010
0001
1000
,
0001
0100
0010
1000
0001
1000
0010
1000
0100
0010
0001
1000
0010
0100
0001
1000
,
0001
0010
0100
1000
0100
1000
0001
0100
0001
0100
0010
1000
0100
0010
0001
1000
,
0010
0100
0001
1000
0100
0010
0001
0100
0001
0010
0001
1000
0001
0010
0001
1000
,
0001
1000
0010
0100
0001
0100
0001
0100
0001
1000
0100
0010
0001
0010
0001
0010
,
0001
0100
0010
1000
0010
1000
0010
1000
0001
0010
0100
1000
0100
1000
0100
1000
,
0020
0000
0000
0030
0000
0000
0000
0000
,
0000
0000
0000
0000
,
1000
0001
1001
1000
0001
1001
1000
0000
,
0001
1000
1001
0001
1000
1001
0001
0000
,
1000
0001
1001
1000
0001
1001
1000
0000
,
0001
1000
1010
1000
0001
0011
0001
0100
,
0001
1000
1001
0001
1000
1001
0001
0000
,
1000
0001
1001
1000
0001
1001
1001
0000
,
0001
0000
1000
0010
1000
0000
0010
1000
0000
0001
0010
0000
0001
0000
0100
0000
,
0100
0000
0001
0010
0001
0000
0010
0001
0000
1000
0010
0000
0010
0000
0000
0000
,
1000
0001
1001
1000
0001
1001
1000
0000
,
0001
1000
1010
1000
0001
0011
0011
0000
,
1000
0001
1001
1000
0001
1001
0000
0000
,
1010
0000
0000
1001
0000
0000
0011
0000
,
1001
0000
1000
0010
1000
0000
0001
0010
0001
0000
1000
0010
1000
0000
0001
0010
,
0001
0000
1000
0100
1000
0000
0001
0100
0001
0000
1000
0100
1000
0000
0001
0100
,
0001
1000
0010
0100
0001
1000
0100
0010
,
0001
1000
0001
1000
0001
1000
0001
1000
0001
1000
0001
1000
0020
0000
0030
0000
,
1000
0010
0100
0010
1000
0010
1000
0001
0010
0001
0100
0001
0010
0001
0010
0100
,
1000
0001
0010
0001
1000
0001
0100
0010
1000
0100
0010
0100
1000
0100
1000
0001
,
1000
0010
0100
0001
1000
0001
0100
0010
1000
0100
0010
0001
1000
0001
0010
0100
,
1000
0001
0010
0001
0010
0100
1000
0001
0100
0010
1000
0010
1000
0001
0100
0001
,
1000
0001
0010
0100
0010
0001
1000
0100
0010
0100
1000
0001
0100
0010
1000
0001
,
1000
0010
0100
0001
1000
0001
0010
0100
1000
0001
1000
0100
0010
0001
1000
0001
,
1000
0010
0100
0001
1000
0001
0100
0010
1000
0001
0010
0001
1000
0001
0100
0010
,
1000
0001
0100
0001
1000
0001
0010
0100
1000
0001
1000
0100
0010
0001
1000
0001
,
1000
0100
0010
0100
1000
0100
1000
0001
0100
0001
0010
0001
0100
0001
0100
0010
,
1000
0001
0100
0001
1000
0001
0010
0100
1000
0010
0100
0010
1000
0010
1000
0001
,
1000
0100
0010
0001
1000
0001
0010
0100
1000
0010
0100
0001
1000
0001
0100
0010
,
1000
0001
0100
0001
0100
0010
1000
0001
0010
0100
1000
0100
1000
0001
0010
0001
,
1000
1000
1000
1000
,
1010
1010
1010
1010
,
0101
0101
0101
0101
,
1001
1001
0011
0011
,
0001
0010
0100
1000
0100
1000
0001
0100
0001
0100
0010
1000
0100
0010
0001
1000
,
0001
0100
0010
1000
0001
1000
0010
1000
0100
0010
0001
1000
0010
0100
0001
1000
,
0001
0010
0100
1000
0100
1000
0001
0100
0001
0100
0010
1000
0100
0010
0001
1000
,
0010
0100
0001
1000
0100
0010
0001
0100
0001
0010
0001
1000
0001
0010
0001
1000
,
0001
0010
0100
1000
0100
1000
0001
0100
0001
0100
0010
1000
0100
0010
0001
1000
,
0001
0100
0010
1000
0001
1000
0010
1000
0100
0010
0001
1000
0010
0100
0001
1000
,
0001
0010
0100
1000
0100
1000
0001
0100
0001
0100
0010
1000
0100
0010
0001
1000
,
0010
1000
0001
1000
0100
0010
0001
0100
0010
1000
0100
0010
0100
1000
0100
0010
,
0001
0100
0010
1000
0010
1000
0001
0010
0001
0010
0100
1000
0010
0100
0001
1000
,
0001
0010
0100
1000
0001
1000
0100
1000
0010
0100
0001
1000
0100
0010
0001
1000
,
0001
0100
0010
1000
0010
1000
0001
0010
0001
0010
0100
1000
0010
0100
0001
1000
,
0100
0010
0001
1000
0010
0100
0001
0010
0001
0100
0001
1000
0001
0100
0001
1000
,
0001
1000
0100
0010
0001
0010
0001
0010
0001
1000
0010
0100
0001
0100
0001
0100
,
0001
0010
0100
1000
0100
1000
0100
1000
0001
0100
0010
1000
0010
1000
0010
1000
,
0200
0000
0000
0300
0000
0000
0000
0000
,
0000
0000
0000
0000
,
1000
0010
1000
0100
1000
0001
0100
0001
0010
0001
1000
0100
0010
0001
1000
0100
,
0010
0100
1000
0001
0100
0001
1000
0010
1000
0010
1000
0001
0100
0001
1000
0001
,
1000
0100
1000
0010
1000
0001
0010
0001
0100
0001
1000
0010
0100
0001
1000
0010
,
0100
0010
1000
0001
0010
0001
1000
0100
1000
0100
1000
0001
0010
0001
1000
0001
,
1000
0010
1000
0100
1000
0001
0100
0001
0010
0001
1000
0100
0010
0001
1000
0100
,
0010
0100
1000
0001
0100
0001
1000
0010
1000
0010
1000
0001
0100
0001
1000
0001
,
1000
0100
1000
0010
1000
0001
0010
0001
0100
0001
1000
0010
0100
0001
1000
0010
,
0100
0010
1000
0001
0010
0001
1000
0100
1000
0100
1000
0001
0010
0001
1000
0001
,
1000
0100
0010
0100
1000
0001
0010
0001
0100
0001
0010
0001
1000
0010
0100
0001
,
0100
0010
1000
0001
1000
0100
1000
0010
1000
0001
1000
0010
1000
0100
0010
0001
,
1000
0010
0100
0010
1000
0001
0100
0001
0010
0001
0100
0001
1000
0100
0010
0001
,
0010
0100
1000
0001
1000
0010
1000
0100
1000
0001
1000
0100
1000
0010
0100
0001
,
1000
0010
0100
0001
1000
0001
0100
0001
0100
0001
0100
0001
1000
0100
0010
0001
,
1000
0010
1000
0010
0100
0010
1000
0010
1000
0010
1000
0010
0100
0001
1000
0100
,
0010
0001
0010
0001
1000
0001
0010
0001
0010
0001
0010
0001
1000
0001
0010
0001
,
0100
0010
1000
0100
0010
0100
1000
0100
0010
0001
0100
0001
1000
0001
0100
0001
,
1000
0010
0100
0001
0100
0001
1000
0100
1000
0100
0010
0001
0100
0010
1000
0001
,
1000
0100
0010
0001
1000
0001
0010
0001
0100
0010
1000
0001
0010
0100
1000
0001
,
1000
0010
0100
0001
0100
0001
1000
0100
1000
0100
0010
0001
0100
0010
1000
0001
,
0010
0100
1000
0001
0100
0010
1000
0100
1000
0010
1000
0001
1000
0010
1000
0001
,
1000
0010
0100
0001
0100
0001
1000
0100
1000
0100
0010
0001
0100
0010
1000
0001
,
1000
0100
0010
0001
1000
0001
0010
0001
0100
0010
1000
0001
0010
0100
1000
0001
,
1000
0010
0100
0001
0100
0001
1000
0100
1000
0100
0010
0001
0100
0010
1000
0001
,
0010
0001
1000
0001
0100
0010
1000
0100
0010
0001
0100
0010
0100
0001
0100
0010
,
1000
0100
0010
0001
0010
0001
1000
0010
1000
0010
0100
0001
0010
0100
1000
0001
,
1000
0010
0100
0001
1000
0001
0100
0001
0010
0100
1000
0001
0100
0010
1000
0001
,
1000
0100
0010
0001
0010
0001
1000
0010
1000
0010
0100
0001
0010
0100
1000
0001
,
0100
0010
1000
0001
0010
0100
1000
0010
1000
0100
1000
0001
1000
0100
1000
0001
,
1000
0001
0100
0010
1000
0010
1000
0010
1000
0001
0010
0100
1000
0100
1000
0100
,
1000
0010
0100
0001
0100
0001
0100
0001
1000
0100
0010
0001
0010
0001
0010
0001
,
0200
0000
0000
0300
0000
0000
0002
2003
,
3020
0000
0230
0000
,
0320
0000
0000
0000
,
0000
0000
0000
0000
,
2030
0000
0000
0000
,
3002
0000
0000
0000
,
0023
0000
0000
0000
,
0000
0000
0000
0000
,
0230
0000
0000
0300
,
MMMM
0000
MMMM
0000
MMMM
0000
0000
0000
0000
0000
0000
0000
;
