#TITLE:Grand Papillon!!;
#SUBTITLE:Shadow Hearts 2;
#ARTIST:Kenji Ito;
#TITLETRANSLIT:;
#SUBTITLETRANSLIT:;
#ARTISTTRANSLIT:;
#CREDIT:;
#BANNER:Grand Papillion!!.png;
#BACKGROUND:Grand Papillion!!-bg.png;
#LYRICSPATH:;
#CDTITLE:!tibsTitle.png;
#MUSIC:Grand Papillon!!.mp3;
#OFFSET:-0.228;
#SAMPLESTART:15.750;
#SAMPLELENGTH:12.000;
#SELECTABLE:YES;
#BPMS:0.000=155.000;
#STOPS:;
#BGCHANGES:;
// cache tags:
#FIRSTBEAT:0.000;
#LASTBEAT:86.000;
#SONGFILENAME:Songs/VGMP 2/Grand Papillon (Tibs)/Grand Papillon!!.sm;
#HASMUSIC:1;
#HASBANNER:1;
#MUSICLENGTH:38.191;
// end cache tags

//---------------dance-single - ----------------
#NOTES:
     dance-single:
     :
     Hard:
     10:
     0.958,1.000,0.759,1.000,0.655,181.000,29.000,46.000,0.000,0.000:

1000
0000
0001
0000
1000
0010
0100
0000
0001
0000
1000
0000
0001
0010
0100
0000
,
1000
0000
0100
0000
0010
0000
0002
0000
0003
0000
1000
0000
0010
0100
0001
0000
,
0010
0100
1000
0001
0110
0000
0000
0000
1001
0000
0000
1100
0000
0000
1010
0000
,
0101
0000
0000
0000
0000
0000
0000
0000
0000
0000
0000
0000
0000
0000
0000
0000
0022
0000
0000
0000
0000
0000
0000
0000
0000
0000
0000
0000
0000
0000
0000
0000
0000
0000
0000
0000
0000
0000
0000
0000
0000
0000
0000
0000
0000
0000
0000
0030
1003
0000
0000
0000
0100
0000
0000
0000
1000
0000
0000
0000
0000
0000
0000
0000
,
0020
0000
2030
3020
0230
0302
0100
0023
,
0230
0000
0000
0000
1000
0000
0310
0001
0010
0000
0002
0000
0023
0000
0230
0000
,
2300
0000
3000
0000
0020
0000
0230
0000
0320
0000
0000
2030
0000
0000
3002
0000
,
0203
0000
0000
0000
0001
0310
0002
0003
1000
0010
0002
0003
0001
0010
2000
3000
,
0002
2003
0100
3002
0203
0000
0001
0000
,
0320
0000
0000
0000
0000
0000
0000
0000
2030
0000
0000
0000
0000
0000
0000
0000
0001
0000
0000
0000
0000
0000
0000
0000
3200
0000
0000
0000
0000
0000
0000
0000
0320
0000
0000
0000
0000
0000
0000
0000
0000
0000
0000
0000
0000
0000
0000
0000
0001
0000
0000
0000
0000
0000
0000
0000
0000
0000
0000
0000
0000
0000
0000
0030
,
1100
0000
0000
0000
0011
0000
0000
0000
1001
0000
0000
0101
0000
0000
1010
0000
,
1100
0000
0000
0000
0100
0010
0100
0010
0100
0000
0000
0000
0000
0000
0001
0010
,
0200
0310
0002
1003
0100
1000
0001
0100
0001
1000
0200
0310
0002
1003
0020
0130
,
0002
1003
0020
1030
0100
1000
0001
0010
0100
0010
0001
0010
0100
1000
0001
0010
,
1100
0000
0000
0000
0101
0000
0000
0000
1010
0000
0000
0110
0000
0000
1100
0000
,
0011
0000
0000
0000
0010
0100
0010
0100
1000
0001
1000
0001
0100
0010
0100
0010
,
2000
0000
0000
3020
0000
0000
0230
0000
0302
0000
0000
0000
1000
0000
0000
0000
,
2003
0000
0000
0000
0000
0000
0000
0000
0000
0000
0000
0000
3200
0000
0000
0000
0000
0000
0000
0000
0000
0000
0000
0000
0320
0000
0000
0000
0000
0000
0000
0000
0032
0000
0000
0000
0000
0000
0000
0000
0000
0000
0000
0000
0000
0000
0000
0000
0100
0000
0000
0000
0000
0000
0000
0000
0000
0000
0000
0000
0000
0000
0000
0003
,
1100
0000
0000
0000
1000
0010
0100
0000
0101
0000
0000
1001
0000
0000
1010
0000
,
1100
0000
0000
0000
1000
0010
0100
0000
0100
0001
0010
0000
0010
0100
1000
0000
,
1000
0001
0010
0000
1100
0000
0011
0000
0001
0100
1000
0000
1100
0000
0101
0000
,
0011
0000
1010
0000
1000
0010
0100
0001
0010
0000
0000
0000
0000
0000
0000
0000
;

//---------------dance-single - ----------------
#NOTES:
     dance-single:
     :
     Challenge:
     12:
     1.000,1.000,1.000,1.000,0.746,196.000,67.000,39.000,0.000,17.000:



0101
0000
0110
0000
1010
0100
1010
0000
1100
0000
0110
0000
0101
0010
0101
0000
,
1010
0000
0110
0000
0101
0000
1002
0000
0003
0000
1010
0000
0101
0010
1000
0000
,
1000
0100
0010
0001
1100
0000
0000
0000
1100
0000
0000
1010
0000
0000
1001
0000
,
0101
0000
0000
0000
0022
0000
0000
0000
0000
0000
0000
0000
1033
0100
1000
0000
,
1002
0000
2103
3002
1203
0320
1000
0230
,
2301
0000
0000
0000
0010
0000
3100
0001
0100
0000
0002
0000
2103
0000
3200
0000
,
0321
0000
0000
0000
0132
0000
0023
0000
2130
0000
0000
3200
0010
0000
0302
0000
,
0213
0000
0000
0000
1300
0010
2000
3000
0001
0100
0002
0003
1000
0100
2000
3000
,
0012
0203
0010
0302
1203
0000
0010
0000
,
2301
3200
1000
0320
0132
0000
0010
0000
,
1103
0000
0000
0000
0011
0000
0000
0000
1001
0000
0000
0101
0010
0000
1010
0000
,
1100
0000
0000
0000
1000
0010
0100
0001
0010
0000
0000
0000
0000
0000
0001
0010
,
0101
1000
0100
0010
0001
1000
0010
0100
1001
0010
0100
0010
0001
1000
0100
0010
,
0101
1000
0001
0010
0001
1000
0010
0100
1001
0100
0001
1000
0100
1000
0001
0100
,
0011
1000
0001
0010
0101
1000
0010
0100
0011
1000
0001
1100
0010
0100
0011
1000
,
0110
0000
0000
0000
1000
0100
1000
0100
0010
0001
0010
0001
1000
0100
1000
0100
,
0012
0000
0000
0023
0100
0000
0230
0000
1302
0000
0000
0000
0100
0000
0000
0000
,
0213
0000
0000
0320
1000
0000
0230
0000
0321
0000
0000
0000
0100
0000
0000
0000
,
1130
0000
0000
0000
1010
0001
1010
0000
0101
0000
0000
1001
0000
0000
1010
0000
,
1100
0000
0000
0000
1000
0001
0100
0000
0001
1000
0100
0000
0010
0001
0100
0000
,
0001
0001
0001
0000
1001
0000
0110
0000
1000
1000
1000
0000
0110
0000
1001
0000
,
0110
0000
1001
0000
0100
0100
0100
0100
0110
0000
0000
0000
0000
0000
0000
0000
;
