#TITLE:Die Now;
#SUBTITLE:;
#ARTIST:DJ Sharpnel;
#TITLETRANSLIT:;
#SUBTITLETRANSLIT:;
#ARTISTTRANSLIT:;
#CREDIT:;
#BANNER:Die bn.png;
#BACKGROUND:Die bg.png;
#LYRICSPATH:;
#CDTITLE:;
#MUSIC:Die Now.ogg;
#OFFSET:1.255;
#SAMPLESTART:103.778;
#SAMPLELENGTH:20.745;
#SELECTABLE:YES;
#DISPLAYBPM:185.000;
#BPMS:0.000=185.100,191.000=92.550,193.000=277.650,194.000=185.100,442.000=92.550,444.000=185.100;
#STOPS:193.000=0.108
;
#BGCHANGES:;
// cache tags:
#FIRSTBEAT:36.000;
#LASTBEAT:644.000;
#SONGFILENAME:Songs/SHARPNELSTREAMZ v2/Die Now/Die Now.sm;
#HASMUSIC:1;
#HASBANNER:1;
#MUSICLENGTH:212.724;
// end cache tags

//---------------dance-single - 14+ (TYLappo)----------------
#NOTES:
     dance-single:
     14+ (TYLappo):
     Challenge:
     14:
     1.000,1.000,0.395,0.357,1.000,1698.000,84.000,76.000,86.000,0.000:
0000
0000
0000
0000
,
0000
0000
0000
0000
,
0000
0000
0000
0000
,
0000
0000
0000
0000
,
0000
0000
0000
0000
,
0000
0000
0000
0000
,
0000
0000
0000
0000
,
0000
0000
0000
0000
,
0000
0000
0000
0000
,
4M00
0000
3010
0000
0110
0000
0100
0001
0100
0001
1000
0000
0100
0000
0010
0001
,
0010
0000
0100
0000
1100
0000
1000
0001
1000
0001
0100
0000
0010
0000
0100
0001
,
0100
0000
0001
0000
1001
0000
1000
0100
1000
0100
0010
0000
0001
0000
1000
0001
,
1000
0000
0001
0000
0101
0000
0100
0010
0100
0010
1000
0000
0100
0000
0100
0000
,
4004
0000
3003
0000
0011
0000
0001
1000
0001
1000
0010
0000
0100
0000
0001
0100
,
0001
0000
1000
0000
1100
0000
0100
1000
0100
1000
0001
0000
0010
0000
0100
1000
,
0100
0000
1000
0000
1001
0000
0001
0100
0001
0100
0010
0000
1000
0000
0010
0100
,
0010
1000
1001
0001
0100
0101
0000
1010
,
0010
0000
0010
0000
1000
0100
0010
0001
1000
0000
1000
0000
0001
0010
0100
1000
,
0001
0001
M10M
0100
M01M
0010
2000
3001
,
0010
0000
0010
0000
0001
0010
0100
1000
0001
0000
0001
0000
1000
0010
0100
0001
,
1000
1000
0100
0100
0010
0001
1000
1000
,
0001
0000
0100
0000
0001
0010
0100
1000
0001
0000
0001
0000
1000
0100
0010
0001
,
1000
1000
M10M
0100
M01M
0010
0001
1000
,
0001
0000
0001
0000
1000
0010
0100
0001
1000
0000
1000
0000
0001
0100
0010
1000
,
0001
0001
0100
0100
0010
1010
0000
0101
,
0001
0000
0001
0000
1000
0010
0100
0001
1000
0000
1000
0000
0001
0010
0100
1000
,
0001
0001
M10M
0100
M01M
0010
0100
0010
,
1000
0000
1000
0000
0001
0010
0100
1000
0001
0000
0001
0000
1000
0010
0100
0001
,
1000
1000
0010
0010
0100
0001
1000
1000
,
0001
0000
0010
0000
0001
0010
0100
1000
0001
0000
0001
0000
1000
0100
0010
0001
,
1000
1000
M01M
0010
M10M
0100
0010
1000
,
0001
0000
0001
0000
0010
0001
0010
0000
0100
0000
0100
0000
1000
0100
1000
0000
,
0001
0100
0010
1000
0001
0011
0000
0011
,
0001
0000
1000
0000
1010
0000
0001
1000
0001
1000
0100
0000
0010
0000
0001
1000
,
0001
0000
1000
0000
1010
0000
0010
0100
0010
0100
0001
0000
1000
0000
0100
1000
,
0100
0000
0010
0000
0011
0000
0001
1000
0001
1000
0010
0000
0100
0000
0001
0100
,
0001
0000
1000
0000
1100
0000
0100
0010
0100
0010
0001
0000
0100
0000
0100
0000
,
0001
0000
1000
0000
1001
0000
0001
0010
0001
0010
0100
0000
1000
0000
0001
1000
,
0001
0000
0100
0000
0110
0000
0010
1000
0010
1000
0001
0000
0010
0000
0100
0010
,
0100
0000
1000
0000
1001
0000
0001
0100
0001
0100
0010
0000
1000
0000
0001
0010
,
0001
1000
1001
0001
0010
0011
0000
0011
,
0010
0000
0100
0000
1100
0000
1000
0001
1000
0001
0010
0000
0100
0000
1000
0001
,
1000
0000
0010
0000
0110
0000
0100
0001
0100
0001
1000
0000
0100
0000
0010
0001
,
0010
0000
0100
0000
1100
0000
1000
0001
1000
0001
0100
0000
0010
0000
1000
0010
,
1000
0000
0001
0000
1001
0000
1000
0001
1000
0001
0010
0000
0100
0000
0100
0000
,
1000
0000
1000
0000
0001
0100
0010
0000
1000
0000
1000
0000
0001
0010
0100
0000
,
1000
1000
0010
0010
0100
0001
1001
0000
,
0001
0000
0000
0000
0001
0000
0000
0000
0010
0000
0100
0000
0000
0000
0000
0000
1000
0000
0000
0000
1000
0000
0000
0000
0001
0100
0000
0000
000M
0000
0000
0000
,
0000
0M00
0001
0000
4004
3003
0010
1000
,
1000
0001
0010
0100
1000
0000
0001
0000
0010
0000
0100
0000
1000
0000
0001
0100
,
0001
1000
0001
0100
0010
0000
1000
0000
0001
0000
1000
0000
0010
0000
0100
0001
,
0100
0010
1000
0001
0010
0000
0100
0000
1100
0000
1000
0000
1001
0000
0001
0000
,
0101
0000
0100
0000
0110
0000
0010
0000
104M
0000
1030
0000
0001
0000
1000
0100
,
0010
0001
1000
0001
0100
0000
0010
0000
1000
0000
0001
0000
0010
0000
0001
1000
,
0001
0100
0010
1000
0001
0000
0010
0000
0100
0000
1000
0000
0001
0000
0100
0010
,
1000
0010
0100
0001
1000
0000
0001
0000
0011
0000
0010
0000
0110
0000
0100
0000
,
1100
0000
1000
0000
1001
0000
0001
0000
M104
0000
0103
0000
0010
0000
1000
0001
,
0010
0100
1000
0001
1000
0000
0001
0000
0100
0000
0010
0000
1000
0000
0001
0010
,
0100
1000
0001
1000
0010
0000
0100
0000
0001
0000
0010
0000
0001
0000
1000
0100
,
0010
0001
0100
0010
1000
0000
0001
0000
1001
0000
1000
0000
1100
0000
0100
0000
,
0110
0000
0010
0000
0011
0000
0001
0000
1M04
0000
1003
0000
1010
0000
1000
0001
,
0100
0010
1000
0001
0010
0000
0100
0000
1000
0000
0001
0000
0100
0000
0010
1000
,
0001
1000
0001
0010
0100
0000
1000
0000
0002
0000
0000
0000
1000
0000
0000
0000
,
0000
0000
1000
0000
1003
0010
0010
0100
,
0101
0000
1001
0000
1MMM
0000
0010
0000
1000
0001
0010
0100
1000
0001
0010
0100
,
1000
0001
0100
0010
1000
0001
0100
0001
1000
0100
0010
0001
1000
0001
0010
0100
,
1000
0100
0010
0001
1000
0001
0010
0001
0100
0010
0100
0010
1000
0010
1000
0010
,
1000
0001
1000
0001
0010
0001
0010
0001
1000
0010
0100
0001
1000
0010
0100
0001
,
1000
0000
0100
0000
1000
0000
0100
0000
1000
0001
1000
0010
0100
0001
0100
0001
,
1000
0100
1000
0100
0010
0001
0010
0100
1000
0001
1000
0001
0100
0010
1000
0001
,
0010
0001
0010
0100
1000
0001
1000
0001
0100
0010
1000
0010
0100
0001
1000
0001
,
0010
0001
0010
0001
0100
0010
1000
0001
0010
0001
1000
0001
0100
0010
1000
0001
,
0010
0000
0100
0000
0010
0000
0100
0000
1000
0100
0010
0001
1000
0100
0010
0001
,
1000
0001
0100
0010
1000
0001
0100
0001
1000
0100
0010
0001
1000
0001
0010
0100
,
1000
0100
0010
0001
1000
0010
0100
0001
0010
0001
0010
0100
1000
0001
1000
0010
,
0100
0001
0100
0010
1000
0001
1000
0100
0010
0001
0010
0100
1000
0001
1000
0100
,
0010
0000
0001
0000
0010
0000
0001
0000
1000
0010
0100
0001
1000
0010
0100
0001
,
0010
0001
0010
0100
1000
0001
1000
0010
0100
0001
0100
0001
0010
0001
1000
0100
,
0010
0001
0010
0100
1000
0001
1000
0010
1000
0001
1000
0010
0100
0001
0100
0010
,
1000
0001
1000
0010
0100
0001
0010
0100
1000
0000
0001
0000
0100
0000
0001
0000
,
0011
0000
0110
0000
1100
0000
1001
0000
0001
0100
0001
0100
0010
1000
0010
1000
,
0001
0010
0001
0010
0100
1000
0100
1000
0001
0100
0010
1000
0001
1000
0010
0100
,
0001
0100
0010
1000
0001
1000
0010
1000
0100
0010
0100
0010
0001
0010
0001
0010
,
0001
1000
0001
1000
0010
1000
0010
1000
0001
0010
0100
1000
0001
0010
0100
1000
,
0001
1000
0010
0100
0010
0100
0010
0100
0001
1000
0001
1000
0100
1000
0100
1000
,
0001
0100
0001
0100
0010
1000
0010
1000
0001
0010
0100
1000
0001
0010
0100
1000
,
0001
1000
0010
0100
0001
1000
0001
0100
0010
1000
0001
0010
0100
1000
0001
1000
,
0010
1000
0010
1000
0100
0010
0001
1000
0010
1000
0001
1000
0100
0010
0001
1000
,
0010
1000
0100
1000
0001
1000
0100
1000
0001
0100
0001
0100
0010
1000
0010
1000
,
0001
1000
0001
1000
0100
0010
0100
0010
0001
0100
0010
1000
0001
1000
0010
0100
,
0001
0100
0010
1000
0001
0010
0100
1000
0010
1000
0010
0100
0001
1000
0001
0010
,
0100
1000
0100
0010
0001
1000
0001
0100
0010
1000
0010
0100
0001
1000
0001
0100
,
0010
1000
0001
1000
0001
1000
0001
1000
0100
0010
0001
1000
0100
1000
0001
0100
,
0010
1000
0010
0100
0001
1000
0001
0010
0100
1000
0100
1000
0010
1000
0001
0100
,
0010
1000
0010
0100
0001
1000
0001
0010
0001
1000
0001
0010
0100
1000
0100
0010
,
0001
1000
0001
0010
0100
1000
0010
0100
0001
0000
0100
0000
0010
0000
1000
0000
,
1001
0101
0110
1010
1001
0001
0010
0100
,
1000
0001
1000
0000
0010
0000
0100
0000
0101
0000
0001
0000
0010
0000
0100
0000
,
1000
0100
1000
0000
0001
0000
0010
0000
0110
0000
0100
0000
1000
0000
0001
0000
,
0100
0001
0100
0000
0010
0000
1000
0000
1001
0000
0001
0000
0010
0000
0100
1000
,
0001
1000
0001
0000
0100
0000
0010
0000
1010
0000
1000
0000
0001
0000
0010
0000
,
0100
1000
0100
0000
0010
0000
0001
0000
1001
0000
1000
0000
0010
0000
0100
0000
,
0001
0100
0001
0000
0010
0000
0100
0000
1100
0000
1000
0000
0001
0000
0100
0000
,
0010
1000
0010
0000
0100
0000
0001
0000
1001
0000
1000
0000
0100
0000
0010
0000
,
0001
1000
0001
0010
0100
0000
1000
0000
1001
0000
0001
0000
0010
0000
0100
1000
,
0001
1000
0001
0100
0010
0000
1000
0000
1001
0000
0001
0000
0010
0000
0100
1000
,
0001
1000
0001
0100
0010
0000
1000
0000
1001
0000
0001
0000
0010
0000
0001
1000
,
0001
0100
0010
1000
0001
0000
1000
0000
1100
0000
0100
0000
0010
0000
0001
0010
,
0100
1000
0001
0100
0010
0000
1000
0000
1010
0000
0010
0000
0100
0000
0010
1000
,
0001
1000
0100
0010
0001
0000
1000
0000
1001
0000
0001
0000
0010
0000
0100
0010
,
0001
1000
0001
0100
0010
0000
1000
0000
00M0
0000
0000
0000
0M00
0000
0000
0000
,
0001
0000
0010
0001
0100
0010
1010
0000
,
1001
0000
0001
0000
1000
0100
0010
0001
1000
0000
1000
0000
0001
0010
0100
1000
,
0001
0001
M10M
0100
M01M
0010
1000
0001
,
0010
0000
0010
0000
0001
0010
0100
1000
0001
0000
0001
0000
1000
0010
0100
0001
,
1000
1000
0100
0100
0010
0011
0000
0011
,
0001
0000
1000
0000
0001
0010
0100
1000
0001
0000
0001
0000
1000
0100
0010
0001
,
1000
1000
M10M
0100
M01M
0010
0001
1000
,
0MM1
M000
0001
0000
1000
0010
0100
0001
1000
0000
1000
0000
0001
0100
0010
1000
,
0001
0001
0100
0100
0010
1010
0000
0101
,
0001
0000
0001
0000
1000
0010
0100
0001
1000
0000
1000
0000
0001
0010
0100
1000
,
0001
0001
M10M
0100
M01M
0010
1000
0010
,
0100
0000
0100
0000
0001
0010
0100
1000
0001
0000
0001
0000
1000
0010
0100
0001
,
1000
1000
0010
0010
0100
0101
0000
0101
,
0001
0000
1000
0000
0001
0010
0100
1000
0001
0000
0001
0000
1000
0100
0010
0001
,
1000
1000
M01M
0010
M10M
0100
0010
1000
,
00M1
0000
0001
0000
0010
0100
0000
0000
1000
0000
1000
0000
0001
0100
0000
0000
,
001M
0000
1M00
0010
0110
0101
1001
M00M
,
1002
0000
0000
0000
0000
0000
0000
0003
0002
0000
0000
0000
0000
0000
0000
0000
1000
0000
0000
0000
0000
0000
0003
0000
0020
0000
0000
0000
0000
0000
0000
0000
1000
0000
0000
0000
0000
0000
0000
0030
0020
0000
0000
0000
0000
0000
0000
0000
0230
0000
0000
0000
0000
0000
0000
0000
0001
0000
0000
0000
0000
0000
0000
0300
,
2000
0000
0000
0000
0000
0000
0000
0000
0001
0000
0000
0000
0000
0000
0000
3000
2000
0000
0000
0000
0000
0000
0000
0000
3200
0000
0000
0000
0000
0000
0000
0000
0010
0000
0000
0000
0000
0000
0000
0300
0200
0000
0000
0000
0000
0000
0000
0000
2300
0000
0000
0000
0000
0000
0000
0000
0001
0000
0000
0000
0000
0000
0000
0000
,
3200
0000
0000
0000
0000
0000
0000
0000
0001
0000
0000
0000
0000
0000
0000
0300
0200
0000
0000
0000
0000
0000
0000
0000
0320
0000
0000
0000
0000
0000
0000
0000
1000
0000
0000
0000
0000
0000
0000
0030
0020
0000
0000
0000
0000
0000
0000
0000
0230
0000
0000
0000
0000
0000
0000
0000
001M
0000
0000
0000
000M
0000
0000
0000
,
230M
0000
0000
0000
0000
0000
0000
0000
0000
0000
0000
0000
000M
0000
0000
0000
0000
0000
0000
0000
0000
0000
0000
0000
001M
0000
0000
0000
0000
0000
0000
0000
000M
0000
0000
0000
0000
0000
0000
0000
000M
0000
0000
0000
0000
3000
0000
0000
200M
0000
0000
0000
0000
0000
0000
0000
000M
0000
0000
0000
0000
0000
0000
0000
000M
0000
0000
0000
0000
0000
0000
0000
320M
0000
0000
0000
0000
0000
0000
0000
000M
0000
0000
0000
0000
0000
0000
0000
000M
0000
0000
0000
0000
0000
0000
0000
001M
0000
0000
0000
0000
0000
0000
0000
000M
0000
0000
0000
0000
0000
0000
0000
000M
0000
0000
0000
0000
0300
0000
0000
020M
0000
0000
0000
0000
0000
0000
0000
0000
0000
0000
0000
000M
0000
0000
0000
0000
0000
0000
0000
0000
0000
0000
0000
230M
0000
0000
0000
0000
0000
0000
0000
0000
0000
0000
0000
000M
0000
0000
0000
0000
0000
0000
0000
0000
0000
0000
0000
001M
0000
0000
0000
0000
0000
0000
0000
0000
0000
0000
0000
000M
0000
0000
0000
0000
0000
0000
0000
0000
0000
0000
0000
,
320M
0000
0000
0000
0000
0000
000M
0000
0010
0000
000M
0000
0000
0000
00M0
0300
020M
0000
0000
0000
0000
0000
00M0
0000
03M2
0000
0000
0000
00M0
0000
0000
0000
1000
0000
00M0
0000
0000
0000
00M0
0003
0002
0000
0000
0000
00M0
0000
0000
0000
0203
0000
0000
0000
00M0
0000
0000
0000
0001
0000
0000
0000
00M0
0000
0000
0000
,
2300
0000
0000
0000
0000
0000
0000
0000
0100
0000
0000
0000
0000
0000
0000
3000
2000
0000
0000
0000
0000
0000
0000
0000
3020
0000
0000
0000
0000
0000
0000
0000
0100
0000
0000
0000
0000
0000
0000
0030
0020
0000
0000
0000
0000
0000
0000
0000
2030
0000
0000
0000
0000
0000
0000
0000
0001
0000
0000
0000
0000
0000
0000
0000
,
3200
0000
0000
0000
0000
0000
0000
0000
0010
0000
0000
0000
0000
0000
0000
0300
0200
0000
0000
0000
0000
0000
0000
0000
0302
0000
0000
0000
0000
0000
0000
0000
1000
0000
0000
0000
0000
0000
0000
0003
0002
0000
0000
0000
0000
0000
0000
0000
0203
0000
0000
0000
0000
0000
0000
0000
0001
0000
0000
0000
0000
0000
0000
0000
,
0320
0000
0000
0000
0000
0000
0000
0000
0001
0000
0000
0000
0000
0000
0000
0030
0020
0000
0000
0000
0000
0000
0000
0000
0230
0000
0000
0000
0000
0000
0000
0000
1000
0000
0000
0000
0000
0000
0000
0300
0200
0000
0000
0000
0000
0000
0000
0000
0320
0000
0000
0000
0000
0000
0000
0000
0100
0000
0000
0000
0000
0000
0000
0030
,
2000
0000
0000
0000
0000
0000
0000
0000
0001
0000
0000
0000
0000
0000
0000
3000
2000
0000
0000
0000
0000
0000
0000
0000
3020
0000
0000
0000
0000
0000
0000
0000
1000
0000
0000
0000
0000
0000
0000
0030
0020
0000
0000
0000
0000
0000
0000
0000
0230
0000
0000
0000
0000
0000
0000
0000
0001
0000
0000
0000
0000
0000
0000
0300
,
2000
0000
0000
0000
0000
0000
0000
0000
0001
0000
0000
0000
0000
0000
0000
3000
2000
0000
0000
0000
0000
0000
0000
0000
3200
0000
0000
0000
0000
0000
0000
0000
0010
0000
0000
0000
0000
0000
0000
0300
0200
0000
0000
0000
0000
0000
0000
0000
2300
0000
0000
0000
0000
0000
0000
0000
0001
0000
0000
0000
0000
0000
0000
0000
,
3200
0000
0000
0000
0000
0000
0000
0000
0001
0000
0000
0000
0000
0000
0000
0300
0200
0000
0000
0000
0000
0000
0000
0000
0320
0000
0000
0000
0000
0000
0000
0000
1000
0000
0000
0000
0000
0000
0000
0030
0020
0000
0000
0000
0000
0000
0000
0000
0230
0000
0000
0000
0000
0000
0000
0000
0010
0000
0000
0000
0000
0000
0000
0000
,
2300
0000
0000
0000
0000
0000
0000
0000
0010
0000
0000
0000
0000
0000
0000
3000
2000
0000
0000
0000
0000
0000
0000
0000
3200
0000
0000
0000
0000
0000
0000
0000
0010
0000
0000
0000
0000
0000
0000
0300
0200
0000
0000
0000
0000
0000
0000
0000
2300
0000
0000
0000
0000
0000
0000
0000
0010
0000
0000
0000
0000
0000
0000
0000
,
3200
0000
0000
0000
0000
0000
0000
0000
0010
0000
0000
0000
0000
0000
0000
0300
0200
0000
0000
0000
0000
0000
0000
0000
0302
0000
0000
0000
0000
0000
0000
0000
1000
0000
0000
0000
0000
0000
0000
0003
0002
0000
0000
0000
0000
0000
0000
0000
0203
0000
0000
0000
0000
0000
0000
0000
0001
0000
0000
0000
0000
0000
0000
0000
,
2300
0000
0000
0000
0000
0000
0000
0000
0100
0000
0000
0000
0000
0000
0000
3000
2000
0000
0000
0000
0000
0000
0000
0000
3020
0000
0000
0000
0000
0000
0000
0000
0100
0000
0000
0000
0000
0000
0000
0030
0020
0000
0000
0000
0000
0000
0000
0000
2030
0000
0000
0000
0000
0000
0000
0000
0001
0000
0000
0000
0000
0000
0000
0000
,
3200
0000
0000
0000
0000
0000
0000
0000
0000
0000
0000
0000
0000
0000
0000
0000
0000
0000
0000
0000
0000
0000
0000
0000
0320
0000
0000
0000
0000
0000
0000
0000
0000
0000
0000
0000
0000
0000
0000
0000
0000
0000
0000
0000
0000
0000
0000
0000
0230
0000
0000
0000
0000
0000
0000
0000
0000
0000
0000
0000
0000
0000
0000
0300
,
0200
0000
0001
0000
0301
0010
0100
0000
,
1000
0010
1000
0010
0100
0001
0100
0001
1000
0100
1000
0100
0010
0001
0010
0001
,
1000
0010
0100
0001
1000
0001
0100
0010
1000
0010
0100
0001
1000
0001
0100
0001
,
0010
0100
0010
0100
1000
0100
1000
0100
1000
0001
1000
0001
0100
0001
0100
0001
,
1000
0100
0010
0001
1000
0100
0010
0001
1000
0001
0100
0010
0100
0010
0100
0010
,
1000
0001
1000
0001
0010
0001
0010
0001
1000
0010
1000
0010
0100
0001
0100
0001
,
1000
0100
0010
0001
1000
0100
0010
0001
1000
0001
0100
0010
1000
0001
1000
0010
,
0100
0001
1000
0100
0010
0001
1000
0001
0100
0001
0100
0001
0010
0100
1000
0001
,
0100
0001
1000
0001
0010
0100
1000
0001
0100
0001
0010
0001
1000
0001
0010
0001
,
1000
0010
1000
0010
0100
0001
0100
0001
1000
0001
1000
0001
0010
0100
0010
0100
,
1000
0010
0100
0001
1000
0001
0100
0010
1000
0010
0100
0001
1000
0100
0010
0001
,
0100
0001
0100
0010
1000
0001
1000
0100
0010
0001
0010
0100
1000
0001
1000
0010
,
0100
0001
0100
0010
1000
0001
1000
0010
0100
0001
1000
0001
1000
0001
1000
0001
,
0010
0100
1000
0001
0010
0001
1000
0010
0100
0001
0100
0010
1000
0001
1000
0100
,
0010
0001
0010
0001
0100
0001
1000
0010
0100
0001
0100
0010
1000
0001
1000
0100
,
1000
0001
1000
0100
0010
0001
0010
0100
1000
0001
1000
0100
0010
0001
0100
0010
,
1000
0001
1000
0100
0010
0001
0010
0100
1000
0001
1000
0100
0010
0001
0100
0010
,
4000
0000
0000
0000
,
3000
0000
0000
0000
;

//---------------dance-single - 13+ (TYLappo)----------------
#NOTES:
     dance-single:
     13+ (TYLappo):
     Hard:
     13:
     1.000,1.000,0.484,0.362,1.000,1563.000,103.000,77.000,84.000,0.000:
0000
0000
0000
0000
,
0000
0000
0000
0000
,
0000
0000
0000
0000
,
0000
0000
0000
0000
,
0000
0000
0000
0000
,
0000
0000
0000
0000
,
0000
0000
0000
0000
,
0000
0000
0000
0000
,
0000
0000
0000
0000
,
4M00
0000
3010
0000
0110
0000
0100
0001
0100
0001
1000
0000
0100
0000
0010
0001
,
0010
0000
0100
0000
1100
0000
1000
0001
1000
0001
0100
0000
0010
0000
0100
0001
,
0100
0000
0001
0000
1001
0000
1000
0100
1000
0100
0010
0000
0001
0000
1000
0001
,
1000
0000
0001
0000
0101
0000
0100
0010
0100
0010
1000
0000
0100
0000
0100
0000
,
4004
0000
3003
0000
0011
0000
0001
1000
0001
1000
0010
0000
0100
0000
0001
0100
,
0001
0000
1000
0000
1100
0000
0100
1000
0100
1000
0001
0000
0010
0000
0100
1000
,
0100
0000
1000
0000
1001
0000
0001
0100
0001
0100
0010
0000
1000
0000
0010
0100
,
0010
1000
1001
0001
0100
0101
0000
1010
,
0010
0000
0010
0000
1000
0100
0010
0001
1000
0000
1000
0000
0001
0010
0100
1000
,
0001
0001
M10M
0100
M01M
0010
2000
3001
,
0010
0000
0010
0000
0001
0010
0100
1000
0001
0000
0001
0000
1000
0010
0100
0001
,
1000
1000
0100
0100
0010
0001
1000
1000
,
0001
0000
0100
0000
0001
0010
0100
1000
0001
0000
0001
0000
1000
0100
0010
0001
,
1000
1000
M10M
0100
M01M
0010
0001
1000
,
0001
0000
0001
0000
1000
0010
0100
0001
1000
0000
1000
0000
0001
0100
0010
1000
,
0001
0001
0100
0100
0010
1010
0000
0101
,
0001
0000
0001
0000
1000
0010
0100
0001
1000
0000
1000
0000
0001
0010
0100
1000
,
0001
0001
M10M
0100
M01M
0010
0100
0010
,
1000
0000
1000
0000
0001
0010
0100
1000
0001
0000
0001
0000
1000
0010
0100
0001
,
1000
1000
0010
0010
0100
0001
1000
1000
,
0001
0000
0010
0000
0001
0010
0100
1000
0001
0000
0001
0000
1000
0100
0010
0001
,
1000
1000
M01M
0010
M10M
0100
0010
1000
,
0001
0000
0001
0000
0010
0001
0010
0000
0100
0000
0100
0000
1000
0100
1000
0000
,
0001
0100
0010
1000
0001
0011
0000
0011
,
0001
0000
1000
0000
1010
0000
0001
1000
0001
1000
0100
0000
0010
0000
0001
1000
,
0001
0000
1000
0000
1010
0000
0010
0100
0010
0100
0001
0000
1000
0000
0100
1000
,
0100
0000
0010
0000
0011
0000
0001
1000
0001
1000
0010
0000
0100
0000
0001
0100
,
0001
0000
1000
0000
1100
0000
0100
0010
0100
0010
0001
0000
0100
0000
0100
0000
,
0001
0000
1000
0000
1001
0000
0001
0010
0001
0010
0100
0000
1000
0000
0001
1000
,
0001
0000
0100
0000
0110
0000
0010
1000
0010
1000
0001
0000
0010
0000
0100
0010
,
0100
0000
1000
0000
1001
0000
0001
0100
0001
0100
0010
0000
1000
0000
0001
0010
,
0001
1000
1001
0001
0010
0011
0000
0011
,
0010
0000
0100
0000
1100
0000
1000
0001
1000
0001
0010
0000
0100
0000
1000
0001
,
1000
0000
0010
0000
0110
0000
0100
0001
0100
0001
1000
0000
0100
0000
0010
0001
,
0010
0000
0100
0000
1100
0000
1000
0001
1000
0001
0100
0000
0010
0000
1000
0010
,
1000
0000
0001
0000
1001
0000
1000
0001
1000
0001
0010
0000
0100
0000
0100
0000
,
1000
0000
1000
0000
0001
0100
0010
0000
1000
0000
1000
0000
0001
0010
0100
0000
,
1000
1000
0010
0010
0100
0001
1001
0000
,
0001
0000
0000
0000
0001
0000
0000
0000
0010
0000
0100
0000
0000
0000
0000
0000
1000
0000
0000
0000
1000
0000
0000
0000
0001
0100
0000
0000
000M
0000
0000
0000
,
0000
0M00
0001
0000
4004
3003
0010
1000
,
1000
0001
0010
0100
1000
0000
0001
0000
0010
0000
0100
0000
1000
0000
0001
0100
,
0001
1000
0001
0100
0010
0000
1000
0000
0001
0000
1000
0000
0010
0000
0100
0001
,
0100
0010
1000
0001
0010
0000
0100
0000
1100
0000
1000
0000
1001
0000
0001
0000
,
0101
0000
0100
0000
0110
0000
0010
0000
104M
0000
1030
0000
0001
0000
1000
0100
,
0010
0001
1000
0001
0100
0000
0010
0000
1000
0000
0001
0000
0010
0000
0001
1000
,
0001
0100
0010
1000
0001
0000
0010
0000
0100
0000
1000
0000
0001
0000
0100
0010
,
1000
0010
0100
0001
1000
0000
0001
0000
0011
0000
0010
0000
0110
0000
0100
0000
,
1100
0000
1000
0000
1001
0000
0001
0000
M104
0000
0103
0000
0010
0000
1000
0001
,
0010
0100
1000
0001
1000
0000
0001
0000
0100
0000
0010
0000
1000
0000
0001
0010
,
0100
1000
0001
1000
0010
0000
0100
0000
0001
0000
0010
0000
0001
0000
1000
0100
,
0010
0001
0100
0010
1000
0000
0001
0000
1001
0000
1000
0000
1100
0000
0100
0000
,
0110
0000
0010
0000
0011
0000
0001
0000
1M04
0000
1003
0000
1010
0000
1000
0001
,
0100
0010
1000
0001
0010
0000
0100
0000
1000
0000
0001
0000
0100
0000
0010
1000
,
0001
1000
0001
0010
0100
0000
1000
0000
0002
0000
0000
0000
1000
0000
0000
0000
,
0000
0000
1000
0000
1003
0010
0100
0001
,
1000
0100
0110
0010
0001
1000
1010
0010
,
0100
0001
1000
0000
1001
0000
0001
0000
0010
0000
0100
0000
1100
0000
1000
0000
,
0001
0010
0001
0000
1001
0000
1000
0000
0010
0000
0100
0000
0101
0000
0001
0000
,
1000
0001
1000
0000
1100
0000
0100
0000
0010
0000
0001
0000
1001
0000
1000
0000
,
0010
0100
0010
0100
0001
1000
1100
0100
,
0010
0001
0010
0000
1001
0000
0001
0000
0100
0000
0010
0000
1010
0000
1000
0000
,
0001
1000
0001
0000
0011
0000
0010
0000
0100
0000
1000
0000
1001
0000
0001
0000
,
0100
0001
0100
0000
0110
0000
0010
0000
1000
0000
0001
0000
0011
0000
0010
0000
,
0100
1000
0100
1000
0001
1000
1010
0010
,
0100
0001
1000
0000
1001
0000
0001
0000
0010
0000
0100
0000
1100
0000
1000
0000
,
0001
0010
0001
0000
1001
0000
1000
0000
0010
0000
0100
0000
0101
0000
0001
0000
,
1000
0001
1000
0000
1100
0000
0100
0000
0010
0000
0001
0000
1001
0000
1000
0000
,
0010
0100
0010
0100
0001
1000
1100
0100
,
0010
0001
0010
0000
1001
0000
0001
0000
0100
0000
0010
0000
1010
0000
1000
0000
,
0001
1000
0001
0000
0011
0000
0010
0000
0100
0000
1000
0000
1001
0000
0001
0000
,
0100
0001
0100
0000
0110
0000
0010
0000
1000
0000
0001
0000
0011
0000
0010
0000
,
0100
0000
1000
0000
0001
0000
1000
0000
0001
0100
0001
0100
0010
1000
0010
1000
,
0001
0010
0001
0010
0100
1000
0100
1000
0001
0100
0010
1000
0001
1000
0010
0100
,
0001
0100
0010
1000
0001
1000
0010
1000
0100
0010
0100
0010
0001
0010
0001
0010
,
0001
1000
0001
1000
0010
1000
0010
1000
0001
0010
0100
1000
0001
0010
0100
1000
,
0001
1000
0010
0100
0010
0100
0010
0100
0001
1000
0001
1000
0100
1000
0100
1000
,
0001
0100
0001
0100
0010
1000
0010
1000
0001
0010
0100
1000
0001
0010
0100
1000
,
0001
1000
0010
0100
0001
1000
0001
0100
0010
1000
0001
0010
0100
1000
0001
1000
,
0010
1000
0010
1000
0100
0010
0001
1000
0010
1000
0001
1000
0100
0010
0001
1000
,
0001
0000
0100
0000
0001
0000
0100
0000
0010
1000
0010
1000
0001
0010
0001
0010
,
0100
1000
0100
1000
0001
0100
0001
0100
0010
1000
0001
1000
0100
1000
0001
1000
,
0010
0100
0001
1000
0001
0010
0100
1000
0010
1000
0010
0100
0001
1000
0001
0010
,
0100
1000
0100
0010
0001
1000
0001
0100
0010
1000
0010
0100
0001
1000
0001
0100
,
0010
1000
0001
1000
0001
1000
0001
1000
0100
0010
0001
1000
0100
1000
0001
0100
,
0010
1000
0010
0100
0001
1000
0001
0010
0100
1000
0100
1000
0010
1000
0001
0100
,
0010
1000
0010
0100
0001
1000
0001
0010
0001
1000
0001
0010
0100
1000
0100
0010
,
0001
1000
0001
0010
0100
1000
0010
0100
0001
0000
0100
0000
0010
0000
1000
0000
,
0001
0010
0100
1000
1001
0001
0010
0100
,
1000
0001
1000
0000
0010
0000
0100
0000
0101
0000
0001
0000
0010
0000
0100
0000
,
1000
0100
1000
0000
0001
0000
0010
0000
0110
0000
0100
0000
1000
0000
0001
0000
,
0100
0001
0100
0000
0010
0000
1000
0000
1001
0000
0001
0000
0010
0000
0100
1000
,
0001
1000
0001
0000
0100
0000
0010
0000
1010
0000
1000
0000
0001
0000
0010
0000
,
0100
1000
0100
0000
0010
0000
0001
0000
1001
0000
1000
0000
0010
0000
0100
0000
,
0001
0100
0001
0000
0010
0000
0100
0000
1100
0000
1000
0000
0001
0000
0100
0000
,
0010
1000
0010
0000
0100
0000
0001
0000
1001
0000
1000
0000
0100
0000
0010
0000
,
0001
1000
0001
0010
0100
0000
1000
0000
1001
0000
0001
0000
0010
0000
0100
1000
,
0001
1000
0001
0100
0010
0000
1000
0000
1001
0000
0001
0000
0010
0000
0100
1000
,
0001
1000
0001
0100
0010
0000
1000
0000
1001
0000
0001
0000
0010
0000
0001
1000
,
0001
0100
0010
1000
0001
0000
1000
0000
1100
0000
0100
0000
0010
0000
0001
0010
,
0100
1000
0001
0100
0010
0000
1000
0000
1010
0000
0010
0000
0100
0000
0010
1000
,
0001
1000
0100
0010
0001
0000
1000
0000
1001
0000
0001
0000
0010
0000
0100
0010
,
0001
1000
0001
0100
0010
0000
1000
0000
00M0
0000
0000
0000
0M00
0000
0000
0000
,
0001
0000
0010
0001
0100
0010
1010
0000
,
1001
0000
0001
0000
1000
0100
0010
0001
1000
0000
1000
0000
0001
0010
0100
1000
,
0001
0001
M10M
0100
M01M
0010
1000
0001
,
0010
0000
0010
0000
0001
0010
0100
1000
0001
0000
0001
0000
1000
0010
0100
0001
,
1000
1000
0100
0100
0010
0011
0000
0011
,
0001
0000
1000
0000
0001
0010
0100
1000
0001
0000
0001
0000
1000
0100
0010
0001
,
1000
1000
M10M
0100
M01M
0010
0001
1000
,
0MM1
M000
0001
0000
1000
0010
0100
0001
1000
0000
1000
0000
0001
0100
0010
1000
,
0001
0001
0100
0100
0010
1010
0000
0101
,
0001
0000
0001
0000
1000
0010
0100
0001
1000
0000
1000
0000
0001
0010
0100
1000
,
0001
0001
M10M
0100
M01M
0010
1000
0010
,
0100
0000
0100
0000
0001
0010
0100
1000
0001
0000
0001
0000
1000
0010
0100
0001
,
1000
1000
0010
0010
0100
0101
0000
0101
,
0001
0000
1000
0000
0001
0010
0100
1000
0001
0000
0001
0000
1000
0100
0010
0001
,
1000
1000
M01M
0010
M10M
0100
0010
1000
,
00M1
0000
0001
0000
0010
0100
0000
0000
1000
0000
1000
0000
0001
0100
0000
0000
,
001M
0000
1M00
0010
0110
0101
1001
M00M
,
1002
0000
0000
0000
0000
0000
0000
0003
0002
0000
0000
0000
0000
0000
0000
0000
1000
0000
0000
0000
0000
0000
0003
0000
0020
0000
0000
0000
0000
0000
0000
0000
1000
0000
0000
0000
0000
0000
0000
0030
0020
0000
0000
0000
0000
0000
0000
0000
0230
0000
0000
0000
0000
0000
0000
0000
0001
0000
0000
0000
0000
0000
0000
0300
,
2000
0000
0000
0000
0000
0000
0000
0000
0001
0000
0000
0000
0000
0000
0000
3000
2000
0000
0000
0000
0000
0000
0000
0000
3200
0000
0000
0000
0000
0000
0000
0000
0010
0000
0000
0000
0000
0000
0000
0300
0200
0000
0000
0000
0000
0000
0000
0000
2300
0000
0000
0000
0000
0000
0000
0000
0001
0000
0000
0000
0000
0000
0000
0000
,
3200
0000
0000
0000
0000
0000
0000
0000
0001
0000
0000
0000
0000
0000
0000
0300
0200
0000
0000
0000
0000
0000
0000
0000
0320
0000
0000
0000
0000
0000
0000
0000
1000
0000
0000
0000
0000
0000
0000
0030
0020
0000
0000
0000
0000
0000
0000
0000
0230
0000
0000
0000
0000
0000
0000
0000
001M
0000
0000
0000
000M
0000
0000
0000
,
230M
0000
0000
0000
0000
0000
0000
0000
0000
0000
0000
0000
000M
0000
0000
0000
0000
0000
0000
0000
0000
0000
0000
0000
001M
0000
0000
0000
0000
0000
0000
0000
000M
0000
0000
0000
0000
0000
0000
0000
000M
0000
0000
0000
0000
3000
0000
0000
200M
0000
0000
0000
0000
0000
0000
0000
000M
0000
0000
0000
0000
0000
0000
0000
000M
0000
0000
0000
0000
0000
0000
0000
320M
0000
0000
0000
0000
0000
0000
0000
000M
0000
0000
0000
0000
0000
0000
0000
000M
0000
0000
0000
0000
0000
0000
0000
001M
0000
0000
0000
0000
0000
0000
0000
000M
0000
0000
0000
0000
0000
0000
0000
000M
0000
0000
0000
0000
0300
0000
0000
020M
0000
0000
0000
0000
0000
0000
0000
0000
0000
0000
0000
000M
0000
0000
0000
0000
0000
0000
0000
0000
0000
0000
0000
230M
0000
0000
0000
0000
0000
0000
0000
0000
0000
0000
0000
000M
0000
0000
0000
0000
0000
0000
0000
0000
0000
0000
0000
001M
0000
0000
0000
0000
0000
0000
0000
0000
0000
0000
0000
000M
0000
0000
0000
0000
0000
0000
0000
0000
0000
0000
0000
,
320M
0000
0000
0000
0000
0000
000M
0000
0010
0000
000M
0000
0000
0000
00M0
0300
020M
0000
0000
0000
0000
0000
00M0
0000
03M2
0000
0000
0000
00M0
0000
0000
0000
1000
0000
00M0
0000
0000
0000
00M0
0003
0002
0000
0000
0000
00M0
0000
0000
0000
0203
0000
0000
0000
00M0
0000
0000
0000
0001
0000
0000
0000
00M0
0000
0000
0000
,
2300
0000
0000
0000
0000
0000
0000
0000
0100
0000
0000
0000
0000
0000
0000
3000
2000
0000
0000
0000
0000
0000
0000
0000
3020
0000
0000
0000
0000
0000
0000
0000
0100
0000
0000
0000
0000
0000
0000
0030
0020
0000
0000
0000
0000
0000
0000
0000
2030
0000
0000
0000
0000
0000
0000
0000
0001
0000
0000
0000
0000
0000
0000
0000
,
3200
0000
0000
0000
0000
0000
0000
0000
0010
0000
0000
0000
0000
0000
0000
0300
0200
0000
0000
0000
0000
0000
0000
0000
0302
0000
0000
0000
0000
0000
0000
0000
1000
0000
0000
0000
0000
0000
0000
0003
0002
0000
0000
0000
0000
0000
0000
0000
0203
0000
0000
0000
0000
0000
0000
0000
0001
0000
0000
0000
0000
0000
0000
0000
,
0320
0000
0000
0000
0000
0000
0000
0000
0001
0000
0000
0000
0000
0000
0000
0030
0020
0000
0000
0000
0000
0000
0000
0000
0230
0000
0000
0000
0000
0000
0000
0000
1000
0000
0000
0000
0000
0000
0000
0300
0200
0000
0000
0000
0000
0000
0000
0000
0320
0000
0000
0000
0000
0000
0000
0000
0100
0000
0000
0000
0000
0000
0000
0030
,
2000
0000
0000
0000
0000
0000
0000
0000
0001
0000
0000
0000
0000
0000
0000
3000
2000
0000
0000
0000
0000
0000
0000
0000
3020
0000
0000
0000
0000
0000
0000
0000
1000
0000
0000
0000
0000
0000
0000
0030
0020
0000
0000
0000
0000
0000
0000
0000
0230
0000
0000
0000
0000
0000
0000
0000
0001
0000
0000
0000
0000
0000
0000
0300
,
2000
0000
0000
0000
0000
0000
0000
0000
0001
0000
0000
0000
0000
0000
0000
3000
2000
0000
0000
0000
0000
0000
0000
0000
3200
0000
0000
0000
0000
0000
0000
0000
0010
0000
0000
0000
0000
0000
0000
0300
0200
0000
0000
0000
0000
0000
0000
0000
2300
0000
0000
0000
0000
0000
0000
0000
0001
0000
0000
0000
0000
0000
0000
0000
,
3200
0000
0000
0000
0000
0000
0000
0000
0001
0000
0000
0000
0000
0000
0000
0300
0200
0000
0000
0000
0000
0000
0000
0000
0320
0000
0000
0000
0000
0000
0000
0000
1000
0000
0000
0000
0000
0000
0000
0030
0020
0000
0000
0000
0000
0000
0000
0000
0230
0000
0000
0000
0000
0000
0000
0000
0010
0000
0000
0000
0000
0000
0000
0000
,
2300
0000
0000
0000
0000
0000
0000
0000
0010
0000
0000
0000
0000
0000
0000
3000
2000
0000
0000
0000
0000
0000
0000
0000
3200
0000
0000
0000
0000
0000
0000
0000
0010
0000
0000
0000
0000
0000
0000
0300
0200
0000
0000
0000
0000
0000
0000
0000
2300
0000
0000
0000
0000
0000
0000
0000
0010
0000
0000
0000
0000
0000
0000
0000
,
3200
0000
0000
0000
0000
0000
0000
0000
0010
0000
0000
0000
0000
0000
0000
0300
0200
0000
0000
0000
0000
0000
0000
0000
0302
0000
0000
0000
0000
0000
0000
0000
1000
0000
0000
0000
0000
0000
0000
0003
0002
0000
0000
0000
0000
0000
0000
0000
0203
0000
0000
0000
0000
0000
0000
0000
0001
0000
0000
0000
0000
0000
0000
0000
,
2300
0000
0000
0000
0000
0000
0000
0000
0100
0000
0000
0000
0000
0000
0000
3000
2000
0000
0000
0000
0000
0000
0000
0000
3020
0000
0000
0000
0000
0000
0000
0000
0100
0000
0000
0000
0000
0000
0000
0030
0020
0000
0000
0000
0000
0000
0000
0000
2030
0000
0000
0000
0000
0000
0000
0000
0001
0000
0000
0000
0000
0000
0000
0000
,
3200
0000
0000
0000
0000
0000
0000
0000
0000
0000
0000
0000
0000
0000
0000
0000
0000
0000
0000
0000
0000
0000
0000
0000
0320
0000
0000
0000
0000
0000
0000
0000
0000
0000
0000
0000
0000
0000
0000
0000
0000
0000
0000
0000
0000
0000
0000
0000
0230
0000
0000
0000
0000
0000
0000
0000
0000
0000
0000
0000
0000
0000
0000
0300
,
0200
0000
0001
0000
0301
0010
0100
0000
,
1000
0010
1000
0010
0100
0001
0100
0001
1000
0100
1000
0100
0010
0001
0010
0001
,
1000
0010
0100
0001
1000
0001
0100
0010
1000
0010
0100
0001
1000
0001
0100
0001
,
0010
0100
0010
0100
1000
0100
1000
0100
1000
0001
1000
0001
0100
0001
0100
0001
,
1000
0100
0010
0001
1000
0100
0010
0001
1000
0001
0100
0010
0100
0010
0100
0010
,
1000
0001
1000
0001
0010
0001
0010
0001
1000
0010
1000
0010
0100
0001
0100
0001
,
1000
0100
0010
0001
1000
0100
0010
0001
1000
0001
0100
0010
1000
0001
1000
0010
,
0100
0001
1000
0100
0010
0001
1000
0001
0100
0001
0100
0001
0010
0100
1000
0001
,
0100
0001
1000
0001
0010
0100
1000
0001
0100
0000
0010
0000
0100
0000
0010
0000
,
1000
0010
1000
0010
0100
0001
0100
0001
1000
0001
1000
0001
0010
0100
0010
0100
,
1000
0010
0100
0001
1000
0001
0100
0010
1000
0010
0100
0001
1000
0100
0010
0001
,
0100
0001
0100
0010
1000
0001
1000
0100
0010
0001
0010
0100
1000
0001
1000
0010
,
0100
0001
0100
0010
1000
0001
1000
0010
0100
0001
1000
0001
0100
0001
1000
0001
,
0010
0100
1000
0001
0010
0001
1000
0010
0100
0001
0100
0010
1000
0001
1000
0100
,
0010
0001
0010
0001
0100
0001
1000
0010
0100
0001
0100
0010
1000
0001
1000
0100
,
2000
0000
0000
0000
,
0000
0000
0000
0000
,
300M
0000
0000
0000
;
