#TITLE:TORCH;
#SUBTITLE:CLANNAD After Story ED theme;
#ARTIST:Lia;
#TITLETRANSLIT:;
#SUBTITLETRANSLIT:;
#ARTISTTRANSLIT:;
#CREDIT:ALICE_;
#BANNER:TORCH.png;
#BACKGROUND:TORCH.jpg;
#LYRICSPATH:;
#CDTITLE:cdtitle.png;
#MUSIC:TORCH.mp3;
#OFFSET:0.328;
#SAMPLESTART:55.180;
#SAMPLELENGTH:12.000;
#SELECTABLE:YES;
#BPMS:0.000=127.420;
#STOPS:;
#BGCHANGES:2.000=TORCH.avi=1.000=0=0=1,
190.500=TORCH.jpg=1.000=1=0=1,
99999=-nosongbg-=1.000=0=0=0 // don't automatically add -songbackground-
;
// cache tags:
#FIRSTBEAT:3.000;
#LASTBEAT:191.000;
#SONGFILENAME:Songs/alice 4th complete step/TORCH/TORCH.sm;
#HASMUSIC:1;
#HASBANNER:1;
#MUSICLENGTH:91.097;
// end cache tags

//---------------dance-single - ----------------
#NOTES:
     dance-single:
     :
     Hard:
     8:
     0.533,0.472,0.329,0.033,0.049,307.000,30.000,3.000,0.000,0.000:
0000
0000
0000
0000
,
1000
0001
0100
0010
1000
0001
0100
0010
,
1000
0100
0010
0001
1000
0010
0110
0010
,
1000
0001
0010
0001
0100
0010
0100
1001
,
0000
0000
0100
0000
0001
0000
1000
0000
0100
0000
0010
0000
0000
0000
0001
0001
,
0100
0001
0001
1000
0010
0100
0001
0000
,
1000
0100
0010
0100
1000
0010
0100
0010
,
0001
1000
1000
0010
0100
0001
1000
0000
,
0001
0100
0010
0100
0001
0010
0100
0010
,
1000
0001
0100
0100
0001
1000
0100
0000
,
0010
0001
1000
0001
0100
0001
1000
0010
,
0001
1000
0100
0100
1000
0001
0100
0010
,
0100
0101
1100
0011
,
0100
0010
1000
0010
1000
0100
0100
0000
,
1000
0000
0101
0000
0001
1000
0100
0000
,
0010
0100
0001
0010
0001
0100
0100
0000
,
0001
0000
1100
0000
0001
1000
0100
0000
,
1000
0010
0100
0001
0010
0100
0100
0000
,
1000
0000
0011
0000
0001
1000
0100
0000
,
0001
0010
0100
1000
0010
0100
0100
0010
,
0000
1000
0001
1000
0001
0010
0001
1000
,
0100
0110
1100
0011
,
0100
0000
0000
0100
0001
0000
0000
0001
1000
0000
0000
0000
1001
0000
0000
0000
,
0010
0110
0101
1010
,
0100
0000
0000
0100
1000
0000
0000
1000
0001
0000
0100
0000
1001
0000
0000
0001
,
0010
1100
0102
1003
,
0001
0000
0000
0001
0100
0000
0000
0100
0010
0000
0000
0000
1100
0000
0000
0000
,
0010
0000
0101
0000
0001
1000
0001
0100
,
0010
0000
0010
0000
0010
0100
0001
1000
,
0100
0100
0100
0000
,
1000
0100
0010
0001
1000
0010
0100
0001
,
1000
0100
0010
0001
1000
0010
0110
0010
,
1000
0001
0010
0100
1000
0001
0100
0010
,
1000
0001
0010
0100
1000
0001
0101
0001
,
1000
0010
0100
0010
0001
0010
0100
0010
,
1000
0001
0100
0001
1000
0100
0110
0100
,
1000
0010
0001
0010
1000
0100
0010
0001
,
0000
0000
0101
0000
0000
0000
1100
0000
0000
0000
0110
0000
0000
0000
1000
1000
,
0100
0000
0010
0001
1000
0001
0010
0000
,
0100
1000
0001
0100
0010
1000
1001
1000
,
0010
0000
0100
0001
1000
0001
0100
0000
,
0010
0001
1000
0010
0100
0001
1001
0001
,
0010
0100
0010
0100
1000
0010
0100
0001
,
0000
1000
0100
1000
0001
0100
0110
0100
,
0001
1000
0001
0100
1000
0100
0001
0010
,
0000
0100
1000
0001
0000
0100
1000
0010
,
0100
0000
0000
0000
0100
0000
0000
2002
,
0000
0000
0000
3003
;

//---------------dance-single - ----------------
#NOTES:
     dance-single:
     :
     Medium:
     6:
     0.434,0.419,0.285,0.143,0.000,238.000,26.000,13.000,0.000,0.000:
0000
0000
0000
0000
,
1000
0101
0001
1100
,
1000
0100
0010
0001
0000
0100
0100
0100
,
0001
0000
1100
0000
0010
0100
0001
0010
,
0000
0100
0000
1000
0000
1001
0000
0000
,
0010
0000
0001
0100
1000
0100
0001
0020
,
0000
0000
0000
0030
0000
0100
1000
0010
,
0100
0000
0001
1000
0100
0000
1001
0000
,
0120
0001
0100
0031
,
0100
0000
0001
0010
1000
0010
0001
0200
,
0000
0000
0000
0000
0300
0010
1000
0100
,
0010
0000
0001
2000
0000
0000
3010
0010
,
0000
0100
1001
0000
0100
0001
0001
0010
,
0100
0000
1100
1000
0010
0100
1000
0100
,
0001
0000
1000
0000
0001
0010
0100
0010
,
0001
0000
0100
0001
1000
0000
0010
0000
,
0120
0000
1000
0000
0100
0000
1000
0030
,
0100
0000
0001
1000
0010
0100
0001
0020
,
0000
0000
0000
0030
0000
0100
1000
0001
,
0100
0000
0010
0100
0001
0100
0010
1000
,
0000
0100
0010
0100
1000
0000
0001
0000
,
0201
0010
0001
0010
,
1000
0000
0310
0000
0001
1000
0100
0010
,
0200
1000
0010
1000
,
0001
0000
0010
0300
1000
0010
0100
0001
,
2000
0100
0010
0100
,
0001
0000
0010
0000
0001
3000
0100
0000
,
1001
0011
1001
1100
,
0010
0000
0110
0000
1000
0001
0100
0010
,
1000
0100
0001
0000
0001
0100
1000
0000
,
0010
0000
0101
0000
0010
1000
0001
0000
,
1000
0100
0010
0001
0000
0100
0100
0100
,
0010
0000
1100
0000
0010
1000
0001
0000
,
0001
0100
0010
1000
0000
0010
0010
0010
,
0100
0000
0101
0000
1000
0100
1000
0000
,
0010
0000
1010
0000
0001
0100
0001
0010
,
1000
0000
0000
0010
0000
0000
0001
0000
,
0000
0100
0000
0000
0110
0000
1001
0000
,
0010
0000
1100
0000
0010
0001
1000
0000
,
1000
0010
0100
0001
0000
1000
1000
1000
,
0010
0000
0101
0000
0100
0001
0010
0000
,
1000
0100
0010
0001
0000
0100
0100
0100
,
0010
0000
1001
0000
0100
0010
0100
0000
,
0010
0000
1001
0000
0010
0100
1000
0100
,
0020
0000
0130
0000
0002
0000
1003
0010
,
0000
0100
0001
0000
1000
0100
0001
0100
,
0010
0000
0000
0000
0010
0000
0000
0220
,
0000
0000
0000
0330
;

//---------------dance-single - ----------------
#NOTES:
     dance-single:
     :
     Easy:
     3:
     0.249,0.257,0.066,0.000,0.000,153.000,6.000,0.000,0.000,0.000:
0000
0000
0000
0000
,
1000
0100
0010
0001
,
1000
0000
1000
0000
,
0001
0100
0010
1001
,
0000
0000
0000
0000
,
1000
0100
1000
1000
,
0000
0010
0000
0100
,
0001
0010
0001
0001
,
0000
1000
0000
0010
,
0100
0001
1000
1000
,
0000
0010
0000
0100
,
1000
0001
0010
0010
,
0000
0001
1000
0001
,
0100
0101
1000
0001
,
1000
1100
0001
1000
,
0010
0100
0001
1000
,
0100
0100
0010
0100
,
1000
1010
1000
0001
,
0010
0011
0001
1000
,
0010
0100
0001
1000
,
0100
0010
0100
0000
,
1000
0100
0010
0001
,
1000
0000
0010
0100
,
0001
0010
0100
1000
,
0010
0000
0100
0000
,
1000
0001
0100
0010
,
1000
0000
1000
0000
,
0010
0100
0001
0010
,
0100
0100
0100
0000
,
1000
0010
0100
0001
,
0010
1000
0100
0000
,
0001
0010
0100
1000
,
0100
0001
0010
0000
,
1000
1000
0001
0001
,
0100
0000
0010
0000
,
1000
0100
0001
0100
,
1000
0010
0100
0001
,
1000
0000
0001
0000
,
0001
0010
0100
1000
,
0010
0001
0100
0000
,
1000
0010
0100
0001
,
0100
1000
0010
0000
,
0001
1000
1000
0001
,
0100
0000
0010
0000
,
1000
0001
1000
0010
,
0001
0100
0001
1000
,
0010
0000
0000
0000
0010
0000
0000
1001
;

//---------------dance-single - ----------------
#NOTES:
     dance-single:
     :
     Challenge:
     11:
     0.767,0.786,0.977,0.340,0.390,368.000,89.000,31.000,0.000,4.000:
0000
0000
0000
2000
,
3110
0000
0001
1000
0010
0100
0001
1000
0020
0000
0130
0000
0002
0000
0013
0000
,
1000
1100
0110
0011
2000
0001
0001
3001
,
0110
0000
0000
0000
0000
0000
0000
0000
1000
0000
0000
0000
0001
0000
0000
0000
0100
0000
0000
0000
0010
0000
0000
0000
1000
0000
0000
0000
0001
0000
0000
0000
0100
0000
0000
0000
0000
0000
0000
0000
1010
0000
0000
0000
0000
0000
0000
0000
0100
0000
0001
0000
0000
0000
0000
0000
0001
1000
0000
0000
0000
0000
0000
0000
,
0000
0000
0000
0000
0100
0000
0000
0000
0000
0000
0000
0000
1000
0000
0000
0000
0010
0001
0000
0000
0200
0000
0000
0000
0000
0000
0000
0000
0310
0000
0010
0000
,
1000
0000
0001
0000
0101
0000
1000
0000
0100
0010
0000
0010
0100
0000
2000
0000
,
0001
0010
0001
0010
,
3001
0000
1000
0000
1010
0000
0001
0000
0100
0010
0000
0010
0100
0000
0002
0000
,
1000
0000
0100
0000
1000
0000
0100
0003
,
1100
0000
0010
0000
1010
0000
0100
0000
1000
0001
0000
0001
1000
0000
0020
0000
,
0100
0000
1000
0000
0100
0000
1000
0030
,
0001
0000
1000
0000
1010
0000
0100
0000
0001
1000
0000
1000
0001
0000
0100
0000
,
1001
0000
0010
0000
1001
0100
0010
0001
1000
0100
0010
0001
1000
0100
0010
0001
,
2100
0000
0010
0000
3101
0000
1000
0010
0100
0000
0010
0000
0101
0000
0020
0000
,
0001
0000
0000
0100
1000
0000
0000
0100
0031
0000
0100
0000
0011
0000
1000
0000
,
0012
0000
0100
0000
1013
0000
0001
0100
0010
0000
0100
0000
1010
0000
0200
0000
,
1000
0000
0000
0010
0001
0000
0000
0010
1300
0000
0001
0000
1100
0000
0010
0100
,
0001
0000
1000
0000
0110
0000
1000
0100
1000
0000
0010
0000
1001
0000
0020
0000
,
1000
0000
0000
0100
0001
0000
0000
0100
1000
0000
0000
0100
0031
0000
0100
0000
,
1000
0000
0001
0000
0110
0000
0001
0010
0001
0000
0100
0000
1010
0000
2002
0000
,
3003
0000
0100
0000
0011
0000
1000
1000
0100
0000
1001
0000
1001
0000
0010
0000
,
0101
1010
0101
1010
,
0101
0000
0000
0010
1010
0000
0000
0100
0101
0000
0000
0000
1010
0000
0000
0000
,
1100
0011
1100
0011
,
1100
0000
0000
0000
0011
0000
0000
0100
1100
0000
1000
0000
0011
0000
0000
0001
,
0110
1001
0110
1001
,
1010
0000
0000
0100
0101
0000
0000
0010
1010
0000
0000
0000
0101
0000
0000
0000
,
1010
1100
0011
1001
,
0110
0000
1100
0000
0101
1010
0110
1001
,
0110
0110
0110
0000
,
1001
0000
0010
0100
0001
1000
0010
0100
0002
0000
1003
0000
0020
0000
0130
0000
,
1000
0100
0010
0001
2000
0010
0010
3010
,
1001
0000
0100
0010
1000
0001
0100
0010
2000
0000
3001
0000
0200
0000
0310
0000
,
0001
0010
0100
1000
0002
0100
0100
0103
,
1010
0000
0100
0001
1000
0010
0100
0001
2000
0000
3010
0000
0002
0000
1003
0000
,
0011
0000
0100
0000
1000
0000
0202
0000
0000
0300
1000
0000
1000
0000
1003
0000
,
0110
0000
1000
0001
0100
0010
1000
0001
0100
0000
1000
0000
0010
0000
0101
0000
,
0000
0000
1010
0000
0000
0000
0110
0000
0000
0000
1001
0000
1001
0000
1001
0001
,
1100
0000
0010
0000
1000
0000
0001
0001
0100
0000
0010
0000
1000
0000
0001
0000
,
1000
0100
0010
0001
2000
0010
0010
3010
,
0001
0000
1000
0000
0010
0000
0100
0100
0001
0000
1000
0000
0010
0000
0100
0100
,
0001
0010
0100
1000
0002
0100
0100
0103
,
1001
0000
0010
0001
0010
0001
0010
0001
0100
0000
0010
0000
1100
0000
0001
0000
,
1010
0100
0001
2100
0000
0001
0001
3001
,
0101
0000
1000
0010
1000
0010
1000
0010
0100
0000
0010
0000
1001
0000
0120
0000
,
0000
0000
1030
0100
1000
0001
0100
0001
1000
0000
0001
0100
0001
1000
0100
1000
,
0011
0000
0000
0000
0011
0000
0000
2012
,
0000
0000
0000
3003
;
