#TITLE:My Spirit Will Go On;
#SUBTITLE:;
#ARTIST:Dragonforce;
#TITLETRANSLIT:;
#SUBTITLETRANSLIT:;
#ARTISTTRANSLIT:;
#CREDIT:;
#BANNER:(cerdo_claro)My Spirit Will Go On-bn.JPG;
#BACKGROUND:(cerdo_claro)My Spirit Will Go On-bg.jpg;
#LYRICSPATH:;
#CDTITLE:cdtitle.png;
#MUSIC:(cerdo_claro)My Spirit Will Go On.mp3;
#OFFSET:-7.100;
#SAMPLESTART:97.980;
#SAMPLELENGTH:11.780;
#SELECTABLE:YES;
#BPMS:0.000=200.000,868.000=170.000,964.000=200.000;
#STOPS:;
#BGCHANGES:;
// cache tags:
#FIRSTBEAT:0.000;
#LASTBEAT:1548.500;
#SONGFILENAME:Songs/juju step2/(cerdo_claro)My Spirit Will Go On/(cerdo_claro)My Spirit Will Go On.sm;
#HASMUSIC:1;
#HASBANNER:1;
#MUSICLENGTH:478.336;
// end cache tags

//---------------dance-single - Blank----------------
#NOTES:
     dance-single:
     Blank:
     Hard:
     13:
     1.000,1.000,1.000,0.226,1.000,4789.000,822.000,108.000,0.000,30.000:
1000
0100
0001
0100
1000
0100
0001
0000
,
1000
0010
0001
0010
1000
0001
0010
0000
,
0001
0100
0001
0010
0001
0100
0001
0000
,
1000
0010
1000
0100
1000
0010
1000
0000
,
1000
0010
0100
0001
1000
0001
1000
0000
,
0010
0001
0100
0010
1000
0100
0010
0000
,
0100
0010
1000
0001
0010
0100
1000
0000
,
0100
0001
1000
0010
0100
0001
1000
0000
,
2000
0001
0010
0100
0001
0010
0001
0000
,
0010
0100
0001
0010
0001
0100
0010
0000
,
0001
0010
0100
0001
0100
0010
0001
0000
,
0010
0100
0001
0100
3001
1000
0001
0000
,
0010
0100
0001
0010
0100
1000
0010
0000
,
0010
0100
1000
0100
0001
0100
1000
0000
,
0100
0001
0010
1000
0001
1000
0001
0000
,
0010
1000
0001
0010
1000
0100
0001
0000
,
0011
0011
0011
0101
0101
0110
1001
0000
,
1100
0000
1100
0000
1010
0000
1010
0000
0110
1000
0001
1000
0011
0000
0000
0000
,
0110
0110
1010
1010
0101
0110
1001
0000
,
0101
0000
0101
0000
1010
0000
1010
0000
1001
0010
0100
0010
1001
0000
0000
0000
,
1001
1001
0101
0101
0110
1010
1001
0000
,
0101
0000
0101
0000
0110
0000
0110
0000
1010
0001
0100
0010
1001
0000
0000
0000
,
1010
1010
1001
1001
0110
0110
1010
0000
,
0110
0000
0110
0000
1010
0000
1010
0000
0101
0010
1000
0100
1001
0000
0000
0000
,
0101
0101
0101
1001
1001
1001
0101
0101
,
1010
1010
1010
1010
1001
1001
1100
1100
,
0101
0101
0101
1001
1001
1001
0110
0110
,
1001
1001
1001
0101
0101
0101
1010
1010
,
1001
0010
1001
0000
1010
0000
0110
0000
0110
0000
0110
0000
1100
0000
1100
0000
,
0011
0011
0011
1010
1010
1010
0101
0101
,
0110
0110
0110
1001
1001
1001
0101
0101
,
1010
1010
1010
0110
0110
0110
1001
1001
,
2100
0010
0001
0100
0010
0001
0100
0010
0001
0100
0010
0001
0100
0010
0001
0100
,
0010
0001
3000
0000
0101
0000
0000
0000
1001
0000
0000
0000
0110
0000
0000
0000
,
0001
0010
0100
1000
0010
0100
0001
0100
0010
1000
0100
0010
0001
0010
0100
0010
,
0001
1000
0010
0100
0001
1000
0100
0010
0100
1000
0010
0100
0001
0010
0100
1000
,
0010
0100
0001
0010
0100
1000
0001
1000
0001
1000
0010
0100
0001
0010
0100
1000
,
0010
0000
0000
0100
0000
0000
0001
0000
0000
0010
0000
0000
0100
0000
0000
1000
0000
0000
0010
0000
0000
0100
0000
0000
0001
0000
0010
0000
0100
0000
1000
0000
0001
0000
0010
0000
0100
0000
1000
0000
0001
0000
0010
0000
0100
0000
1000
0000
,
0001
0010
0100
1000
0010
0100
0001
1000
0010
0100
0001
1000
0010
0100
0001
0010
,
0100
1000
0100
0010
0100
1000
0001
0100
0001
0010
0001
0010
0100
1000
0010
0100
,
0001
1000
0100
0010
0100
1000
0010
0100
0001
0010
0100
1000
0010
0001
0100
0010
,
1000
0100
0010
0001
1000
0100
0010
0001
1000
0100
0010
0001
1100
0000
0000
0000
0000
0000
0101
0000
0000
0000
0000
0000
,
1000
0100
0010
0001
0010
0100
1000
0010
0100
0001
0010
0001
1000
0100
1000
0010
,
0100
0001
0010
0100
1000
0010
0100
0001
1000
0010
0100
0001
1000
0001
1000
0010
,
0100
0001
0010
0100
1000
0010
0100
0001
0010
0100
1000
0001
1000
0001
1000
0001
,
1000
0100
0010
0001
1000
0100
0010
0001
1000
0100
0010
0001
1010
0000
0000
0000
0000
0000
1001
0000
0000
0000
0000
0000
,
0001
0010
0100
1000
0010
0100
0011
1000
0010
0100
0001
1000
0110
0001
1000
0010
,
0101
0010
1000
0001
1000
0010
0100
0001
1100
0010
0001
1000
0110
0001
0010
0001
,
1100
0001
0100
0010
1000
0010
1100
0010
0001
1000
0010
0100
0011
1000
0001
0010
,
1100
0001
0100
0010
1000
0001
0110
0001
1000
0010
0100
0001
0110
0001
1000
0010
,
0101
0000
0000
0000
,
0001
0010
0100
1000
0010
0100
0001
1000
0001
1000
0010
0100
0001
0010
0001
1000
,
0100
1000
0010
0100
0001
0010
0100
1000
0010
0100
0001
0010
0100
1000
0010
0100
,
0001
0100
0010
1000
0100
0010
0001
1000
0010
0100
0001
1000
0001
1000
0010
0100
,
0010
1000
0100
0010
0001
0100
0001
1000
0001
0100
0010
1000
0010
0100
0001
1000
,
0011
1000
0010
0100
0001
0010
1100
0001
1000
0010
0100
0001
0110
0001
1000
0001
,
0110
1000
0010
0100
0001
1000
0110
0001
1000
0010
0100
0001
1100
0010
1001
0100
,
0010
1000
0001
1000
0001
0100
0010
1000
0010
0100
0001
1000
0100
0010
0001
0000
,
1000
0000
0100
0000
0010
0000
0001
0000
1000
0000
0100
0000
0010
0000
0001
0000
1000
0000
0100
0000
0010
0000
0001
0000
1000
0000
0000
0010
0000
0000
0100
0000
0000
0001
0000
0000
0100
0000
0000
1000
0000
0000
0010
0000
0000
0100
0000
0000
,
1000
0100
0010
0001
0100
0010
1000
0001
1000
0001
0100
0010
1000
0100
1000
0001
,
0010
0001
0100
0010
1000
0100
0010
0001
0100
0010
1000
0100
0010
0001
0100
0010
,
1000
0010
0100
0001
0010
0100
1000
0001
0100
0010
1000
0001
1000
0001
0100
0010
,
0100
0001
0010
0100
1000
0010
1000
0001
1000
0010
0100
0001
0100
0010
1000
0001
,
1100
0001
0100
0010
1000
0100
0011
1000
0001
0100
0010
1000
0110
1000
0001
1000
,
0110
0001
0100
0010
1000
0001
0110
1000
0001
0100
0010
1000
0011
0100
1001
0010
,
0100
0001
1000
0001
1000
0010
0100
0001
0100
0010
1000
0001
0010
0100
1000
0000
,
0001
0000
0010
0000
0100
0000
1000
0000
0001
0000
0010
0000
0100
0000
1000
0000
0001
0000
0010
0000
0100
0000
1000
0000
0001
0000
0000
0100
0000
0000
0010
0000
0000
1000
0000
0000
0010
0000
0000
0001
0000
0000
0100
0000
0000
0010
0000
0000
,
1000
0100
0010
0001
0110
1000
0010
0100
0011
1000
0010
0100
0011
1000
0001
0100
,
1010
1010
0000
0110
0000
0000
0011
0000
,
1010
0000
0011
0000
1010
0001
0000
0110
,
0000
0110
0000
0220
0000
0000
0000
0330
,
0001
0100
0010
1000
0010
0100
0001
0010
0100
0010
0001
1000
0001
1000
0010
0100
,
0001
1000
0010
1000
0010
0100
0001
0100
0001
0100
0010
1000
0100
0010
0001
1000
,
0110
0000
1010
1010
0000
0000
0110
0000
,
0011
0000
0000
2100
0000
0000
0000
0000
,
3001
0010
0100
1000
0010
0100
0001
1000
0010
0100
0001
1000
0010
0100
0001
1000
,
0011
0100
0001
1000
0010
1000
0001
0010
0100
1000
0010
0100
0001
1000
0010
0100
,
0001
0010
0100
1000
0001
0010
0100
1000
0010
0100
0001
1000
0100
0010
0001
1000
0100
0010
0001
0100
0010
0000
1000
0010
,
0100
0001
0010
0100
1000
0010
0100
0001
1000
0001
1000
0001
0100
0010
0001
0100
0010
1000
0001
1000
0001
1000
0010
0000
,
1001
0010
0100
1000
0010
0100
0001
1000
0010
0100
0001
0010
0100
1000
0010
0100
,
0011
0100
0010
1000
0010
0100
0001
1000
0001
1000
0010
0100
0001
0010
0100
1000
,
0001
0010
0100
1000
0001
0010
0100
1000
0010
0100
0001
1000
0100
0010
0001
1000
0100
0010
0001
0100
0010
0000
1000
0010
,
0100
0001
0010
0100
1000
0010
0100
0001
1000
0001
1000
0001
0100
0010
0001
0100
0010
1000
0001
1000
0001
1000
0010
0100
,
0011
1000
0010
0100
0001
0010
0100
1000
0010
0100
0001
1000
0010
0100
0001
1000
,
0110
1000
0001
1000
0001
0010
0100
1000
0010
0100
0001
0010
0100
1000
0010
0100
,
0011
1000
0010
0100
0001
1000
0010
0100
0001
1000
0001
1000
0001
0010
0100
1000
,
0110
0001
1000
0010
0100
0001
1000
0010
0100
0001
1000
0010
0100
0001
1000
0001
,
1010
0001
1000
0010
0100
1000
0011
1000
0010
0100
0001
0100
1010
0100
0001
1000
,
0110
0001
1000
0010
0100
0001
0110
1000
0001
0100
0010
1000
0101
0010
1000
0010
,
1100
0000
0000
0011
0000
0000
1010
0000
,
1001
0000
0000
0110
0000
0000
1001
0000
,
0012
1000
0103
0010
0001
0100
0010
1000
0001
0100
0010
1000
0001
1000
0001
1000
,
0011
1000
0010
0100
0001
0010
0100
1000
0010
0100
0001
1000
0001
1000
0010
0100
,
0011
1000
0010
0100
0001
1000
0001
1000
0010
0100
0001
1000
0010
0100
0001
1000
,
0001
0010
0100
1000
0010
0100
0001
1000
0001
1000
0010
0100
0001
1000
0100
0010
0001
0100
0010
1000
0010
0100
0001
0010
,
0101
0010
1000
0001
0100
0010
1000
0001
0100
0010
1000
0001
0010
1000
0100
0010
,
0101
0010
0001
0100
0010
1000
0001
1000
0001
0100
0010
0001
0100
0010
1000
0010
,
1100
0010
0001
1000
0010
0100
0001
1000
0001
0100
0010
1000
0001
1000
0001
1000
,
0010
0000
0000
0100
0000
0000
1000
0000
0000
0010
0000
0000
0100
0000
0000
0001
0000
0000
0010
0000
0000
0100
0000
0000
1000
0000
0100
0000
0010
0000
0001
0000
0100
0000
0010
0000
1000
0000
0100
0000
0010
0000
0001
0000
1000
0000
0100
0000
,
0011
0011
0011
0011
0011
0011
0011
0011
,
1001
1001
1001
1001
1001
1001
1001
1001
,
1100
1100
1100
1100
1100
1100
1100
1100
,
1001
1001
1001
1001
1001
1001
1001
1001
,
0011
1000
0010
0100
0001
1000
0011
0100
0001
1000
0001
0100
1010
0100
0001
1000
,
0110
0001
1000
0010
0100
0001
1100
0001
0100
0010
1000
0010
0101
0010
1000
0100
,
0022
0000
0000
0000
0000
0000
0000
0000
0000
0000
0033
0000
0000
0100
0010
0100
,
1001
0000
0000
0110
0000
0000
1001
0000
,
1001
0100
0011
0100
1100
0001
0110
1000
,
0011
0000
0010
0000
0110
0000
1000
0000
0011
0000
0100
0000
0001
1000
0220
0000
,
0000
0000
1331
0010
1010
0100
0110
0010
,
0101
0001
0101
0010
1100
1000
0110
0220
,
0000
0000
1331
0110
1001
0000
1100
0000
,
0011
0000
1001
0000
1001
0000
0011
1001
,
0000
0000
0011
1100
0011
1100
0011
0110
,
0000
0001
0011
0001
0011
0010
0110
2002
,
3113
0100
0011
0010
1100
0001
0110
1000
,
0011
0000
0010
0000
0110
0000
1000
0000
0011
0000
0100
0000
0001
1000
0220
0000
,
0000
0000
1331
0010
1010
0100
0110
0010
,
0101
0001
0101
0010
1100
1000
0110
0220
,
0000
0000
1331
0110
1001
0000
1100
0000
,
0011
0000
1001
0000
1001
0000
0011
1001
,
0000
0000
0011
1100
0011
1100
0011
0110
,
0000
0010
0011
0001
0011
0010
0110
2002
,
0000
0000
0000
3003
,
0011
0001
0001
0001
0001
0001
0001
0001
0001
0001
0001
0001
0001
0001
0001
0001
,
1100
1000
1000
1000
1000
1000
1000
1000
1000
1000
1000
1000
0010
0000
0000
0000
,
1000
0100
0010
0001
0100
0010
1000
0001
1000
0001
0100
0010
1000
0100
1000
0001
,
0010
0001
0100
0010
1000
0100
0010
0001
0100
0010
1000
0100
0010
0001
0100
0010
,
1000
0010
0100
0001
0010
0100
1000
0001
0100
0010
1000
0001
1000
0001
0100
0010
,
0100
0001
0010
0100
1000
0010
1000
0001
1000
0010
0100
0001
0100
0010
1000
0001
,
1100
0001
0100
0010
1000
0100
0011
1000
0001
0100
0010
1000
0110
1000
0001
1000
,
0110
0001
0100
0010
1000
0001
0110
1000
0001
0100
0010
1000
0011
0100
1001
0010
,
0100
0001
1000
0001
1000
0010
0100
0001
0100
0010
1000
0001
0010
0100
1000
0000
,
0001
0000
0010
0000
0100
0000
1000
0000
0001
0000
0010
0000
0100
0000
1000
0000
0001
0000
0010
0000
0100
0000
1000
0000
0001
0000
0000
0100
0000
0000
0010
0000
0000
1000
0000
0000
0010
0000
0000
0001
0000
0000
0100
0000
0000
0010
0000
0000
,
0001
0010
0100
1000
0010
0100
0001
1000
0001
1000
0010
0100
0001
0010
0001
1000
,
0100
1000
0010
0100
0001
0010
0100
1000
0010
0100
0001
0010
0100
1000
0010
0100
,
0001
0100
0010
1000
0100
0010
0001
1000
0010
0100
0001
1000
0001
1000
0010
0100
,
0010
1000
0100
0010
0001
0100
0001
1000
0001
0100
0010
1000
0010
0100
0001
1000
,
0011
1000
0010
0100
0001
0010
1100
0001
1000
0010
0100
0001
0110
0001
1000
0001
,
0110
1000
0010
0100
0001
1000
0110
0001
1000
0010
0100
0001
1100
0010
1001
0100
,
0011
1000
0011
1000
0001
1000
0110
1000
0110
0001
1000
0010
0101
1000
0101
0000
,
1000
0000
0100
0000
0010
0000
0001
0000
1000
0000
0100
0000
0010
0000
0001
0000
1000
0000
0100
0000
0010
0000
0001
0000
1000
0000
0000
0010
0000
0000
0100
0000
0000
0001
0000
0000
0100
0000
0000
1000
0000
0000
0010
0000
0000
0100
0000
0000
,
0001
0010
0100
1000
0110
0001
0100
0010
1100
0001
0100
0010
1100
0001
1000
0010
,
0101
0101
0000
0110
0000
0000
1100
0000
,
0101
0000
1100
0000
0101
1000
0000
0110
,
0000
0110
0000
0220
0000
0000
0000
0330
,
1000
0010
0100
0001
0100
0010
1000
0100
0010
0100
1000
0001
1000
0001
0100
0010
,
1000
0001
0100
0001
0100
0010
1000
0010
1000
0010
0100
0001
0010
0100
1000
0001
,
0110
0000
0101
0101
0000
0000
0110
0000
,
1000
0100
1000
0100
1000
0100
1000
0001
1000
0001
1000
0001
1000
0001
1000
0000
,
1001
0100
0010
0001
0100
0010
1000
0001
0100
0010
1000
0001
0100
0010
1000
0001
,
1100
0010
1000
0001
0100
0001
1000
0100
0010
0001
0100
0010
1000
0001
0100
0010
,
1000
0100
0010
0001
1000
0100
0010
0001
0100
0010
1000
0001
0010
0100
1000
0001
0010
0100
1000
0010
0100
0000
0001
0100
,
0010
1000
0100
0010
0001
0100
0010
1000
0001
1000
0001
1000
0010
0100
1000
0010
0100
0001
1000
0001
1000
0001
0100
0000
,
1001
0100
0010
0001
0100
0010
1000
0001
0100
0010
1000
0100
0010
0001
0100
0010
,
1100
0010
0100
0001
0100
0010
1000
0001
1000
0001
0100
0010
1000
0100
0010
0001
,
1000
0100
0010
0001
1000
0100
0010
0001
0100
0010
1000
0001
0010
0100
1000
0001
0010
0100
1000
0010
0100
0000
0001
0100
,
0010
1000
0100
0010
0001
0100
0010
1000
0001
1000
0001
1000
0010
0100
1000
0010
0100
0001
1000
0001
1000
0001
0100
0010
,
1100
0001
0100
0010
1000
0100
0010
0001
0100
0010
1000
0001
0100
0010
1000
0001
,
0110
0001
1000
0001
1000
0100
0010
0001
0100
0010
1000
0100
0010
0001
0100
0010
,
1100
0001
0100
0010
1000
0001
0100
0010
1000
0001
1000
0001
1000
0100
0010
0001
,
0110
1000
0001
0100
0010
1000
0001
0100
0010
1000
0001
0100
0010
1000
0001
1000
,
0101
1000
0001
0100
0010
0001
1100
0001
0100
0010
1000
0010
0101
0010
1000
0001
,
0110
1000
0001
0100
0010
1000
0110
0001
1000
0010
0100
0001
1010
0100
0001
0100
,
0011
0000
0000
1100
0000
0000
0101
0000
,
1001
0000
0000
0000
0000
0000
0110
0000
0001
0010
0100
1000
0001
0010
0100
1000
,
0012
1000
0013
1000
0001
1000
0100
0010
1000
0010
0100
0001
1000
0001
1000
0001
,
1100
0001
0100
0010
1000
0100
0010
0001
0100
0010
1000
0001
1000
0001
0100
0010
,
1100
0001
0100
0010
1000
0001
1000
0001
0100
0010
1000
0001
0100
0010
1000
0001
,
1000
0001
0100
0010
1000
0001
1000
0001
0100
0010
0100
0001
0010
0001
1000
0010
,
0101
0010
0001
1000
0010
0100
0001
1000
0010
0100
0001
1000
0100
0001
0010
0100
,
1010
0100
1000
0010
0100
0001
1000
0001
1000
0010
0100
1000
0010
0100
0001
0100
,
0011
0100
1000
0001
0100
0010
1000
0001
1000
0010
0100
0001
1000
0001
1000
0001
,
1000
0000
0000
0010
0000
0000
0100
0000
0000
0001
0000
0000
1000
0000
0000
0010
0000
0000
1000
0000
0000
0001
0000
0000
1000
0000
0010
0000
0100
0000
0001
0000
1000
0000
0010
0000
0100
0000
0001
0000
1000
0000
0001
0000
0100
0000
0010
0000
,
1100
1100
1100
1100
1100
1100
1100
1100
,
1001
1001
1001
1001
1001
1001
1001
1001
,
0011
0011
0011
0011
0011
0011
0011
0011
,
1001
1001
1001
1001
1001
1001
1001
1001
,
1100
0001
0100
0010
1000
0001
1100
0010
1000
0001
1000
0010
0101
0010
1000
0001
,
0110
1000
0001
0100
0010
1000
0011
1000
0010
0100
0001
0100
1010
0100
0001
0010
,
2200
0000
0000
0000
0000
0000
0000
0000
0000
0000
3300
0000
0000
0010
0100
0010
,
1001
0000
0000
0110
0000
0000
1001
0000
,
1001
0010
1100
0100
0011
0100
0110
0010
,
1100
0000
0100
0000
0110
0000
0010
0000
1100
0000
0010
0000
1000
0001
0220
0000
,
0000
0000
1331
0100
0101
0010
0110
0100
,
1010
1000
1010
0100
0011
0001
0110
0220
,
0000
0000
1331
0110
1001
0000
0011
0000
,
1100
0000
1001
0000
1001
0000
1100
1001
,
0000
0000
1100
0011
1100
0011
1100
0110
,
0000
1000
1100
1000
1100
0100
0110
2002
,
3113
0010
1100
0100
0011
1000
0110
0001
,
1100
0000
0100
0000
0110
0000
0001
0000
1100
0000
0100
0000
1000
0001
0220
0000
,
0000
0000
1331
0100
0101
0010
0110
0100
,
1010
1000
1010
0100
0011
0001
0110
0220
,
0000
0000
1331
0110
1001
0000
0011
0000
,
1100
0000
1001
0000
1001
0000
1100
1001
,
0000
0000
1100
0011
1100
0011
1100
0110
,
0000
1000
1100
1000
1100
0100
0110
2002
,
0000
0000
0000
3003
,
0110
0000
0000
0000
,
1001
0000
0000
0000
,
0001
1000
0001
0000
1100
0000
1100
0000
1100
0000
0000
0000
1001
0000
0000
0000
,
1000
0001
1000
0000
0011
0000
0011
0000
0011
0000
0000
0000
1001
0000
0000
0000
,
1000
0010
0100
0000
1010
0000
1010
0000
1010
0000
0000
0000
1010
0000
0000
0000
,
0001
0100
0010
0000
0011
0000
0011
0000
0011
0000
0000
0000
1001
0000
0000
0000
,
0010
0100
1000
0000
0011
0000
0011
0000
0011
0000
0000
0000
1001
0000
0000
0000
,
0100
0010
0001
0000
1010
0000
1010
0000
1010
0000
0000
0000
1001
0000
0000
0000
,
0010
0100
0010
0000
1001
0000
1001
0000
1001
0000
0000
0000
0110
0000
0000
0000
,
1000
0010
0100
0000
1001
0000
1001
0000
1001
0000
0000
0000
1001
0000
0000
0000
,
1010
1010
1010
0101
0101
0101
1001
1001
,
1010
0000
1010
0000
1010
0000
0101
0000
0101
0000
0101
0000
0110
0000
0110
1000
,
0011
0011
0011
0101
0101
0101
1010
1010
,
1001
0000
1001
0000
1001
0000
0101
0000
0101
0000
0101
0000
1010
0000
1010
0100
,
1001
1001
1001
0110
0110
0110
1010
1010
,
1100
0000
1100
0000
1100
0000
0101
0000
0101
0000
0101
0000
1001
0000
1001
0100
,
0011
0011
0011
1010
1010
1010
0101
0101
,
1010
1010
1010
1001
1001
1001
0110
0110
,
1000
0001
0000
0100
0010
1000
0000
0001
,
1000
0000
0100
0000
0010
0000
1000
0000
0001
0010
0100
1000
0001
0010
0100
0000
,
0011
0000
1000
0010
0100
0001
1000
0010
,
1000
0001
1000
0010
0100
0001
2000
0000
,
3001
0010
0100
1000
0001
0010
0100
0000
0000
0020
0000
0000
1030
0100
0010
0001
1000
0100
0010
0000
0000
0200
0000
0000
,
0301
0100
0010
1000
0001
0010
0100
0000
0000
0020
0000
0000
1030
0010
0100
0001
1000
0100
0010
0001
0010
0100
1000
0010
,
0100
0001
1000
0010
0100
0001
1000
0010
,
0100
0000
0001
0000
0000
0000
0001
0000
1000
0100
0010
0001
1000
0000
0000
0000
,
0001
0010
0100
1000
0010
0100
0001
1000
0001
0200
0000
0000
0000
0300
0001
0010
,
0100
1000
0010
0100
0002
0000
1003
0100
0010
0001
1000
0100
0010
2000
0000
3000
,
0001
0010
0100
1000
0010
0100
0001
1000
0010
0100
0001
1000
0100
0010
0001
0100
,
0010
0000
0000
1000
0000
0000
0100
0000
0000
0010
0000
0000
0001
0000
0000
0010
0000
0000
0100
0000
0000
1000
0000
0000
0010
0000
0000
0100
0000
0000
0001
0000
0000
0010
0000
0000
0001
0000
0010
0000
0100
0000
1000
0000
0000
0100
0000
0000
,
0001
0010
0100
1000
0010
0100
0001
1000
0100
0010
0001
1000
0010
0100
1000
0100
0010
0001
0100
0010
1000
0001
0010
0100
,
1000
0001
0100
0010
1000
0100
0010
0001
1000
0001
1000
0010
0100
0001
0010
0100
1000
0010
0100
0001
1000
0001
1000
0010
,
0100
0001
1000
0010
0100
0001
1000
0001
1000
0010
0100
0001
1000
0100
0010
0001
0100
0010
1000
0001
0100
0010
1000
0100
,
0010
0001
1000
0010
0100
0001
1000
0001
1000
0010
0100
0001
1000
0001
1000
0010
0100
0001
0010
0100
1000
0010
0100
0001
,
1000
0100
0010
0001
0010
0100
1000
0010
0100
0001
0010
0001
1000
0100
0010
0100
,
1000
0001
0100
0010
1000
0100
0010
0001
2000
0000
0000
0000
0000
0000
0000
0000
,
3001
0001
0001
0001
0001
0001
0001
0000
1000
1000
1000
1000
1000
1000
1000
0000
,
0010
0010
0010
0010
0010
0010
0010
0000
0100
0100
0100
0100
0100
0100
0100
0000
,
0001
0100
0010
1000
0100
0010
0001
0100
0010
1000
0010
0100
0001
0010
0100
1000
,
0001
0010
0001
1000
0100
0010
0001
1000
0002
0000
0000
0000
0000
0000
0000
0000
,
1003
0010
0100
0001
0010
0100
1000
0010
0100
0001
1000
0001
1000
0010
0100
0001
,
2000
0010
3001
0100
0010
0100
1001
0000
,
1001
0000
1010
0000
,
0101
0000
0110
0000
,
2002
0000
0000
3003
,
0001
0010
0100
1000
0010
0100
0001
1000
0100
0010
0001
1000
0001
1000
0010
0100
0001
0010
0100
1000
0010
0100
0001
1000
,
0100
0010
0001
0100
0010
1000
0010
0100
0001
0010
0001
0010
1000
0100
1000
0010
0100
0001
0010
0100
1000
0010
0100
0000
,
1000
1000
0001
0001
0100
0100
0010
0010
,
0001
0001
2000
0000
3010
0010
0200
0000
,
0301
0010
0100
1000
0010
0100
0001
1000
0100
0010
0001
1000
0100
0010
0100
1000
,
0010
0100
0001
0010
0001
1000
0010
1000
0100
1000
0001
0010
0100
1000
0001
0010
,
0100
1000
0001
0010
1000
0000
0010
0000
0100
0000
0001
0000
1000
0000
0010
0000
,
0100
0001
1000
0010
0200
0000
0000
0300
,
0011
0011
0011
0001
,
1010
0101
0110
1001
0000
0220
0000
0330
,
1000
0100
0010
0001
1000
0100
0010
0100
1000
0001
0100
0010
1000
0010
0100
0001
,
1000
0100
0010
0001
0100
0010
1000
0001
0100
0010
1000
0001
0010
0100
1000
0001
0010
0100
1000
0010
0100
0001
1000
0100
,
0010
0001
0100
0010
1000
0001
1000
0001
0100
0010
1000
0100
0010
0001
1000
0100
,
0010
0001
0010
0100
1000
0010
0100
0001
1000
0001
0100
0010
1000
0001
0010
0100
1000
0010
0100
0001
1000
0010
0100
0001
,
1000
0000
0000
2000
0000
0000
3000
0000
0000
1000
0100
0010
0001
0010
0100
1000
0010
0100
0001
0010
0100
1000
0000
0000
,
0001
0001
0100
1000
2000
0000
0000
0000
,
3001
0010
0100
1000
0010
0100
0001
1000
0010
0100
0001
1000
0010
0100
0001
1000
,
0010
0100
0001
0010
0001
1000
0100
0010
0100
1000
0001
0010
0100
1000
0010
0100
,
0011
0110
1100
1100
1100
0110
0110
0110
,
0011
0011
0011
0110
2002
0000
0000
3003
,
0001
0010
0100
1000
0010
0100
0001
1000
0010
0100
0001
1000
0100
0010
0001
1000
0100
0010
0001
0100
0010
1000
0001
0010
,
0100
1000
0010
0100
0001
0010
0100
1000
0001
1000
0001
0100
0010
1000
0010
0100
0001
1000
0010
0100
0001
1000
0010
0000
,
1000
0010
0002
0003
0002
0003
0002
0003
0002
0003
0000
0000
2000
0000
3000
0000
,
1000
0100
0010
0001
0010
0100
1000
0010
0100
0001
2000
0000
0000
0000
0000
0000
,
3001
0010
0100
1000
0100
0010
0001
0100
0010
1000
0010
0100
0001
0010
0100
1000
0100
0010
0001
1000
0100
0010
0001
0100
,
0010
1000
0001
1000
0001
0100
0010
1000
0100
0010
0001
0100
0010
1000
0001
0010
0100
1000
0002
0000
0000
0000
0000
0000
,
1003
0100
0010
0001
0100
0010
0001
1000
0010
0100
0001
0010
0100
1000
0010
0100
0001
1000
0001
1000
0010
0100
0001
0010
,
0100
1000
0010
0100
0001
1000
0100
0010
0001
0010
0100
1000
0010
0100
0001
1000
0001
0010
2000
0000
0000
0000
0000
0000
,
3001
0010
0100
1000
0010
0100
1000
0001
0100
0010
1000
0100
0010
0001
0100
0010
1000
0001
1000
0001
0100
0010
1000
0100
,
0010
0001
0100
0010
1000
0001
0010
0100
1000
0100
0010
0001
0100
0010
1000
0001
1000
0001
2000
0000
0000
3002
0000
0000
,
1003
0100
0010
0001
0010
0100
1000
0010
0100
0001
0100
0010
1000
0100
0010
0001
0010
0100
1000
0001
0010
0100
1000
0010
,
0100
0001
1000
0001
1000
0010
0100
0001
0010
0100
1000
0010
0100
0001
1000
0100
0010
0001
1000
1000
1000
1000
1000
1000
,
0011
0011
0000
1010
0000
0000
0001
0100
,
0010
1000
0001
2000
3000
0001
0010
1000
,
0001
0010
0100
1000
0010
0100
0001
0010
0100
0010
0001
1000
0010
0100
0001
1000
,
0001
1000
0010
0100
0001
0010
0100
1000
0010
0100
0001
1000
0010
0100
0001
0010
,
1100
1100
0000
0101
0000
0000
1000
0010
,
0100
0001
1000
0002
0003
1000
0100
1000
,
0001
0010
0100
1000
0010
0100
0001
0010
0100
0010
0001
1000
0010
0100
0001
1000
,
0001
1000
0010
0100
0001
1000
0010
0100
0001
1000
0001
1000
0010
0100
0001
1000
,
0001
0010
0100
1000
0100
0010
0001
0100
0010
1000
0010
0100
0001
0010
0100
1000
0100
0010
0001
1000
0100
0010
0001
0100
,
0010
1000
0001
1000
0001
0100
0010
1000
0100
0010
0001
0100
0010
1000
0001
0010
0100
1000
0002
0000
0000
0000
0000
0000
,
1003
0100
0010
0001
0100
0010
0001
1000
0010
0100
0001
0010
0100
1000
0010
0100
0001
1000
0001
1000
0010
0100
0001
0010
,
0100
1000
0010
0100
0001
1000
0100
0010
0001
0010
0100
1000
0010
0100
0001
1000
0001
0010
2000
0000
0000
0000
0000
0000
,
3001
0010
0100
1000
0010
0100
0010
0001
0100
0010
1000
0100
0010
0001
0100
0010
1000
0001
1000
0001
0100
0010
1000
0100
,
0010
0001
0100
0010
1000
0001
0010
0100
1000
0100
0010
0001
0100
0010
1000
0001
1000
0001
2000
0000
0000
3002
0000
0000
,
1003
0100
0010
0001
0010
0100
1000
0010
0100
0001
0100
0010
1000
0100
0010
0001
0010
0100
1000
0001
0010
0100
1000
0010
,
0100
0001
1000
0001
1000
0010
0100
0001
0010
0100
1000
0010
0100
0001
1000
0100
0010
0001
1000
1000
1000
1000
1000
1000
,
0011
0110
1001
0101
,
2010
0000
0000
3020
0000
0000
0031
0000
,
1000
0000
0100
0000
0010
0000
0001
0000
0000
0010
0000
0000
0100
0000
0000
1000
0000
0000
0010
0000
0000
0100
0000
0000
0001
0000
0000
0010
0000
0000
0100
0000
0000
1000
0000
0000
0010
0000
0000
0100
0000
0000
0001
0000
0000
0010
0000
0000
,
0100
1000
0010
0100
0001
0010
1000
0001
0010
0100
1000
0001
1000
0001
1000
0001
,
1010
1000
1000
1000
1010
0010
0010
0010
,
0011
0001
0001
0001
1001
1000
1000
1000
,
1000
0100
0010
0001
0100
0010
1000
0001
0010
0100
1000
0010
0100
0001
1000
0001
,
0100
0010
1000
0010
0100
0001
1000
0010
0100
0001
0010
0100
1000
0001
1000
0001
,
1100
1100
1100
1100
0110
0110
0110
0110
,
0011
0011
0011
0011
1001
1001
1001
1001
,
1001
0001
0002
0000
1103
1000
2000
3000
,
0001
0000
0000
0010
0000
0000
0100
0000
0000
1000
0000
0000
0010
0000
0000
0100
0000
0000
0001
0000
0010
0000
0100
0000
1000
0000
0010
0000
0100
0000
0001
0000
0010
0000
0100
0000
1000
0000
0000
0010
0000
0000
0100
0000
0000
0001
0000
0000
,
0010
0000
0000
0001
0000
0000
0100
0000
0000
0010
0000
0000
1000
0000
0100
0000
0010
0000
0001
0000
0100
0000
0010
0000
1000
0000
0010
0000
0100
0000
0001
0000
0010
0000
0100
0000
1000
0000
0010
0000
0100
0000
0001
0000
1000
0000
0001
0000
,
0110
0110
0000
1001
1001
0110
0001
0010
,
1000
0100
0010
0001
0100
0010
1000
0001
0010
0001
1000
0010
0100
0001
1000
0001
1000
0010
0100
0001
0010
0100
1000
0001
,
1000
0100
0010
0001
1000
0010
0100
0001
1000
0001
1000
0010
0100
0001
0010
0100
,
2010
0100
0001
3102
0010
1000
0213
1000
,
0321
1000
0001
0132
0010
1000
2013
0100
,
3021
1000
0001
1230
0010
0001
0312
0100
,
2013
0100
0001
3120
0001
1000
0231
1000
,
0312
0100
0010
2103
0001
0100
3021
1000
,
0231
0010
1000
0312
1000
0010
2103
0001
,
3012
0000
0023
0030
,
0001
0010
0100
1000
0010
0100
0001
1000
0010
0100
0001
1000
0001
1000
0001
0010
,
1100
0001
0100
0010
1000
0010
1100
0001
0100
0010
1000
0001
0110
0001
0010
0001
,
0110
1000
0001
0100
0010
0100
1010
0001
0100
0010
1000
0001
0110
0001
0100
0010
,
1100
0001
0100
0001
1000
0001
0110
0001
1000
0100
1000
0010
0101
0010
1000
0010
,
1100
0001
0100
0010
1000
0001
0110
1000
0001
0010
0001
1000
0110
0001
0100
0001
,
1100
0001
0100
0010
1000
0001
0110
0001
1000
0010
0100
0001
0110
1000
0001
0100
,
0011
1000
0010
0100
0001
1000
0110
0001
1000
0010
0100
0001
0110
0001
1000
0100
,
0011
1000
0001
1000
0001
1000
0010
0100
0010
0100
0010
0100
0010
0100
0010
0100
,
0010
0100
0010
0100
0010
0100
0010
0100
0010
0100
0010
0100
0010
0000
0000
0000
,
0001
0010
0100
1000
0010
0100
0001
1000
0010
0100
0001
1000
0010
0100
0001
1000
,
0011
0100
0001
1000
0010
1000
0001
0010
0100
1000
0010
0100
0001
1000
0010
0100
,
0001
0010
0100
1000
0001
0010
0100
1000
0010
0100
0001
1000
0100
0010
0001
1000
0100
0010
0001
0100
0010
0000
1000
0010
,
0100
0001
0010
0100
1000
0010
0100
0001
1000
0001
1000
0001
0100
0010
0001
0100
0010
1000
0001
1000
0001
1000
0010
0000
,
0001
0010
0100
1000
0010
0100
0001
1000
0010
0100
0001
0010
0100
1000
0010
0100
,
0011
0100
0010
1000
0010
0100
0001
1000
0001
1000
0010
0100
0001
0010
0100
1000
,
0001
0010
0100
1000
0001
0010
0100
1000
0010
0100
0001
1000
0100
0010
0001
1000
0100
0010
0001
0100
0010
0000
1000
0010
,
0100
0001
0010
0100
1000
0010
0100
0001
1000
0001
1000
0001
0100
0010
0001
0100
0010
1000
0001
1000
0001
1000
0010
0100
,
0001
1000
0010
0100
0001
0010
0100
1000
0010
0100
0001
1000
0010
0100
0001
0010
,
0101
1000
0001
1000
0001
0010
0100
1000
0010
0100
0001
0010
0100
1000
0010
0100
,
0011
1000
0010
0100
0001
1000
0010
0100
0001
1000
0001
1000
0001
0010
0100
1000
,
0110
0001
1000
0010
0100
0001
1000
0010
0100
0001
1000
0010
0100
0001
1000
0001
,
1010
0001
1000
0010
0100
1000
0011
1000
0010
0100
0001
0100
1010
0100
0001
1000
,
0110
0001
1000
0010
0100
0001
0110
1000
0001
0100
0010
1000
0101
0010
1000
0010
,
1100
0000
0000
0011
0000
0000
1010
0000
,
1001
0000
0000
0110
0000
0000
1001
0000
,
0012
1000
0103
0010
0001
0100
0010
1000
0001
0100
0010
1000
0001
1000
0001
1000
,
0011
1000
0010
0100
0001
0010
0100
1000
0010
0100
0001
1000
0001
1000
0010
0100
,
0011
1000
0010
0100
0001
1000
0001
1000
0010
0100
0001
1000
0010
0100
0001
1000
,
0010
1000
0001
1000
0010
0100
0001
0010
0100
1000
0010
0100
1000
0001
0010
0100
,
1000
0010
1000
0001
0100
0010
1000
0001
0100
0010
1000
0001
0010
1000
0100
0010
,
0101
0010
0001
0100
0010
1000
0001
1000
0001
0100
0010
0001
0100
0010
1000
0010
,
1100
0010
0001
1000
0010
0100
0001
1000
0001
0100
0010
1000
0001
1000
0001
1000
,
0110
0000
0000
0001
0000
0000
1000
0000
0000
0010
0000
0000
0100
0000
0000
0001
0000
0000
0010
0000
0000
0100
0000
0000
1000
0000
0100
0000
0010
0000
0001
0000
0100
0000
0010
0000
1000
0000
0100
0000
0010
0000
0001
0000
1000
0000
0100
0000
,
0011
0011
0011
0011
0011
0011
0011
0011
,
1001
1001
1001
1001
1001
1001
1001
1001
,
1100
1100
1100
1100
1100
1100
1100
1100
,
1001
1001
1001
1001
1001
1001
1001
1001
,
0011
1000
0010
0100
0001
1000
0011
0100
0001
1000
0001
0100
1010
0100
0001
1000
,
0110
0001
1000
0010
0100
0001
1100
0001
0100
0010
1000
0010
0101
0010
1000
0100
,
0022
0000
0000
0000
,
0000
0000
0000
0000
0000
0000
0000
0000
0033
0000
0000
0000
0011
1000
0010
0100
,
0001
1000
0011
0100
0001
1000
0001
0100
1010
0100
0001
1000
0110
0001
1000
0010
,
0100
0001
1100
0001
0100
0010
1000
0010
0101
0010
1000
0100
0011
0000
0000
0000
,
2002
0000
0000
0000
0000
0000
0000
0000
0000
0000
0000
0000
3003
0100
0010
0100
,
1001
0000
0000
0000
,
1100
0001
0010
0100
1000
0010
0101
0010
1000
0001
0100
0010
1000
0001
0110
1000
,
0011
1000
0010
0100
0001
0010
1100
0010
0001
0100
0010
0100
1010
0100
1000
0010
,
1100
0001
1000
0001
1000
0010
0101
0010
1000
0010
0100
0001
0110
1000
0001
1000
,
0011
1000
0010
0100
0001
1000
0010
0100
0011
1000
0001
0010
1100
0001
0010
0001
,
1100
0010
1000
0001
0100
0010
1100
0001
1000
0010
0100
0001
0110
1000
0001
0100
,
0011
1000
0010
0100
0001
0010
0100
1000
0011
1000
0010
0100
1010
0100
0001
0010
,
1100
0001
0010
0100
1000
0010
0101
0010
1000
0010
0100
0010
0101
1000
0010
0100
,
1010
0001
0010
0100
1000
0001
0100
0010
1100
0001
1000
0010
0101
0010
1000
0010
,
0101
1000
0010
0100
0001
1000
0110
0001
1000
0010
0100
0010
0101
1000
0001
0100
,
1010
0001
0100
0010
1000
0001
0110
1000
0001
0100
0010
1000
0110
0001
0100
0010
,
0101
0010
1000
0010
0100
0001
0110
1000
0001
1000
0010
0100
0011
1000
0010
0100
,
1010
0100
0001
1000
0001
1000
0010
0100
0011
1000
0010
0100
1010
0100
0001
0010
,
0101
0010
1000
0100
0010
0001
0110
1000
0010
0001
1000
0001
1100
0010
0001
0100
,
1010
0100
0001
1000
0010
0100
0001
0010
0101
0010
1000
0010
0101
0010
0001
0000
,
1000
0100
0010
0001
0100
0010
1000
0001
0010
0100
1000
0010
0100
0001
1000
0010
0100
0001
1000
0010
0100
0001
1000
0001
,
2000
0000
3011
1001
,
1010
0110
0101
1010
,
1001
1001
0110
0011
,
1010
0101
1010
0101
0000
0000
0000
0000
0011
1100
0011
1100
0000
0000
0000
0000
,
1010
0101
1010
0101
0010
0100
1000
0010
0100
0001
1000
0010
0100
0001
1000
0001
,
1000
0010
0100
0010
0001
0010
0001
0010
0100
0010
0100
1000
0100
1000
0010
0100
,
2002
0000
0000
0000
,
0000
0000
0000
0000
,
0000
0000
0000
0000
,
0000
0000
0000
0000
,
0000
0000
0000
0000
,
0000
0000
3003
0000
0000
0000
1001
2002
,
0000
3003
0000
0000
0000
0000
0000
0000
;
