#TITLE:Dancing in the velvet moon;
#SUBTITLE:Rosario&Vampire ED theme;
#ARTIST:Mizuki Nana;
#TITLETRANSLIT:;
#SUBTITLETRANSLIT:;
#ARTISTTRANSLIT:;
#CREDIT:;
#BANNER:dancing in the velvet moon.png;
#BACKGROUND:dancing in the velvet moon.jpg;
#LYRICSPATH:;
#CDTITLE:cdtitle.png;
#MUSIC:dancing in the velvet moon.mp3;
#OFFSET:0.330;
#SAMPLESTART:64.797;
#SAMPLELENGTH:12.000;
#SELECTABLE:YES;
#BPMS:0.000=140.000;
#STOPS:;
#BGCHANGES:0.750=dancing in the velvet moon.avi=1.000=0=0=1,
99999=-nosongbg-=1.000=0=0=0 // don't automatically add -songbackground-
;
// cache tags:
#FIRSTBEAT:1.000;
#LASTBEAT:227.563;
#SONGFILENAME:Songs/alice 4th complete step/dancing in the velvet moon/dancing in the velvet moon.sm;
#HASMUSIC:1;
#HASBANNER:1;
#MUSICLENGTH:98.046;
// end cache tags

//---------------dance-single - ----------------
#NOTES:
     dance-single:
     :
     Challenge:
     14:
     1.000,1.000,1.000,0.459,1.000,627.000,191.000,45.000,0.000,28.000:
0000
0000
0000
1010
0001
0010
0101
1001
0010
0011
1001
0110
,
1000
0101
0010
1001
0000
0000
0000
0000
0000
0000
0000
0000
,
0000
0000
0000
0000
0111
1000
0100
1000
0011
1000
0001
1000
0010
0100
0010
0100
,
0001
0100
0010
1000
1101
0010
0100
0010
1001
0010
0100
0010
0001
1000
0010
1000
,
0100
1000
0010
0100
1110
0001
1000
0001
1100
0001
0010
0001
1000
0010
1000
0010
,
0001
0010
0100
0010
1101
0001
1000
0001
1100
0010
0100
0001
1000
0100
0010
0001
,
1100
0010
1000
0100
1011
0010
0001
0010
1001
0010
0100
0010
1000
0001
1000
0001
,
0100
0010
0001
0010
1101
0100
1000
0100
1010
0100
0001
0220
0000
0000
0000
0000
,
0000
0000
0330
0000
1001
0010
0100
1000
0010
0001
0010
0100
1001
0100
0010
0001
,
1000
0100
0010
0001
1010
0100
0001
1000
0010
0100
1001
0000
0000
0000
0010
0001
,
0010
0100
1000
0100
1010
0001
0100
0010
1000
0100
1001
0000
0000
0000
0010
0001
,
0100
0010
1000
0100
1001
0010
0001
0100
1000
0010
0101
0000
0000
0000
1000
0001
,
0100
1000
0010
0100
1001
0100
0010
1000
0100
0010
0002
0000
0000
0000
1103
0010
,
1000
0101
0010
1000
1001
0100
0010
1000
0100
0010
1001
0000
0000
0000
0010
0001
,
0100
1000
0010
0100
0101
1000
0010
0100
0001
0010
1001
0000
0000
0000
0100
1000
,
0010
0100
0001
0010
1001
0100
1000
0010
0001
0100
1010
0000
0000
0000
0001
1000
,
0010
0001
0100
0010
1001
0010
0100
0001
0010
0100
2000
0000
0000
0000
3100
0010
,
0001
1000
0010
0100
1001
0000
0010
0000
0100
0000
0010
0000
1000
0000
1001
0000
,
0101
0010
1001
0100
0010
0100
0001
1010
,
1001
0100
1001
0010
0100
0010
1000
1001
,
0101
0000
0010
0000
2001
0000
3200
0000
0320
0000
0032
0000
1103
0010
0001
0110
,
1001
0000
0010
0000
0101
1000
0010
1100
0011
0000
0000
0000
0000
0000
0110
1001
,
0110
1001
0000
0000
1010
0100
0001
1100
0011
0000
0000
0000
0000
0000
1001
0110
,
1001
0220
0000
0330
2002
0000
0000
0000
0103
0000
0020
0000
0000
0000
0130
0000
,
0001
0000
3010
0000
1001
0100
0010
0001
1000
0100
0010
0001
1100
1000
0010
0001
,
1100
0100
0010
0001
1010
0100
0001
1000
0010
0100
1001
0000
0000
0000
0010
0001
,
0010
0100
1000
0100
1010
0001
0100
0010
1000
0100
1001
0000
0000
0000
0010
0001
,
0100
0010
1000
0100
1001
0010
0001
0100
1000
0010
0101
0000
0000
0000
1000
0001
,
0100
1000
0010
0100
1001
0100
0010
1000
0100
0010
0002
0000
0000
0000
1103
0010
,
1000
0001
0110
1000
1001
0000
0000
0100
0000
0000
0101
0000
1010
0000
0000
0000
,
0100
0000
0000
0000
1001
0000
0000
0010
0000
0000
1010
0000
0101
0000
0000
0000
,
0100
0000
1001
0000
0110
0000
0000
1000
0000
0000
1010
0000
1001
0000
0000
0000
,
0010
0000
0100
0000
0110
0000
0000
0001
0000
0000
0101
0000
1001
0000
0000
0000
,
0101
0000
0000
0000
0010
0000
0000
0000
1010
0000
0000
0000
0000
0000
0000
0000
2222
3333
0000
0000
0000
0000
0000
0000
1010
0000
0100
0000
0001
0000
1000
0000
,
0010
0100
0001
0010
0101
0000
1000
0000
1010
0000
0001
0000
1001
0000
0010
0000
,
1010
0000
0100
0000
1002
0000
0000
0110
0000
0000
1010
0000
0000
0000
0103
0000
,
1001
0000
0100
0000
1011
0000
0000
1110
0000
0000
1011
0000
0111
0000
0000
1101
,
0000
0000
0111
0000
1001
0000
0000
0000
1001
1000
0100
0010
1001
0001
0100
0010
,
1001
0100
0010
0001
1100
0000
0010
0000
1001
0000
0010
0100
1100
0000
0010
0000
,
1001
0000
0100
0010
1010
0000
0100
0000
0011
0000
0100
0000
1001
0000
0110
0000
,
1001
0000
1010
0000
0011
0000
0100
0000
1001
0000
0100
0010
0011
0000
0100
0000
,
1001
0221
0000
1330
0101
0010
1001
0100
,
1010
0000
0100
0100
0011
0000
0100
0000
1001
0000
0010
0100
1100
0000
0010
0000
,
1001
0000
0100
0010
0011
0000
1100
0000
1001
0000
0110
0000
1001
0000
0010
0000
,
0101
0000
1010
0000
0102
0010
0100
1000
0103
0000
1001
0000
2010
0100
0010
0001
,
3010
0000
1001
0000
0011
0000
0000
1100
0000
0000
0022
0000
0000
0000
0133
1000
,
0001
0010
0100
1000
0101
0010
0001
1010
0001
0010
0101
0010
1000
0100
0001
0010
,
0100
1000
0001
0010
1010
0100
1000
0101
1000
0100
1010
0100
0001
0010
1000
0100
,
0010
0001
0100
1000
0110
0000
0000
0101
0000
0000
1011
0000
1010
0000
0000
1100
,
0000
0000
1101
0000
1001
1001
0100
0010
1100
0000
1010
1010
0100
1000
0011
0000
,
0100
1000
0010
0000
0101
0101
0010
0001
1100
0000
1001
1001
0010
0100
0011
0000
,
0100
1000
0001
0000
1010
0100
0001
1000
0010
0100
1001
0010
0100
0001
0100
0010
,
1001
0100
0010
1000
0101
1000
0010
0100
0001
0010
1001
0100
0010
1000
0001
0010
,
1100
0001
0100
0010
0101
1000
0010
0100
0001
1000
0110
1000
0001
0100
0010
1000
,
0101
1000
0010
0100
1001
0010
0100
0001
1000
0010
1100
0001
0100
0010
1000
0100
,
0002
0023
0230
2300
3012
0000
0000
2003
3200
0320
0230
0000
0000
0000
2300
0000
,
3002
0000
0000
0000
0000
0000
0000
0000
0203
0000
0000
0000
0000
0000
0000
0000
2302
3003
0000
0000
0000
0000
0000
0000
0000
0000
0000
0000
0000
0000
0000
0000
0220
0330
0000
0000
0000
0000
0000
0000
0000
0000
0000
0000
0000
0000
0000
0000
2002
3003
0000
0000
0000
0000
0000
0000
1221
0330
0000
0000
0000
0000
0000
0000
;
