#TITLE:Strangeprogram;
#SUBTITLE:;
#ARTIST:DJ Sharpnel;
#TITLETRANSLIT:;
#SUBTITLETRANSLIT:;
#ARTISTTRANSLIT:;
#CREDIT:;
#BANNER:strangebn2.png;
#BACKGROUND:strangebg2.png;
#LYRICSPATH:;
#CDTITLE:;
#MUSIC:Strangeprogram.ogg;
#OFFSET:-0.345;
#SAMPLESTART:70.668;
#SAMPLELENGTH:17.860;
#SELECTABLE:YES;
#DISPLAYBPM:215.000;
#BPMS:0.000=107.500,21.000=108.280,24.000=215.000,24.000=215.000,456.000=107.500,458.000=215.000,526.000=53.750,529.000=107.500,533.000=215.000,725.000=666.000,729.000=555.000,733.000=444.000,735.000=333.000,737.000=222.000,739.000=111.000,740.000=99.000,742.000=69.000,743.000=24.000,745.250=22.000,745.313=666.000,745.375=120.000,745.438=12.000,745.667=999.000;
#STOPS:;
#BGCHANGES:;
// cache tags:
#FIRSTBEAT:24.000;
#LASTBEAT:745.375;
#SONGFILENAME:Songs/SHARPNELSTREAMZ v2/Strangeprogram/Strangeprogram.sm;
#HASMUSIC:1;
#HASBANNER:1;
#MUSICLENGTH:225.175;
// end cache tags

//---------------dance-single - 17 (Zaoreo)----------------
#NOTES:
     dance-single:
     17 (Zaoreo):
     Challenge:
     17:
     1.000,1.000,0.546,0.493,1.000,1817.000,123.000,111.000,73.000,0.000:
0000
0000
0000
0000
,
0000
0000
0000
0000
,
0000
0000
0000
0000
,
0000
0000
0000
0000
,
0000
0000
0000
0000
,
0000
0000
0000
0000
,
1010
0000
1000
0010
0000
0010
0100
0000
,
0101
0000
0001
0010
0000
0010
0001
0000
,
1001
0000
1000
0010
0000
0010
0100
0000
,
0110
0000
0010
1000
0000
1000
0001
0000
,
1001
0000
1000
0100
0000
0100
0010
0000
,
0011
0000
0001
0100
0000
0100
0001
0000
,
1001
0000
1000
0010
0000
0010
0100
0000
,
0010
1000
0001
0001
0010
0010
0100
0100
,
1000
0001
1000
0010
1000
0001
0010
0001
1000
0001
1000
0010
0100
0001
1000
0010
,
1000
0001
1000
0010
0100
0001
0100
0010
1000
0001
1000
0100
0010
0001
1000
0001
,
1000
0100
0010
0001
1000
0010
0100
0001
1000
0001
0100
0010
1000
0001
0100
0010
,
1000
0100
1000
0100
0010
0100
0010
0100
0010
0001
0010
0001
1000
0001
1000
0001
,
1000
0010
0100
0001
1000
0001
1000
0100
0010
0001
1000
0001
0100
0001
1000
0100
,
1000
0001
0100
0001
1000
0010
1000
0001
0010
0100
1000
0001
0100
0001
1000
0100
,
1000
0010
1000
0001
1000
0010
0100
0001
1000
0001
0010
0001
1000
0100
0010
0001
,
1000
1000
0010
0010
0100
0100
0001
0001
,
1001
0000
0000
0000
,
0000
0000
0000
0000
,
0000
0000
0000
0000
,
0000
0000
1002
0003
,
1000
0100
0010
0001
1000
0010
0100
0001
0010
0001
1000
0010
1000
0100
0010
0100
,
1000
0001
0100
0010
0100
0001
0010
0100
0010
0100
1000
0001
0100
0010
1000
0001
,
1000
0100
0010
0100
1000
0001
0100
0001
1000
0001
0100
0010
0100
0010
1000
0100
,
1000
0010
0100
0001
1000
0001
0100
0010
0100
0001
1000
0001
0010
0100
0010
0100
,
1000
0001
0010
0001
1000
0010
0100
0001
0010
0001
1000
0001
1000
0010
0100
0001
,
1000
0001
1000
0100
0010
0001
1000
0010
1000
0001
0100
0001
1000
0100
0010
0001
,
1000
0001
0010
0100
1000
0001
1000
0010
0100
0010
0100
0001
0010
0100
1000
0001
,
0200
0000
0000
0000
0001
0000
0000
0300
2000
0000
0000
0000
3200
0000
0000
0000
2300
0000
0000
0000
3020
0000
0000
0000
2030
0000
0000
0000
3001
0000
0000
0000
,
0101
1001
1100
0110
,
0011
1001
1010
0110
,
0101
1001
1010
0110
,
0101
0000
1001
0000
1010
0000
0110
0110
,
0110
0000
0100
0010
1000
0000
0000
0100
,
0010
0000
0001
0100
0000
0010
1000
0002
,
0010
0010
0003
0001
0001
0000
0100
0100
,
0020
1000
1000
0000
0200
0030
00M0
0000
,
0301
0100
0001
0100
0010
1000
0010
1000
0001
0100
0010
1000
0001
0100
0010
1000
,
0001
0010
0001
0010
0100
1000
0100
1000
0001
0010
0100
1000
0001
0010
0100
1000
,
0001
1000
0001
1000
0010
0100
0010
0100
0001
1000
0010
0100
0001
1000
0010
0100
,
0001
1000
0001
1000
0100
0010
0100
0010
0001
0000
0000
0000
0100
0000
0001
0000
,
1000
0100
1000
0100
0010
0001
0010
0001
1000
0010
0100
0001
1000
0010
0100
0001
,
1000
0010
1000
0010
0100
0001
0100
0001
1000
0100
0010
0001
1000
0100
0010
0001
,
1000
0001
1000
0001
0010
0100
0010
0100
1000
0001
0100
0010
1000
0001
0100
0010
,
1000
0001
0010
0100
1000
0100
0010
0001
1000
0000
0000
0000
1001
0000
0000
0000
,
1000
0010
0100
0001
1000
0100
0010
0001
1000
0001
1000
0001
0100
0001
0100
0001
,
1000
0100
0010
0001
1000
0010
0100
0001
1000
0100
1000
0100
0010
0100
0010
0100
,
1000
0001
0100
0010
1000
0001
0010
0100
1000
0001
1000
0001
1000
0010
1000
0010
,
1000
0001
0100
0010
1000
0001
1000
0010
0100
0000
0000
0000
0010
0000
1000
0000
,
0002
0003
0000
0000
0200
0300
0000
0000
0002
0003
0000
0000
2000
3000
0000
0000
0002
0003
0000
0000
0200
0300
0000
0000
0002
0003
0000
0000
2000
3000
0000
0000
,
0020
0030
2000
3000
0002
0003
2000
3000
0020
0030
2000
3000
0002
0003
2000
3000
,
0020
0230
0320
2030
3200
0320
0230
2300
,
3010
0000
0000
0100
0000
0000
0001
0000
1000
0000
0001
0000
0100
0000
0010
0000
,
1010
0000
1001
0000
1100
0000
0100
0010
,
0000
0001
0010
0001
1000
0010
0100
0001
,
1001
0000
1010
0000
0101
0000
0001
1000
,
0000
0001
0010
0100
1000
0010
0100
0001
,
0011
0000
0110
0000
1100
0000
0100
0010
,
0000
0001
0010
0100
0000
1000
0001
0100
,
0000
0001
0010
0100
0000
1000
0001
0100
,
M00M
0100
1000
0000
0000
0001
1000
0100
,
0110
0010
0011
0001
0101
0100
0010
1000
,
0000
0001
1000
0010
0100
0001
1000
0100
,
0110
0010
0011
0001
0101
0100
0010
1000
,
0000
0010
1000
0100
0010
0001
1000
0001
,
0011
0010
0110
0100
1100
1000
0001
0010
,
0000
0001
0100
0010
0000
1000
0010
0100
,
0000
0001
0010
0100
0000
1000
0001
0100
,
M00M
0100
1000
0000
0000
0000
0000
0000
,
0001
0000
1000
0001
1000
0001
0100
0000
0001
1000
0001
1000
0100
0000
0010
0001
,
1000
0000
0001
0100
0001
0100
0010
0000
1000
0010
0100
0001
1000
0000
0001
1000
,
0100
0000
0010
0001
0010
0100
1000
0000
0001
1000
0001
1000
0001
0000
1000
0001
,
0100
0000
0010
1000
0010
1000
0001
0000
1000
0010
0100
0001
1000
0000
0001
1000
,
0100
0000
0010
0001
0010
0100
1000
0000
0001
1000
0001
0100
0010
0000
1000
0010
,
0100
0000
0001
0100
0001
1000
0001
0000
1000
0100
0010
0001
1000
0000
0001
1000
,
0001
0000
0100
0010
1000
0001
1000
0000
0100
0010
0001
1000
0001
0000
1000
0000
,
0100
0010
0000
0001
0000
1000
0000
0001
,
1000
0010
0100
0001
1000
0010
0100
0001
1000
0010
1000
0100
0010
0001
0100
0010
,
1000
0001
0010
0100
1000
0001
0010
0100
1000
0010
0100
0001
0010
0100
1000
0010
,
1000
0001
0100
0010
1000
0001
0100
0010
1000
0100
0010
0001
0100
0010
1000
0001
,
1000
0100
0010
0001
1000
0100
0010
0001
1000
0100
1000
0010
0100
0001
0010
0100
,
1000
0010
0100
0001
1000
0010
0100
0001
0010
0001
0100
0010
1000
0100
0010
0001
,
1000
0001
0010
0100
1000
0001
0010
0100
1000
0010
0100
0001
0010
0100
1000
0010
,
1000
0001
0100
0010
1000
0001
0100
0010
1000
0100
0010
0001
0100
0010
1000
0001
,
1000
0100
0010
0001
1000
0100
0010
0001
1000
0100
1000
0010
0100
0001
0010
0100
,
1000
0010
0100
0001
1000
0010
0100
0001
0010
0001
0100
0010
1000
0100
0010
0001
,
1000
0001
0010
0100
1000
0001
0010
0100
1000
0010
0100
0001
0010
0100
1000
0010
,
1000
0001
0100
0010
1000
0001
0100
0010
1000
0100
0010
0001
0100
0010
1000
0001
,
1000
0100
0010
0001
1000
0100
0010
0001
1000
0010
0100
0001
0010
0100
1000
0001
,
1000
0010
0100
0001
1000
0010
0100
0001
1000
0100
1000
0010
0100
0001
0010
0001
,
1000
0001
0010
0100
1000
0001
0010
0100
1000
0010
0100
0001
0010
0100
1000
0010
,
1000
0001
0100
0010
1000
0001
0100
0010
1000
0100
0010
0001
0100
0010
1000
0100
,
0010
0000
0001
0000
0000
0000
1000
0000
0000
0000
0001
0000
0200
0300
0000
0000
,
0001
1000
0001
1000
0010
0100
0001
0010
0100
1000
0001
0010
0001
1000
0100
0010
,
0001
1000
0001
1000
0010
0100
0001
0010
0001
1000
0010
0100
0001
1000
0010
0100
,
0001
1000
0001
1000
0010
0100
0001
0010
0001
1000
0100
0010
0100
1000
0001
0010
,
0001
1000
0001
1000
0010
0100
0001
0010
0001
1000
0010
1000
0001
0100
0001
1000
,
0010
0100
0010
0100
0001
1000
0001
0010
0100
1000
0001
0010
0001
1000
0100
1000
,
0010
0100
0010
0100
0001
1000
0100
0010
0001
1000
0010
0100
0010
1000
0001
1000
,
0010
0100
0010
0100
0001
1000
0001
0010
0001
1000
0100
0010
0001
1000
0100
1000
,
0010
0100
0010
0100
0001
1000
0100
0010
0001
1000
0010
0100
0001
1000
0010
0100
,
0001
1000
0001
1000
0100
0010
0001
0100
0010
1000
0001
0100
0001
1000
0010
0100
,
0001
1000
0001
1000
0100
0010
0001
0100
0001
1000
0100
0010
0001
1000
0100
0010
,
0001
1000
0001
1000
0100
0010
0001
0100
0001
1000
0010
0100
0010
1000
0001
0100
,
0001
1000
0001
1000
0100
0010
0001
0100
0001
1000
0100
1000
0001
0010
0001
1000
,
0100
0010
0100
0010
0001
1000
0001
0100
0010
1000
0001
1000
0010
0100
0001
1000
,
0100
0010
0100
0010
0001
1000
0010
0100
0001
1000
0100
0010
0001
1000
0010
1000
,
0001
0010
0100
1000
0001
0010
0100
1000
,
0010
0010
0000
0010
0000
0010
0100
0010
,
0220
0000
0000
0000
0330
000M
0000
M000
,
0000
000M
0000
M000
0110
0000
1010
0000
,
1001
0011
0110
0011
,
0101
0110
1010
1100
,
0110
0011
0101
0110
,
1010
0000
1010
1001
0011
0000
1001
0000
,
1100
0110
0011
1001
,
0101
0110
1040
1000
,
1000
1000
1000
1000
,
1000
0000
0000
0000
1000
0000
0000
0030
1000
0001
1000
0000
0001
0010
0001
0000
,
1000
0010
1000
0000
0001
0010
0001
0000
0100
0010
0100
0000
0010
1000
0010
0000
,
1000
0001
1000
0000
0001
0010
0001
0000
1000
0010
1000
0000
0001
0010
0001
0000
,
1000
0100
1000
0000
0010
0100
0010
0000
1000
0010
1000
0000
0001
0010
0001
0000
,
0100
0010
0100
0000
0001
0010
0001
0010
0100
0000
1000
0001
1000
0000
0010
0100
,
0010
0000
1000
0100
1000
0000
0001
0010
0001
0000
0100
0010
0100
0000
0001
1000
,
0001
0000
0100
0010
0100
0000
0010
1000
0010
0000
0100
0001
0100
0000
0001
1000
,
0001
0000
0010
0001
0010
0000
0100
0010
0100
0000
0010
0001
0010
0000
0100
1000
,
0100
0000
1000
0001
1000
0010
0100
0001
0020
0000
0000
0000
0030
0000
0000
0000
,
0000
0000
0000
0000
,
0000
0110
1MM1
0001
0010
0100
0010
0001
,
1000
0000
0100
0000
1000
0000
1000
0100
1000
0000
1000
0000
0010
0000
1000
0000
,
0010
1000
0100
1000
0010
0100
0001
0010
,
0001
0000
0010
0000
0001
0010
0100
1000
0001
0000
1000
0000
0010
0000
1000
0000
,
0001
0010
0100
1000
0010
0100
0001
0010
,
0001
0000
0010
0000
0100
0000
0100
1000
0100
0000
0100
0000
0100
0000
0010
0000
,
0100
0010
0001
1000
0010
1000
0001
0010
,
0001
0000
0010
0000
0100
1000
0100
0000
0100
0000
0100
0000
0100
0000
0100
0000
,
0010
0000
1001
0001
0010
0100
1000
0010
,
1000
0000
0010
0000
0100
0000
0100
0001
0100
0000
0100
0000
0100
0000
0010
0000
,
0100
0010
1000
0100
0010
0001
0100
0010
,
0100
0000
0010
0000
1000
0010
0100
0001
1000
0000
0001
0000
0010
0000
0001
0000
,
1000
0010
0100
0001
0010
0100
1000
0010
,
1000
0000
0010
0000
0100
0000
0100
0001
0100
0000
0100
0000
0100
0000
0010
0000
,
0100
0010
1000
0001
0010
0001
1000
0010
,
1000
0000
0010
0000
1000
0001
1000
0000
1000
0000
1000
0000
1000
0000
1000
0000
,
0MM2
0003
0000
0000
1000
0100
0010
0001
0100
0001
1000
0100
0010
0001
0100
0010
,
1000
0010
0100
0001
0010
0100
0010
0100
0010
0100
1000
0100
0010
0001
0100
0010
,
1000
0010
0100
0001
1000
0100
0010
0001
0100
0001
1000
0100
0010
0001
0100
0010
,
1000
0010
0100
0001
0010
0100
1000
0100
0010
0001
1000
0001
1000
0010
0100
0001
,
1000
0001
0100
0010
1000
0010
0100
0001
0010
0001
1000
0010
0100
0001
0010
0100
,
1000
0100
0010
0001
0100
0010
0100
0010
0100
0010
1000
0010
0100
0001
0010
0100
,
1000
0100
0010
0001
1000
0010
0100
0001
0010
0001
1000
0010
0100
0001
0010
0100
,
1000
0100
0010
0001
1000
0001
1000
0000
1000
0000
1000
0000
0MM2
0003
0000
0000
,
0000
0000
0011
1000
0011
1000
0011
0100
,
0011
1000
0110
0001
0110
1000
0110
0001
,
0110
1000
0101
0010
0101
1000
0101
0010
,
0101
1000
1100
0001
1100
0010
1100
0001
,
1100
0010
1001
0100
0011
1000
0110
0001
,
1010
0100
0011
1000
0110
0001
1100
0001
,
0110
1000
0011
0100
0011
1000
0110
0001
,
1010
0100
1001
0010
0101
0010
1001
0100
,
2002
0000
0000
0000
0000
0000
0000
0000
0000
0000
0000
0000
0000
0000
0000
3003
0110
0000
0000
0000
0000
0000
0000
0000
1000
0000
0000
0000
0000
0000
0000
0000
0101
0000
0000
0000
0000
0000
0000
0000
0010
0000
0000
0000
0000
0000
0000
0000
1001
0000
0000
0000
0000
0000
0000
0000
0100
0000
0000
0000
0000
0000
0000
0000
,
1001
0010
1100
0001
1010
0100
1001
0100
,
0011
1000
0110
0001
1010
0100
0011
1000
,
0110
0000
0000
0000
0000
0000
0000
0000
0001
0000
0000
0000
0000
0000
0000
0000
1100
0000
0000
0000
0000
0000
0000
0000
0001
0000
0000
0000
0000
0000
0000
0000
2020
0000
0000
0000
0000
0000
0000
3030
0100
0000
0000
0000
0000
0000
0000
0000
0011
0000
0000
0000
0000
0000
0000
0000
1000
0000
0000
0000
0000
0000
0000
0000
,
0220
0000
0000
0300
0031
1000
0100
1000
0001
0100
0001
1000
0010
1000
0100
0010
,
0001
0010
0100
1000
0010
1000
0100
1000
0001
0100
0001
0010
0100
0010
0001
0100
,
0010
1000
0010
1000
0100
0010
0001
0010
0100
1000
0010
1000
0100
0010
0001
0010
,
0100
0010
0001
0100
0010
1000
0010
0100
0001
0010
0100
1000
0010
1000
0010
1000
,
0100
0000
0000
0000
0010
0000
0000
0000
0100
0000
0000
0000
1000
0000
0000
0000
0200
0300
0000
0000
0020
0030
0000
0000
0002
0003
0000
0000
0200
0300
0000
0000
0020
0030
0000
0000
2000
3000
0000
0000
0020
0030
0000
0000
0200
0300
0000
0000
0002
0003
0000
0000
0020
0030
0000
0000
0200
0300
0000
0000
0020
0030
0000
0000
,
0002
0003
0000
0000
2000
3000
0000
0000
0020
0030
0000
0000
0200
0300
0000
0000
0002
0003
0000
0000
2000
3000
0000
0000
0020
0030
0000
0000
2000
3000
0000
0000
0200
0300
0000
0000
0020
0030
0000
0000
0200
0300
0000
0000
2000
3000
0000
0000
0002
0003
0000
0000
0200
0300
0000
0000
0002
0003
0000
0000
0020
0030
0000
0000
,
0200
0300
0000
0000
2000
3000
0000
0000
0002
0003
0000
0000
0200
0300
0000
0000
0002
0003
0000
0000
0020
0030
0000
0000
0200
0300
0000
0000
2000
3000
0000
0000
0020
0030
0000
0000
2000
3000
0000
0000
0020
0030
0000
0000
0200
0300
0000
0000
0002
0003
0000
0000
0020
0030
0000
0000
0200
0300
0000
0000
0020
0030
0000
0000
,
0002
0003
0000
0000
0200
0300
0000
0000
0020
0030
0000
0000
2000
3000
0000
0000
0200
0300
0000
0000
2000
3000
0000
0000
0020
0030
0000
0000
0200
0300
0000
0000
0002
0003
0000
0000
0020
0030
0000
0000
0200
0300
0000
0000
0020
0030
0000
0000
0002
0003
0000
0000
2000
3000
0000
0000
0020
0030
0000
0000
0200
0300
0000
0000
,
0002
0003
0000
0000
0200
0300
0000
0000
0020
0030
0000
0000
0200
0300
0000
0000
0004
0003
0000
0000
0400
0300
0000
0000
0040
0030
0000
0000
4000
3000
0000
0000
0400
0300
0000
0000
4000
3000
0000
0000
0004
0003
0000
0000
0040
0030
0000
0000
0400
0300
0000
0000
0040
0030
0000
0000
0004
0003
0000
0000
0400
0300
0000
0000
,
0040
0030
0000
0000
4000
3000
0000
0000
0400
0300
0000
0000
4000
3000
0000
0000
0004
0003
0000
0000
0040
0030
0000
0000
0004
0003
0000
0000
0400
0300
0000
0000
0040
0030
0000
0000
0400
0300
0000
0000
0040
0030
0000
0000
4000
3000
0000
0000
0400
0300
0000
0000
4000
3000
0000
0000
0004
0003
0000
0000
0040
0030
0000
0000
,
0004
0003
0000
0000
0400
0300
0000
0000
0040
0030
0000
0000
0400
0300
0000
0000
0040
0030
0000
0000
4000
3000
0000
0000
0400
0300
0000
0000
0040
0030
0000
0000
0004
0003
0000
0000
4000
3000
0000
0000
0400
0300
0000
0000
0040
0030
0000
0000
0400
0300
0000
0000
4000
3000
0000
0000
0004
0003
0000
0000
0400
0300
0000
0000
,
0040
0030
0000
0000
0400
0300
0000
0000
0040
0030
0000
0000
4000
3000
0000
0000
0004
0003
0000
0000
4000
3000
0000
0000
0040
0030
0000
0000
0400
0300
0000
0000
0004
0003
0000
0000
0400
0300
0000
0000
0040
0030
0000
0000
4000
3000
0000
0000
0400
0300
0000
0000
4000
3000
0000
0000
0004
0003
0000
0000
0040
0030
0000
0000
,
0400
0000
0000
0300
0000
0000
0000
0000
0000
0000
0000
0000
4000
0000
0000
3000
0000
0000
0000
0000
0000
0000
0000
0000
0040
0000
0000
0030
0000
0000
0000
0000
0000
0000
0000
0000
0400
0000
0000
0300
0000
0000
0000
0000
0000
0000
0000
0000
0002
0000
0000
0000
0000
0000
0000
0000
0000
0000
0000
0000
0000
0000
0000
0000
0000
0000
0000
0000
0000
0000
0000
0000
0000
0000
0000
0000
0000
0000
0000
0000
0000
0000
0000
0000
0000
0000
0000
0000
0000
0000
0000
0000
0000
0000
0000
0000
M000
0000
0000
0000
0000
0000
0000
0000
0000
0000
0000
0000
0000
0000
0000
0000
00M0
0000
0000
0000
0000
0000
0000
0000
0000
0000
0000
0000
0000
0000
0000
0000
M000
0000
0000
0000
0000
0000
0000
0000
0000
0000
0000
0000
0000
0000
0000
0000
00M0
0000
0000
0000
0000
0000
0000
0000
0000
0000
0000
0000
0000
0000
0000
0000
0M00
0000
0000
0000
0000
0000
0000
0000
0000
0000
0000
0000
0000
0000
0000
0000
00M0
0000
0000
0000
0000
0000
0000
0000
0000
0000
0000
0000
0000
0000
0000
0000
,
M000
0M00
M000
00M0
0M00
00M0
M000
0M00
M000
00M0
0M00
M000
,
00M0
0M00
00M0
M000
0M00
00M0
0M00
M000
00M0
0M00
00M0
M000
,
00M0
M000
0M00
00M0
M000
00M0
0M00
00M0
M000
0M00
00M0
M000
,
0M00
0000
00M0
0000
0M00
0000
M000
0000
00M0
0000
0M00
0000
M000
0000
00M0
0000
M000
0000
00M3
0000
0000
0M00
0000
0000
,
M000
0000
0000
0000
0000
0000
0000
0000
0000
0000
0000
MMMM
0000
0000
0000
0000
0000
0000
0000
0000
0000
0000
0000
0000
0000
0000
0000
0000
0000
0000
0000
0000
;
