#TITLE:Perfect Cell Theme;
#SUBTITLE:(Remix);
#ARTIST:Funimation;
#TITLETRANSLIT:;
#SUBTITLETRANSLIT:;
#ARTISTTRANSLIT:;
#CREDIT:;
#BANNER:Cell-bn.png;
#BACKGROUND:Cell-bg.png;
#LYRICSPATH:;
#CDTITLE:audioslave'sRevenge-cdtitle.png;
#MUSIC:DBZ Cell Theme(recut).mp3;
#OFFSET:-0.140;
#SAMPLESTART:60.024;
#SAMPLELENGTH:12.000;
#SELECTABLE:YES;
#BPMS:0.000=199.920,448.500=99.960;
#STOPS:;
#BGCHANGES:;
// cache tags:
#FIRSTBEAT:0.500;
#LASTBEAT:448.500;
#SONGFILENAME:Songs/toune/Perfect Cell Theme (Remix)/cell.sm;
#HASMUSIC:1;
#HASBANNER:1;
#MUSICLENGTH:137.168;
// end cache tags

//---------------dance-single - ----------------
#NOTES:
     dance-single:
     :
     Challenge:
     10:
     0.648,0.736,0.343,0.459,0.000,512.000,47.000,63.000,0.000,0.000:
0000
0100
0001
0000
0000
0000
0000
0000
,
0000
0000
0000
0000
,
0000
1000
0010
0000
0000
0000
0000
0000
,
0000
0000
0000
0000
,
0000
0001
0100
0000
0000
0000
0000
0000
,
0000
0000
0000
0000
,
0000
1000
0100
0000
0000
0000
0000
0000
,
0000
0000
0000
0000
0000
2002
0000
0000
,
3003
0001
0000
0100
0000
0010
0000
1000
,
0000
0010
1000
0010
0100
0010
0100
0001
,
0100
0020
0000
1000
0000
0100
0000
1000
,
0030
0001
0100
0010
0100
0001
0100
0010
,
0100
0002
0000
0010
0000
0100
0000
0010
,
0003
0001
0100
1000
0000
0100
0000
1000
,
0000
1000
0100
0001
0000
0100
0010
1000
,
0000
1000
0010
0100
0000
0010
0100
0001
,
0000
0001
0100
0010
1000
0010
0000
0000
,
0000
1000
0010
0100
0010
0100
0001
0100
,
0010
1000
0010
1000
0010
0100
0000
0000
,
0000
0001
0100
0010
0100
0002
0000
0100
,
0000
0010
0003
1100
1000
0100
0000
0000
,
0000
0001
0100
0010
0100
0001
0100
1000
,
0010
1000
0010
1000
0010
0100
0000
0000
,
0000
0101
0000
0010
1000
1000
0000
0000
,
0000
0010
0100
0010
0100
0100
0100
0100
,
0100
0001
0001
0001
0001
0100
0100
0100
,
0100
1000
1000
0100
1100
1000
1000
1000
,
1000
0010
0010
0010
0010
0100
0100
0100
,
0100
0001
0100
0010
0100
0001
0001
0001
,
0001
0100
0100
0100
0100
1000
1000
1000
,
1000
1000
0010
1000
0010
0100
0010
0100
,
0001
0100
0010
1000
0000
0010
1010
0100
,
0010
0000
0200
0001
0000
0010
0000
0301
,
0000
0002
0000
0000
0000
0100
0000
0003
,
0000
0001
0100
0010
1000
0010
1000
0010
,
0100
0020
0000
0000
0000
1000
0000
0000
,
0030
0001
0100
0010
0100
0001
0100
0010
,
1000
0200
0000
0000
0000
0301
0000
0000
,
0000
0001
0100
0010
0100
0001
0000
0000
,
0000
0001
0100
1000
0100
1000
0000
0000
,
0000
1000
0010
0001
0000
0010
1000
0000
,
0000
1000
0010
0101
0000
0010
0100
0101
,
0000
0010
1000
0010
1000
0020
0000
0000
,
0000
1000
0130
1000
0010
2000
0000
0000
,
0000
3010
0100
0010
0100
0001
0100
0010
,
0100
1000
0000
0000
0100
1100
0000
0000
,
0000
0001
0100
0010
0101
0001
0000
0000
,
0000
0101
0000
1100
0000
0101
0000
0000
,
0000
0220
0000
0000
0000
0000
0000
0000
,
0000
0330
0000
0000
0000
0000
0000
2002
,
0000
0000
3003
0202
0000
0000
0303
0220
,
0000
0000
0330
2020
0000
0000
3030
0220
,
0000
0000
0330
0202
0000
0000
0000
0000
,
0000
0000
0000
0000
,
0000
0303
0000
0000
0000
0000
0000
0000
,
0000
0000
0000
0000
0000
1001
0000
0000
,
0000
0001
0100
0010
1000
0010
0000
0000
,
0000
1000
0010
0100
0010
0100
0000
0000
,
0000
0001
0100
0010
0100
0001
0000
0000
,
0000
0001
0100
0010
1000
0010
0000
0000
,
0000
1000
0010
0100
0010
0100
0000
0000
,
0000
0001
0100
0010
0100
0001
0000
0000
,
0000
0001
0100
0010
1000
0010
1010
0000
,
0100
0010
0100
0101
0010
0100
0001
0100
,
0010
2000
0000
0010
0000
0100
0000
0001
,
3000
0001
0000
0200
0000
0010
0000
0001
,
0300
0010
0000
2000
0000
0100
0000
0001
,
3000
0200
0000
0010
0000
0001
0000
0310
,
0000
2000
0000
0010
0000
0100
0000
3001
,
0000
0200
0000
0001
0000
0010
0000
0001
,
0300
2000
0000
0100
0000
0010
0000
3100
,
0000
1001
0000
0101
0000
0110
0000
1010
,
0000
0020
0000
1000
0000
0100
0000
1030
,
0000
0002
0000
0100
0000
0010
0000
0103
,
0000
1100
0000
1010
0000
0110
0000
0101
,
0000
0110
0000
1010
0000
0110
0000
0101
,
0000
0110
0000
2000
0000
0100
0000
3001
,
0000
0101
0000
0100
0000
0110
0000
1000
,
0000
2000
0000
0100
0000
0001
0000
0010
,
0000
0010
0000
0100
0000
0001
3000
1000
,
0000
0001
0100
0010
0100
0101
0000
1000
,
0100
1000
0010
1000
0010
0100
0010
0100
,
0001
0100
0010
1000
0010
1000
0100
0010
,
0100
0001
0100
0010
0100
0001
0200
0000
,
0000
0301
0100
0010
1000
0010
1000
0010
,
0100
0001
0100
0010
0100
2000
0000
0000
,
3000
0001
0100
0010
1000
0200
0000
0000
,
0300
0001
0100
0010
0100
0002
0000
0000
,
0003
0001
0100
0010
0100
1000
0000
1100
,
0000
0001
0000
0100
0000
0110
0000
1000
,
0000
0100
1000
0010
0000
1010
0000
0100
,
0000
0010
0100
0001
0100
0010
1000
0100
,
1000
0001
0000
0200
0000
0010
0000
0001
,
0300
0001
0100
0010
0100
0001
0100
0010
,
1000
0010
0000
2000
0000
3100
0000
0110
,
0100
1000
0000
0101
0000
1001
0000
0110
,
0100
2010
0000
0000
0000
0010
0000
0100
,
3000
0001
0000
0100
0010
0100
0000
0002
,
0000
0103
0000
0010
1000
0010
0000
0020
,
0000
0100
0000
1030
0100
1000
0000
0100
,
0000
2000
0000
0000
0000
0200
0000
0000
,
0300
3002
0000
0003
1000
0100
0010
0001
,
1000
0200
0000
0000
0000
0302
0000
0000
,
0000
0203
0000
0000
0310
0010
1000
0001
,
0010
0200
0000
0000
0000
0002
0000
0300
,
0000
0203
0000
0000
0300
1000
0010
0000
,
1000
0200
0000
0000
0000
0302
0000
0000
,
0003
0100
0010
1000
0010
0100
0010
0000
,
0100
0002
0000
0000
0000
0200
0000
0003
,
0000
0320
0000
0000
0030
1000
0100
0000
,
0001
0200
0000
0000
0000
0302
0000
0000
,
0000
0203
0000
0000
0300
2000
0000
0000
,
3000
1001
0000
0000
0000
0000
0000
0000
;
